<?xml version="1.0" standalone="no"?>
<!DOCTYPE svg PUBLIC "-//W3C//DTD SVG 1.1//EN" "http://www.w3.org/Graphics/SVG/1.1/DTD/svg11.dtd" >
<svg xmlns="http://www.w3.org/2000/svg" xmlns:xlink="http://www.w3.org/1999/xlink" version="1.1">
<metadata>
Created by FontForge 20190801 at Mon Feb 12 01:07:39 2018
 By Jimmy Wärting
Copyright (c) 2018 by S-Core Co., Ltd.. All rights reserved.
</metadata>
<defs>
<font id="S-CoreDream-3Light" horiz-adv-x="960" >
  <font-face 
    font-family="S-Core Dream 3 Light"
    font-weight="300"
    font-stretch="normal"
    units-per-em="1000"
    panose-1="2 11 3 3 3 3 2 2 2 4"
    ascent="800"
    descent="-200"
    x-height="559"
    cap-height="781"
    bbox="-30 -261 1154 1017"
    underline-thickness="50"
    underline-position="-100"
    stemh="53"
    stemv="64"
    unicode-range="U+0020-FFE6"
  />
<missing-glyph horiz-adv-x="289" 
 />
    <glyph glyph-name=".notdef" horiz-adv-x="289" 
 />
    <glyph glyph-name="_1" unicode=" " horiz-adv-x="289" 
 />
    <glyph glyph-name="_2" unicode="!" horiz-adv-x="299" 
d="M176 230h-53l-5 415v136h64v-136zM183 105v-101h-67v101h67z" />
    <glyph glyph-name="_3" unicode="&#x22;" horiz-adv-x="374" 
d="M280 559h-57v222h57v-222zM152 559h-58v222h58v-222z" />
    <glyph glyph-name="_4" unicode="#" horiz-adv-x="717" 
d="M376 4l50 229h-203l-50 -229h-59l50 229h-125v51h136l47 216h-145v51h156l50 230h58l-50 -230h204l50 230h58l-50 -230h125v-51h-136l-48 -216h146v-51h-156l-50 -229h-58zM280 500l-47 -216h203l48 216h-204z" />
    <glyph glyph-name="_5" unicode="$" horiz-adv-x="624" 
d="M285 -93v85c-148 11 -226 102 -226 215v23h64v-24c0 -82 58 -146 162 -157v330l-36 8c-122 25 -190 90 -190 201c0 108 78 199 226 205v85h50v-86c138 -12 211 -99 211 -204v-17h-64v17c0 80 -53 136 -147 147v-306l32 -7c143 -29 208 -101 208 -215
c0 -117 -84 -209 -240 -216v-84h-50zM349 366l-14 2v-320c112 6 176 72 176 158c0 83 -47 136 -162 160zM123 588c0 -81 50 -126 144 -145l18 -3v296c-104 -6 -162 -64 -162 -148z" />
    <glyph glyph-name="_6" unicode="%" horiz-adv-x="863" 
d="M299 4h-55l319 777h55zM371 585c0 -144 -57 -210 -153 -210c-97 0 -153 66 -153 210c0 143 56 209 153 209c96 0 153 -66 153 -209zM317 585c0 121 -38 163 -99 163c-62 0 -100 -42 -100 -163c0 -123 38 -164 100 -164c61 0 99 41 99 164zM492 200c0 143 56 210 153 210
c96 0 153 -67 153 -210s-57 -209 -153 -209c-97 0 -153 66 -153 209zM545 200c0 -122 38 -163 100 -163c61 0 99 41 99 163s-38 164 -99 164c-62 0 -100 -42 -100 -164z" />
    <glyph glyph-name="_7" unicode="&#x26;" horiz-adv-x="702" 
d="M309 794c114 0 193 -65 193 -176v-22h-62v21c0 78 -52 122 -131 122s-130 -44 -130 -122c0 -48 15 -85 76 -147l275 -283c27 56 41 125 44 202h62c-2 -95 -22 -181 -60 -249l132 -136h-80l-86 87c-54 -63 -131 -100 -236 -100c-150 0 -247 88 -247 221
c0 98 46 175 140 232c-64 66 -82 114 -82 174c0 111 79 176 192 176zM306 45c88 0 151 34 193 91l-264 270c-79 -51 -114 -114 -114 -193c0 -103 78 -168 185 -168z" />
    <glyph glyph-name="_8" unicode="'" horiz-adv-x="246" 
d="M152 559h-58v222h58v-222z" />
    <glyph glyph-name="_9" unicode="(" horiz-adv-x="344" 
d="M94 388c0 425 70 503 226 503v-53c-117 0 -165 -67 -165 -450s48 -450 165 -450v-53c-156 0 -226 77 -226 503z" />
    <glyph glyph-name="_10" unicode=")" horiz-adv-x="344" 
d="M250 388c0 -426 -70 -503 -226 -503v53c117 0 165 67 165 450s-48 450 -165 450v53c156 0 226 -78 226 -503z" />
    <glyph glyph-name="_11" unicode="*" horiz-adv-x="522" 
d="M212 366l-171 93l29 51l167 -103l-5 196h58l-5 -196l167 103l29 -51l-172 -93l172 -94l-29 -50l-167 101l5 -194h-58l5 194l-167 -101l-29 50z" />
    <glyph glyph-name="_12" unicode="+" horiz-adv-x="580" 
d="M59 340v52h202v211h58v-211h201v-52h-201v-211h-58v211h-202z" />
    <glyph glyph-name="_13" unicode="," horiz-adv-x="303" 
d="M100 -124v38c32 8 48 28 48 71v18h-34v108h74v-120c0 -69 -26 -103 -88 -115z" />
    <glyph glyph-name="_14" unicode="-" horiz-adv-x="438" 
d="M59 338v56h319v-56h-319z" />
    <glyph glyph-name="_15" unicode="." horiz-adv-x="303" 
d="M188 111v-107h-74v107h74z" />
    <glyph glyph-name="_16" unicode="/" horiz-adv-x="419" 
d="M421 873l-360 -972h-63l360 972h63z" />
    <glyph glyph-name="_17" unicode="0" horiz-adv-x="606" 
d="M550 393c0 -180 -24 -267 -73 -329c-38 -48 -97 -73 -174 -73s-135 25 -174 73c-49 62 -73 149 -73 329c0 178 24 266 73 327c39 48 97 74 174 74s136 -26 174 -74c49 -61 73 -149 73 -327zM488 393c0 161 -18 241 -55 288c-29 37 -73 58 -130 58s-101 -21 -130 -58
c-37 -47 -55 -127 -55 -288c0 -162 18 -242 55 -289c29 -37 73 -59 130 -59s101 22 130 59c37 47 55 127 55 289z" />
    <glyph glyph-name="_18" unicode="1" horiz-adv-x="606" 
d="M399 4h-62v711l-202 -90v62l209 94h55v-777z" />
    <glyph glyph-name="_19" unicode="2" horiz-adv-x="606" 
d="M530 567c0 -71 -15 -118 -76 -185l-286 -324h374v-54h-457v51l319 361c46 52 64 96 64 150c0 99 -61 173 -166 173c-106 0 -166 -75 -166 -173v-22h-62v23c0 123 80 227 228 227c149 0 228 -104 228 -227z" />
    <glyph glyph-name="_20" unicode="3" horiz-adv-x="606" 
d="M479 217c0 104 -65 173 -172 173h-76v54h80c96 0 145 70 145 148c0 86 -62 147 -155 147c-96 0 -155 -61 -155 -147v-14h-62v18c0 111 82 198 217 198s217 -87 217 -198c0 -90 -45 -157 -125 -179c87 -20 148 -89 148 -201c0 -139 -97 -225 -240 -225s-241 90 -241 233v7
h63v-5c0 -113 75 -181 178 -181s178 67 178 172z" />
    <glyph glyph-name="_21" unicode="4" horiz-adv-x="606" 
d="M127 239h266v437zM559 239v-55h-104v-180h-62v180h-336v55l331 542h67v-542h104z" />
    <glyph glyph-name="_22" unicode="5" horiz-adv-x="606" 
d="M308 453c-66 0 -118 -35 -144 -98h-63l20 426h378v-55h-319l-14 -296c27 46 80 78 151 78c137 0 224 -92 224 -260c0 -163 -88 -257 -233 -257c-138 0 -220 81 -232 216h62c11 -107 73 -162 170 -162c109 0 171 73 171 204s-62 204 -171 204z" />
    <glyph glyph-name="_23" unicode="6" horiz-adv-x="606" 
d="M525 606h-65c-11 91 -70 133 -153 133c-127 0 -171 -96 -175 -330c28 59 93 99 181 99c142 0 233 -99 233 -259s-96 -258 -238 -258c-100 0 -176 44 -214 139c-21 51 -26 121 -26 203v17c0 331 71 444 241 444c119 0 201 -63 216 -188zM308 46c105 0 176 74 176 203
c0 128 -71 204 -176 204s-176 -76 -176 -204c0 -129 71 -203 176 -203z" />
    <glyph glyph-name="_24" unicode="7" horiz-adv-x="606" 
d="M75 726v55h454v-51l-277 -726h-66l280 722h-391z" />
    <glyph glyph-name="_25" unicode="8" horiz-adv-x="606" 
d="M303 -9c-150 0 -251 82 -251 221c0 104 58 177 153 202c-78 25 -130 91 -130 180c0 118 87 200 228 200s228 -82 228 -200c0 -89 -52 -155 -130 -180c95 -25 154 -98 154 -202c0 -139 -102 -221 -252 -221zM303 442c98 0 166 57 166 148s-68 149 -166 149
s-166 -58 -166 -149s68 -148 166 -148zM492 216c0 108 -78 172 -189 172c-110 0 -189 -64 -189 -172s79 -171 189 -171c111 0 189 63 189 171z" />
    <glyph glyph-name="_26" unicode="9" horiz-adv-x="606" 
d="M80 179h65c11 -91 70 -133 153 -133c127 0 172 95 175 330c-28 -59 -92 -99 -181 -99c-142 0 -233 99 -233 259s97 258 239 258c99 0 175 -44 213 -139c21 -52 26 -121 26 -204v-17c0 -332 -73 -443 -240 -443c-120 0 -202 63 -217 188zM298 739
c-106 0 -176 -75 -176 -203c0 -129 70 -204 176 -204c105 0 175 75 175 204c0 128 -70 203 -175 203z" />
    <glyph glyph-name="_27" unicode=":" horiz-adv-x="303" 
d="M188 111v-107h-74v107h74zM188 559v-108h-74v108h74z" />
    <glyph glyph-name="_28" unicode=";" horiz-adv-x="303" 
d="M188 559v-108h-74v108h74zM100 -124v38c32 8 48 28 48 71v18h-34v108h74v-120c0 -69 -26 -103 -88 -115z" />
    <glyph glyph-name="_29" unicode="&#x3c;" horiz-adv-x="578" 
d="M510 546l-376 -180l376 -180v-61l-443 215v52l443 214v-60z" />
    <glyph glyph-name="_30" unicode="=" horiz-adv-x="580" 
d="M59 240v53h461v-53h-461zM59 439v53h461v-53h-461z" />
    <glyph glyph-name="_31" unicode="&#x3e;" horiz-adv-x="578" 
d="M444 366l-377 180v60l443 -214v-52l-443 -215v61z" />
    <glyph glyph-name="_32" unicode="?" horiz-adv-x="569" 
d="M498 580c0 -84 -24 -133 -98 -195c-80 -67 -93 -98 -93 -157v-23h-62v27c0 75 18 110 106 185c65 56 86 95 86 161c0 97 -59 161 -156 161c-98 0 -155 -69 -155 -162h-62v3c0 120 74 214 217 214c142 0 217 -94 217 -214zM309 105v-101h-67v101h67z" />
    <glyph glyph-name="_33" unicode="@" horiz-adv-x="820" 
d="M509 526c85 0 142 -35 167 -89c-16 222 -91 307 -266 307c-204 0 -272 -109 -272 -450c0 -361 82 -450 272 -450c49 0 101 12 139 34l19 -47c-46 -23 -101 -37 -158 -37c-224 0 -328 115 -328 500c0 364 89 500 328 500c238 0 328 -136 328 -500v-16
c0 -168 -78 -265 -222 -265c-146 0 -219 99 -219 256c0 163 77 257 212 257zM518 64c107 0 164 70 164 205c0 134 -57 205 -164 205s-163 -71 -163 -205c0 -135 56 -205 163 -205z" />
    <glyph glyph-name="_34" unicode="A" horiz-adv-x="658" 
d="M293 781h71l282 -777h-68l-69 194h-361l-68 -194h-68zM329 708l-161 -454h321z" />
    <glyph glyph-name="_35" unicode="B" horiz-adv-x="655" 
d="M369 4h-287v777h278c151 0 227 -73 227 -200c0 -97 -48 -157 -123 -177c94 -18 145 -85 145 -189c0 -143 -82 -211 -240 -211zM522 577c0 97 -55 146 -174 146h-202v-292h202c119 0 174 49 174 146zM146 62h209c139 0 190 54 190 155c0 102 -51 157 -190 157h-209v-312z
" />
    <glyph glyph-name="_36" unicode="C" horiz-adv-x="687" 
d="M350 -9c-96 0 -167 32 -213 91c-59 74 -78 182 -78 311c0 127 19 236 78 310c46 58 117 91 213 91c174 0 272 -105 283 -266h-65c-10 128 -82 209 -218 209c-71 0 -126 -25 -162 -69c-48 -61 -65 -150 -65 -275c0 -126 17 -215 65 -276c36 -45 91 -70 162 -70
c136 0 208 81 218 210h65c-11 -162 -109 -266 -283 -266z" />
    <glyph glyph-name="_37" unicode="D" horiz-adv-x="696" 
d="M347 4h-265v777h265c228 0 289 -177 289 -388c0 -212 -59 -389 -289 -389zM571 393c0 195 -50 330 -230 330h-195v-661h195c180 0 230 134 230 331z" />
    <glyph glyph-name="_38" unicode="E" horiz-adv-x="573" 
d="M82 4v777h440v-58h-376v-292h336v-58h-336v-312h381v-57h-445z" />
    <glyph glyph-name="_39" unicode="F" horiz-adv-x="552" 
d="M82 4v777h434v-58h-370v-304h336v-57h-336v-358h-64z" />
    <glyph glyph-name="_40" unicode="G" horiz-adv-x="709" 
d="M350 737c-170 0 -227 -129 -227 -344c0 -220 58 -345 227 -345c137 0 222 89 222 252v38h-216v57h279v-391h-49l-10 117c-32 -77 -110 -130 -228 -130c-222 0 -289 173 -289 402c0 226 66 401 291 401c174 0 272 -105 283 -266h-65c-10 128 -82 209 -218 209z" />
    <glyph glyph-name="_41" unicode="H" horiz-adv-x="682" 
d="M536 4v369h-390v-369h-64v777h64v-351h390v351h64v-777h-64z" />
    <glyph glyph-name="_42" unicode="I" horiz-adv-x="229" 
d="M146 781v-777h-64v777h64z" />
    <glyph glyph-name="_43" unicode="J" horiz-adv-x="567" 
d="M258 48c107 0 165 70 165 199v534h65v-539c0 -158 -81 -251 -230 -251c-152 0 -230 94 -230 253h64c1 -125 56 -196 166 -196z" />
    <glyph glyph-name="_44" unicode="K" horiz-adv-x="613" 
d="M581 781l-282 -380l317 -397h-76l-291 369h-103v-369h-64v777h64v-350h103l257 350h75z" />
    <glyph glyph-name="_45" unicode="L" horiz-adv-x="543" 
d="M82 4v777h64v-720h381v-57h-445z" />
    <glyph glyph-name="_46" unicode="M" horiz-adv-x="916" 
d="M493 4h-71l-276 638v-638h-64v777h71l305 -705l304 705h71v-777h-64v638z" />
    <glyph glyph-name="_47" unicode="N" horiz-adv-x="694" 
d="M611 4h-64l-401 659v-659h-64v777h64l401 -659v659h64v-777z" />
    <glyph glyph-name="_48" unicode="O" horiz-adv-x="702" 
d="M642 393c0 -129 -19 -237 -77 -311c-47 -59 -118 -91 -214 -91c-97 0 -167 32 -214 91c-58 74 -78 182 -78 311c0 127 20 236 78 310c47 58 117 91 214 91c96 0 167 -33 214 -91c58 -74 77 -183 77 -310zM578 393c0 125 -17 214 -64 275c-37 44 -92 69 -163 69
s-127 -25 -163 -69c-48 -61 -64 -150 -64 -275c0 -126 16 -215 64 -276c36 -45 92 -70 163 -70s126 25 163 70c47 61 64 150 64 276z" />
    <glyph glyph-name="_49" unicode="P" horiz-adv-x="644" 
d="M146 364h215c122 0 184 68 184 180s-62 179 -184 179h-215v-359zM367 307h-221v-303h-64v777h285c159 0 242 -92 242 -237c0 -146 -83 -237 -242 -237z" />
    <glyph glyph-name="_50" unicode="Q" horiz-adv-x="700" 
d="M642 393c0 -116 -16 -215 -61 -288l102 -86l-38 -43l-100 85c-45 -46 -110 -70 -194 -70c-97 0 -167 32 -214 91c-58 74 -78 182 -78 311c0 127 20 236 78 310c47 58 117 91 214 91c96 0 167 -33 214 -91c58 -74 77 -183 77 -310zM578 393c0 125 -17 214 -64 275
c-37 44 -92 69 -163 69s-127 -25 -163 -69c-48 -61 -64 -150 -64 -275c0 -126 16 -215 64 -276c36 -45 92 -70 163 -70c62 0 112 19 148 54l-124 106l37 43l122 -104c32 60 44 140 44 247z" />
    <glyph glyph-name="_51" unicode="R" horiz-adv-x="667" 
d="M615 4h-66c-7 17 -10 41 -12 70l-8 110c-7 96 -49 136 -172 136h-211v-316h-64v777h287c163 0 240 -88 240 -227c0 -106 -45 -178 -138 -205c78 -15 115 -62 123 -164l7 -110c3 -30 7 -53 14 -71zM146 378h217c119 0 182 59 182 172c0 114 -63 173 -182 173h-217v-345z
" />
    <glyph glyph-name="_52" unicode="S" horiz-adv-x="624" 
d="M575 207c0 -121 -90 -216 -258 -216s-258 95 -258 216v23h64v-24c0 -91 71 -159 194 -159s194 68 194 159c0 83 -47 136 -162 160l-100 21c-122 25 -190 90 -190 201c0 113 84 206 243 206s244 -93 244 -206v-17h-64v17c0 89 -65 149 -180 149c-114 0 -179 -60 -179 -149
c0 -81 50 -126 144 -145l100 -21c143 -29 208 -101 208 -215z" />
    <glyph glyph-name="_53" unicode="T" horiz-adv-x="566" 
d="M17 723v58h532v-58h-234v-719h-64v719h-234z" />
    <glyph glyph-name="_54" unicode="U" horiz-adv-x="706" 
d="M352 -9c-193 0 -275 121 -275 299v491h64v-483c0 -160 62 -251 211 -251c151 0 212 91 212 251v483h64v-491c0 -178 -82 -299 -276 -299z" />
    <glyph glyph-name="_55" unicode="V" horiz-adv-x="658" 
d="M364 4h-71l-281 777h68l249 -692l249 692h68z" />
    <glyph glyph-name="_56" unicode="W" horiz-adv-x="1025" 
d="M714 4l-201 674l-202 -674h-74l-220 777h66l193 -685l204 685h65l204 -685l193 685h67l-221 -777h-74z" />
    <glyph glyph-name="_57" unicode="X" horiz-adv-x="645" 
d="M551 4l-229 350l-229 -350h-72l261 397l-247 380h71l216 -332l217 332h71l-247 -380l261 -397h-73z" />
    <glyph glyph-name="_58" unicode="Y" horiz-adv-x="645" 
d="M17 781h69l236 -409l236 409h70l-274 -471v-306h-64v306z" />
    <glyph glyph-name="_59" unicode="Z" horiz-adv-x="579" 
d="M47 56l404 667h-393v58h468v-53l-404 -667h410v-57h-485v52z" />
    <glyph glyph-name="_60" unicode="[" horiz-adv-x="359" 
d="M94 -99v972h218v-53h-157v-866h157v-53h-218z" />
    <glyph glyph-name="_61" unicode="\" 
d="M651 4h74l92 375h123v43h-112l88 359h-67l-85 -359h-161l-91 359h-65l-91 -359h-161l-85 359h-66l88 -359h-112v-43h122l92 -375h74l96 375h152zM545 422h-130l65 256zM206 379h139l-72 -283zM614 379h139l-67 -283z" />
    <glyph glyph-name="_62" unicode="]" horiz-adv-x="359" 
d="M265 873v-972h-218v53h157v866h-157v53h218z" />
    <glyph glyph-name="_63" unicode="^" horiz-adv-x="455" 
d="M200 781h55l176 -258h-63l-141 207l-140 -207h-63z" />
    <glyph glyph-name="_64" unicode="_" horiz-adv-x="555" 
d="M0 -169v42h555v-42h-555z" />
    <glyph glyph-name="_65" unicode="`" horiz-adv-x="367" 
d="M217 636l-126 178h70l115 -178h-59z" />
    <glyph glyph-name="_66" unicode="a" horiz-adv-x="566" 
d="M440 167c0 76 -55 123 -167 123c-111 0 -166 -47 -166 -123s55 -123 166 -123c112 0 167 47 167 123zM440 65c-24 -47 -85 -74 -179 -74c-135 0 -215 66 -215 176c0 109 80 177 215 177c94 0 155 -30 179 -75v104c0 88 -53 146 -156 146c-98 0 -145 -49 -154 -119h-62
c10 102 81 172 216 172c143 0 218 -78 218 -201v-290c0 -28 5 -57 14 -77h-64c-8 17 -11 39 -12 61z" />
    <glyph glyph-name="_67" unicode="b" horiz-adv-x="589" 
d="M132 97v-93h-61v777h61v-316c25 64 85 107 180 107c148 0 228 -101 228 -291s-80 -290 -228 -290c-95 0 -155 43 -180 106zM479 281c0 152 -52 238 -173 238c-122 0 -174 -86 -174 -238c0 -151 52 -237 174 -237c121 0 173 86 173 237z" />
    <glyph glyph-name="_68" unicode="c" horiz-adv-x="557" 
d="M49 281c0 183 76 291 235 291c131 0 211 -70 225 -190h-63c-11 86 -66 137 -162 137c-122 0 -174 -85 -174 -238s52 -237 174 -237c96 0 151 50 162 136h63c-14 -119 -94 -189 -225 -189c-159 0 -235 107 -235 290z" />
    <glyph glyph-name="_69" unicode="d" horiz-adv-x="589" 
d="M457 4v93c-25 -63 -84 -106 -179 -106c-149 0 -229 100 -229 290s80 291 229 291c95 0 154 -43 179 -107v316h61v-777h-61zM457 281c0 152 -52 238 -173 238c-122 0 -174 -86 -174 -238c0 -151 52 -237 174 -237c121 0 173 86 173 237z" />
    <glyph glyph-name="_70" unicode="e" horiz-adv-x="568" 
d="M518 263h-408c3 -141 57 -219 175 -219c90 0 142 44 158 121h63c-21 -110 -96 -174 -222 -174c-159 0 -235 108 -235 290s76 291 235 291s234 -109 234 -291v-18zM284 519c-113 0 -167 -75 -172 -205h344c-6 130 -60 205 -172 205z" />
    <glyph glyph-name="_71" unicode="f" horiz-adv-x="363" 
d="M339 735h-51c-85 0 -108 -24 -108 -106v-70h159v-53h-159v-502h-62v502h-83v53h83v75c0 116 44 155 165 155c19 0 37 -1 56 -3v-51z" />
    <glyph glyph-name="_72" unicode="g" horiz-adv-x="589" 
d="M457 -32v129c-25 -63 -84 -106 -179 -106c-149 0 -229 100 -229 290s80 291 229 291c95 0 154 -43 179 -107v94h61v-587c0 -134 -75 -226 -221 -226c-127 0 -202 66 -216 165h62c12 -70 69 -111 154 -111c100 0 160 62 160 168zM457 281c0 152 -52 238 -173 238
c-122 0 -174 -86 -174 -238c0 -151 52 -237 174 -237c121 0 173 86 173 237z" />
    <glyph glyph-name="_73" unicode="h" horiz-adv-x="587" 
d="M518 347v-343h-61v323c0 134 -51 192 -147 192c-102 0 -176 -86 -178 -235v-280h-61v777h61v-330c28 71 90 121 190 121c127 0 196 -84 196 -225z" />
    <glyph glyph-name="_74" unicode="i" horiz-adv-x="214" 
d="M138 4h-62v555h62v-555zM138 679h-62v102h62v-102z" />
    <glyph glyph-name="_75" unicode="j" horiz-adv-x="219" 
d="M143 559v-648c0 -103 -44 -149 -140 -149c-11 0 -25 0 -33 1v52h29c54 0 82 27 82 89v655h62zM143 679h-62v102h62v-102z" />
    <glyph glyph-name="_76" unicode="k" horiz-adv-x="499" 
d="M132 4h-61v777h61v-461h71l192 239h73l-212 -265l237 -290h-75l-216 262h-70v-262z" />
    <glyph glyph-name="_77" unicode="l" horiz-adv-x="214" 
d="M138 4h-62v777h62v-777z" />
    <glyph glyph-name="_78" unicode="m" horiz-adv-x="912" 
d="M782 4v365c0 100 -49 150 -133 150c-91 0 -161 -83 -161 -238v-277h-62v365c0 100 -48 150 -133 150c-91 0 -161 -83 -161 -238v-277h-61v555h61v-106c25 74 85 119 172 119c86 0 151 -45 172 -128c29 75 86 128 185 128c116 0 183 -72 183 -202v-366h-62z" />
    <glyph glyph-name="_79" unicode="n" horiz-adv-x="587" 
d="M518 347v-343h-61v323c0 134 -51 192 -147 192c-102 0 -176 -86 -178 -235v-280h-61v555h61v-108c28 71 90 121 190 121c127 0 196 -84 196 -225z" />
    <glyph glyph-name="_80" unicode="o" horiz-adv-x="568" 
d="M518 281c0 -181 -75 -290 -234 -290s-235 109 -235 290c0 182 76 291 235 291s234 -109 234 -291zM110 281c0 -151 52 -237 174 -237c121 0 173 86 173 237c0 152 -52 238 -173 238c-122 0 -174 -86 -174 -238z" />
    <glyph glyph-name="_81" unicode="p" horiz-adv-x="589" 
d="M132 97v-335h-61v797h61v-94c25 64 85 107 180 107c148 0 228 -101 228 -291s-80 -290 -228 -290c-95 0 -155 43 -180 106zM132 281c0 -151 52 -237 174 -237c121 0 173 86 173 237c0 152 -52 238 -173 238c-122 0 -174 -86 -174 -238z" />
    <glyph glyph-name="_82" unicode="q" horiz-adv-x="589" 
d="M457 -238v335c-25 -63 -84 -106 -179 -106c-149 0 -229 100 -229 290s80 291 229 291c95 0 154 -43 179 -107v94h61v-797h-61zM457 281c0 152 -52 238 -173 238c-122 0 -174 -86 -174 -238c0 -151 52 -237 174 -237c121 0 173 86 173 237z" />
    <glyph glyph-name="_83" unicode="r" horiz-adv-x="357" 
d="M297 518c-100 0 -165 -77 -165 -234v-280h-61v555h61v-107c24 77 77 120 166 120c16 0 31 -1 41 -4l-1 -52c-9 1 -25 2 -41 2z" />
    <glyph glyph-name="_84" unicode="s" horiz-adv-x="512" 
d="M287 254l-68 14c-119 24 -166 69 -166 151c0 85 71 153 197 153c123 0 197 -65 197 -153v-17h-62v17c0 57 -49 100 -135 100c-87 0 -135 -43 -135 -100c0 -52 34 -80 118 -97l68 -14c118 -25 166 -69 166 -158c0 -94 -81 -159 -209 -159c-125 0 -209 63 -209 159v20h61
v-20c0 -65 62 -106 148 -106s148 41 148 106c0 57 -33 87 -119 104z" />
    <glyph glyph-name="_85" unicode="t" horiz-adv-x="378" 
d="M172 506v-348c0 -88 38 -109 115 -109h55v-52c-21 -1 -44 -1 -63 -1c-116 0 -168 36 -168 152v358h-84v53h84v158h61v-158h170v-53h-170z" />
    <glyph glyph-name="_86" unicode="u" horiz-adv-x="587" 
d="M68 216v343h62v-324c0 -134 50 -191 147 -191c102 0 176 86 177 234v281h62v-555h-62v107c-28 -71 -89 -120 -189 -120c-128 0 -197 83 -197 225z" />
    <glyph glyph-name="_87" unicode="v" horiz-adv-x="548" 
d="M20 559h65l189 -483l189 483h65l-219 -555h-70z" />
    <glyph glyph-name="_88" unicode="w" horiz-adv-x="870" 
d="M401 559h67l160 -478l160 478h65l-190 -555h-68l-160 477l-160 -477h-68l-190 555h64l160 -478z" />
    <glyph glyph-name="_89" unicode="x" horiz-adv-x="507" 
d="M427 4l-174 239l-173 -239h-70l206 284l-195 271h70l162 -226l163 226h70l-195 -271l206 -284h-70z" />
    <glyph glyph-name="_90" unicode="y" horiz-adv-x="549" 
d="M195 -117l48 120l-223 556h65l190 -479l188 479h66l-277 -694c-34 -86 -74 -103 -145 -103c-11 0 -19 0 -28 1v52h23c47 0 71 11 93 68z" />
    <glyph glyph-name="_91" unicode="z" horiz-adv-x="487" 
d="M436 559v-50l-318 -452h326v-53h-401v49l318 453h-309v53h384z" />
    <glyph glyph-name="_92" unicode="{" horiz-adv-x="370" 
d="M47 360v53h20c46 0 69 29 69 75v211c0 124 54 174 160 174h27v-53h-20c-75 0 -106 -36 -106 -127v-210c0 -51 -22 -85 -64 -96c42 -12 64 -45 64 -97v-210c0 -91 31 -126 106 -126h20v-53h-27c-106 0 -160 49 -160 174v210c0 47 -23 75 -69 75h-20z" />
    <glyph glyph-name="_93" unicode="|" horiz-adv-x="296" 
d="M117 -99v972h61v-972h-61z" />
    <glyph glyph-name="_94" unicode="}" horiz-adv-x="370" 
d="M323 413v-53h-20c-46 0 -69 -28 -69 -75v-210c0 -125 -55 -174 -161 -174h-26v53h20c75 0 106 35 106 126v210c0 52 22 85 64 97c-42 11 -64 45 -64 96v210c0 91 -31 127 -106 127h-20v53h26c106 0 161 -50 161 -174v-211c0 -46 23 -75 69 -75h20z" />
    <glyph glyph-name="_95" unicode="~" horiz-adv-x="578" 
d="M384 281c-114 0 -116 118 -189 118c-42 0 -65 -35 -66 -111h-57c0 103 43 163 122 163c114 0 115 -118 188 -118c42 0 65 35 66 112h58c-1 -104 -43 -164 -122 -164z" />
    <glyph glyph-name="_101" unicode="&#x3000;" 
 />
    <glyph glyph-name="_101" unicode="&#x3164;" 
 />
    <glyph glyph-name="_106" unicode="&#x2026;" 
d="M516 479h-73v-109h73v109zM226 479h-73v-109h73v109zM806 479h-73v-109h73v109z" />
    <glyph glyph-name="_107" unicode="&#xa8;" horiz-adv-x="600" 
d="M226 783h-73v-109h73v109zM446 783h-73v-109h73v109z" />
    <glyph glyph-name="_108" unicode="&#x3003;" 
d="M395 658l-169 -468l43 -18l189 460zM669 650l-168 -468l43 -17l189 459z" />
    <glyph glyph-name="_112" unicode="&#xff3c;" 
d="M925 16l-850 803l-40 -43l851 -804z" />
    <glyph glyph-name="_114" unicode="&#x2018;" horiz-adv-x="292" 
d="M205 867c-61 -11 -95 -43 -95 -107v-130h73v111h-30c0 52 10 78 52 86v40z" />
    <glyph glyph-name="_115" unicode="&#x2019;" horiz-adv-x="292" 
d="M88 630c73 11 94 52 94 140v97h-73v-111h30c1 -55 -12 -77 -51 -86v-40z" />
    <glyph glyph-name="_116" unicode="&#x201c;" horiz-adv-x="438" 
d="M205 867c-61 -11 -95 -43 -95 -107v-130h73v111h-30c0 52 10 78 52 86v40zM348 867c-60 -11 -95 -43 -95 -107v-130h73v111h-30c0 52 11 78 52 86v40z" />
    <glyph glyph-name="_117" unicode="&#x201d;" horiz-adv-x="438" 
d="M90 630c72 11 94 52 94 140v97h-74v-111h31c0 -54 -11 -78 -51 -86v-40zM233 630c72 11 94 52 94 140v97h-74v-111h31c0 -54 -12 -78 -51 -86v-40z" />
    <glyph glyph-name="_130" unicode="&#xb1;" horiz-adv-x="580" 
d="M59 423h202v-210h58v210h202v53h-202v211h-58v-211h-202v-53zM59 53h462v53h-462v-53z" />
    <glyph glyph-name="_131" unicode="&#xd7;" horiz-adv-x="580" 
d="M457 158l39 39l-167 169l167 169l-39 38l-167 -169l-167 169l-39 -38l168 -169l-168 -169l39 -39l167 169z" />
    <glyph glyph-name="_132" unicode="&#xf7;" horiz-adv-x="580" 
d="M59 340h462v52h-462v-52zM323 604h-67v-106h67v106zM323 233h-67v-105h67v105z" />
    <glyph glyph-name="_133" unicode="&#x2260;" horiz-adv-x="580" 
d="M59 439h247l-85 -146h-162v-52h132l-88 -152h53l87 152h278v52h-248l84 146h164v53h-133l87 151h-51l-89 -151h-276v-53z" />
    <glyph glyph-name="_134" unicode="&#x2264;" horiz-adv-x="580" 
d="M512 268l-378 181l378 180v61l-445 -215v-53l445 -214v60zM58 54h463v52h-463v-52z" />
    <glyph glyph-name="_135" unicode="&#x2265;" horiz-adv-x="580" 
d="M512 475l-445 215v-61l378 -180l-378 -181v-60l445 214v53zM521 106h-463v-52h463v52z" />
    <glyph glyph-name="_136" unicode="&#x221e;" 
d="M846 372c0 103 -71 168 -176 168c-76 0 -146 -41 -191 -131c-44 90 -115 131 -189 131c-106 0 -177 -65 -177 -168s71 -168 177 -168c74 0 145 41 189 130c45 -89 115 -130 191 -130c105 0 176 65 176 168zM512 372c43 89 97 119 156 119c63 0 122 -40 122 -119
c0 -80 -59 -119 -122 -119c-59 0 -113 29 -156 119zM170 372c0 79 59 119 121 119c59 0 113 -30 156 -119c-43 -90 -97 -119 -156 -119c-62 0 -121 39 -121 119z" />
    <glyph glyph-name="_137" unicode="&#x2234;" 
d="M516 689h-73v-109h73v109zM769 222h-73v-108h73v108zM263 222h-73v-108h73v108z" />
    <glyph glyph-name="_138" unicode="&#xb0;" horiz-adv-x="399" 
d="M348 641c0 87 -56 151 -148 151s-148 -64 -148 -151s56 -150 148 -150s148 63 148 150zM299 641c0 -64 -42 -105 -99 -105c-56 0 -99 41 -99 105s43 105 99 105c57 0 99 -41 99 -105z" />
    <glyph glyph-name="_139" unicode="&#x2032;" horiz-adv-x="187" 
d="M85 535l70 247h-63l-60 -247h53z" />
    <glyph glyph-name="_140" unicode="&#x2033;" horiz-adv-x="329" 
d="M85 535l70 247h-63l-60 -247h53zM227 535l69 247h-63l-60 -247h54z" />
    <glyph glyph-name="_141" unicode="&#x2103;" 
d="M93 651c0 57 40 94 94 94c55 0 94 -37 94 -94c0 -58 -39 -95 -94 -95c-54 0 -94 37 -94 95zM44 651c0 -80 58 -141 143 -141s143 61 143 141c0 79 -58 140 -143 140s-143 -61 -143 -140zM358 393c0 -226 65 -402 283 -402c167 0 266 104 275 265h-64
c-10 -127 -78 -208 -211 -208c-169 0 -219 141 -219 345c0 197 46 345 219 345c133 0 201 -83 211 -210h64c-9 161 -108 267 -275 267c-219 0 -283 -179 -283 -402z" />
    <glyph glyph-name="_142" unicode="&#x212b;" 
d="M161 3h69l69 195h362l69 -195h68l-268 742c55 17 90 63 90 123c0 75 -57 130 -140 130s-140 -55 -140 -130c0 -60 35 -106 90 -123zM641 255h-323l162 456zM571 868c0 -53 -39 -85 -91 -85c-51 0 -91 32 -91 85c0 52 40 84 91 84c52 0 91 -32 91 -84z" />
    <glyph glyph-name="_143" unicode="&#xffe0;" 
d="M248 281c0 -172 67 -278 209 -289v-87h51v87c118 7 188 76 202 187h-63c-11 -78 -58 -127 -139 -134v473c81 -7 128 -58 139 -135h63c-14 113 -84 181 -202 189v87h-51v-87c-142 -12 -209 -118 -209 -291zM311 281c0 139 42 225 146 237v-473c-104 12 -146 97 -146 236z
" />
    <glyph glyph-name="_144" unicode="&#xffe1;" 
d="M245 334h68c4 -22 7 -45 7 -71c0 -85 -24 -153 -72 -207v-52h465v56h-400c45 50 70 115 70 203c0 26 -5 49 -8 71h214v50h-224c-13 55 -30 109 -30 186c0 101 49 168 153 168c102 0 152 -68 152 -168v-13h64v14c0 123 -69 224 -216 224c-148 0 -218 -101 -218 -224
c0 -78 18 -132 32 -187h-57v-50z" />
    <glyph glyph-name="_145" unicode="&#xffe5;" 
d="M479 401l-237 381h-69l241 -386h-143v-41h169l7 -11v-61h-176v-41h176v-238h65v238h176v41h-176v62l6 10h170v41h-145l243 386h-70z" />
    <glyph glyph-name="_146" unicode="&#x2642;" 
d="M211 509l44 -30l197 273v-342c-120 -13 -211 -115 -211 -238c0 -131 106 -239 239 -239c132 0 240 108 240 239c0 123 -92 225 -213 238v342l199 -273l43 30l-269 365zM296 172c0 102 82 185 184 185s185 -83 185 -185s-83 -184 -185 -184s-184 82 -184 184z" />
    <glyph glyph-name="_147" unicode="&#x2640;" 
d="M203 557c0 -143 109 -261 249 -275v-126h-142v-51h142v-158h55v158h143v51h-143v126c139 14 250 132 250 275c0 152 -124 276 -277 276c-152 0 -277 -124 -277 -276zM258 557c0 122 100 221 221 221s221 -99 221 -221c0 -121 -100 -221 -221 -221s-221 100 -221 221z" />
    <glyph glyph-name="_148" unicode="&#x2220;" 
d="M747 730l-645 -629v-29h754v55h-646l578 565z" />
    <glyph glyph-name="_149" unicode="&#x22a5;" 
d="M511 123v632h-63v-632h-340v-55h744v55h-341z" />
    <glyph glyph-name="_150" unicode="&#x2312;" 
d="M31 660l29 -42c111 112 251 177 421 177c169 0 308 -66 421 -177l28 42c-116 116 -261 191 -449 191c-189 0 -335 -74 -450 -191z" />
    <glyph glyph-name="_151" unicode="&#x2202;" 
d="M484 508c-149 0 -253 -113 -253 -289c0 -143 87 -228 217 -228c211 0 274 170 279 483v19c0 223 -78 302 -214 302c-116 0 -201 -68 -228 -188h66c22 88 81 133 159 133c99 0 155 -64 155 -236c0 -32 -2 -67 -5 -106c-22 66 -84 110 -176 110zM452 46
c-97 0 -158 61 -158 174c0 132 70 233 195 233c98 0 158 -65 158 -176c0 -145 -82 -231 -195 -231z" />
    <glyph glyph-name="_152" unicode="&#x2207;" 
d="M161 782l282 -778h73l281 778h-636zM710 725l-230 -649l-232 649h462z" />
    <glyph glyph-name="_153" unicode="&#x2261;" horiz-adv-x="580" 
d="M59 512h462v52h-462v-52zM59 168h462v53h-462v-53zM59 340h462v52h-462v-52z" />
    <glyph glyph-name="_154" unicode="&#x2252;" horiz-adv-x="580" 
d="M59 429h462v53h-462v-53zM59 251h462v52h-462v-52zM205 699h-68v-106h68v106zM443 139h-68v-106h68v106z" />
    <glyph glyph-name="_155" unicode="&#xa7;" 
d="M265 348c0 -114 68 -157 224 -198c92 -24 130 -65 130 -128c0 -69 -53 -113 -135 -113c-80 0 -135 46 -135 113v9h-63v-10c0 -96 73 -163 198 -163c124 0 197 67 197 163c0 67 -26 113 -91 148c69 31 103 86 103 153c0 120 -66 151 -224 198c-93 28 -130 65 -130 130
c0 69 53 113 135 113c79 0 135 -46 135 -113v-9h63v10c0 96 -74 164 -198 164c-125 0 -198 -68 -198 -164c0 -69 25 -116 91 -150c-68 -31 -102 -87 -102 -153zM436 473c145 -35 194 -66 194 -154c0 -53 -29 -100 -94 -127c-156 46 -208 62 -208 159c0 53 31 110 108 122z
" />
    <glyph glyph-name="_156" unicode="&#x203b;" 
d="M541 697c0 34 -27 62 -61 62s-61 -28 -61 -62c0 -33 27 -61 61 -61s61 28 61 61zM178 456c-34 0 -61 -27 -61 -61s27 -61 61 -61s62 27 62 61s-28 61 -62 61zM782 334c34 0 61 27 61 61s-27 61 -61 61s-62 -27 -62 -61s28 -61 62 -61zM419 94c0 -34 27 -62 61 -62
s61 28 61 62c0 33 -27 61 -61 61s-61 -28 -61 -61zM835 720l-31 32l-324 -324l-322 324l-32 -33l322 -323l-323 -323l31 -32l324 324l324 -325l32 31l-325 325z" />
    <glyph glyph-name="_157" unicode="&#x2606;" 
d="M37 534l-5 -19l263 -198l-127 -342l16 -13l296 226l295 -226l14 13l-126 344l264 196l-4 19h-328l-106 322h-19l-106 -322h-327zM480 741l81 -255l260 7l-220 -154l111 -277l-232 184l-233 -180l107 269l-219 155l265 -6z" />
    <glyph glyph-name="_158" unicode="&#x2605;" 
d="M37 534l-3 -15l261 -202l-127 -346l13 -9l299 226l298 -226l11 10l-126 347l262 200l-2 15h-328l-109 322h-13l-109 -322h-327z" />
    <glyph glyph-name="_159" unicode="&#x25cb;" 
d="M913 390c0 241 -194 434 -433 434c-240 0 -434 -192 -434 -434s192 -434 434 -434c240 0 433 192 433 434zM103 390c0 210 165 380 377 380s378 -170 378 -380s-166 -380 -378 -380s-377 170 -377 380z" />
    <glyph glyph-name="_160" unicode="&#x25cf;" 
d="M913 390c0 241 -194 434 -433 434c-240 0 -434 -192 -434 -434s192 -434 434 -434c240 0 433 192 433 434z" />
    <glyph glyph-name="_161" unicode="&#x25ce;" 
d="M184 390c0 -167 132 -298 296 -298s296 131 296 298c0 168 -132 300 -296 300s-296 -132 -296 -300zM725 390c0 -142 -104 -252 -245 -252c-142 0 -245 110 -245 252c0 144 103 253 245 253c141 0 245 -109 245 -253zM913 390c0 243 -192 434 -433 434
c-242 0 -434 -191 -434 -434s190 -434 434 -434c242 0 433 191 433 434zM97 390c0 216 166 388 383 388s383 -172 383 -388s-166 -388 -383 -388s-383 172 -383 388z" />
    <glyph glyph-name="_162" unicode="&#x25c7;" 
d="M480 866l-460 -475l460 -474l460 474zM480 790l384 -399l-384 -397l-384 397z" />
    <glyph glyph-name="_163" unicode="&#x25c6;" 
d="M480 866l-460 -475l460 -474l460 474z" />
    <glyph glyph-name="_164" unicode="&#x25a1;" 
d="M854 21v742h-749v-742h749zM163 74v636h634v-636h-634z" />
    <glyph glyph-name="_165" unicode="&#x25a0;" 
d="M854 21v742h-749v-742h749z" />
    <glyph glyph-name="_166" unicode="&#x25b3;" 
d="M480 804l-448 -776h896zM480 697l355 -617h-710z" />
    <glyph glyph-name="_167" unicode="&#x25b2;" 
d="M480 804l-448 -776h896z" />
    <glyph glyph-name="_168" unicode="&#x25bd;" 
d="M928 764h-896l448 -776zM125 713h710l-355 -618z" />
    <glyph glyph-name="_169" unicode="&#x25bc;" 
d="M928 764h-896l448 -776z" />
    <glyph glyph-name="_170" unicode="&#x2192;" 
d="M41 346h714v-93l163 120l-163 119v-93h-714v-53z" />
    <glyph glyph-name="_171" unicode="&#x2190;" 
d="M918 399h-713v93l-164 -119l164 -120v93h713v53z" />
    <glyph glyph-name="_172" unicode="&#x2191;" 
d="M506 -39v714h93l-119 163l-120 -163h93v-714h53z" />
    <glyph glyph-name="_173" unicode="&#x2193;" 
d="M453 838v-713h-93l120 -164l119 164h-93v713h-53z" />
    <glyph glyph-name="_174" unicode="&#x2194;" 
d="M204 492l-163 -119l163 -120v93h550v-93l164 120l-164 119v-93h-550v93z" />
    <glyph glyph-name="_178" unicode="&#x221a;" 
d="M612 783h292v55h-341l-270 -879l-174 338h-69l215 -416h68z" />
    <glyph glyph-name="_179" unicode="&#x223d;" 
d="M457 388c-48 -82 -109 -135 -166 -135c-62 0 -121 39 -121 119c0 79 59 119 121 119c23 0 45 -4 66 -15l19 43c-27 14 -56 21 -86 21c-106 0 -177 -65 -177 -168s71 -168 177 -168c81 0 156 54 213 155c46 82 105 132 165 132c63 0 122 -40 122 -119
c0 -80 -59 -119 -122 -119c-26 0 -51 6 -74 20l-23 -42c31 -18 64 -27 99 -27c105 0 176 65 176 168s-71 168 -176 168c-82 0 -155 -53 -213 -152z" />
    <glyph glyph-name="_180" unicode="&#x221d;" 
d="M746 276c-22 -16 -50 -23 -78 -23c-59 0 -113 29 -156 119c43 89 97 119 156 119c25 0 49 -6 69 -19l25 47c-26 14 -57 21 -92 21c-76 0 -146 -41 -191 -131c-44 90 -115 131 -189 131c-106 0 -177 -65 -177 -168s71 -168 177 -168c74 0 145 41 189 130
c45 -89 115 -130 191 -130c41 0 76 10 105 28zM170 372c0 79 59 119 121 119c59 0 113 -30 156 -119c-43 -90 -97 -119 -156 -119c-62 0 -121 39 -121 119z" />
    <glyph glyph-name="_181" unicode="&#x2235;" 
d="M516 222h-73v-108h73v108zM769 689h-73v-109h73v109zM263 689h-73v-109h73v109z" />
    <glyph glyph-name="_182" unicode="&#x222b;" 
d="M289 -66v-49c19 -1 38 -2 56 -2c122 0 166 38 166 155v672c0 83 24 109 110 109h49v49c-19 2 -37 3 -56 3c-120 0 -165 -40 -165 -156v-673c0 -82 -24 -108 -109 -108h-51z" />
    <glyph glyph-name="_183" unicode="&#x222c;" 
d="M136 -66v-49c19 -1 37 -2 56 -2c121 0 166 38 166 155v672c0 83 24 109 109 109h50v49c-19 2 -37 3 -56 3c-121 0 -165 -40 -165 -156v-673c0 -82 -24 -108 -110 -108h-50zM443 -66v-49c19 -1 37 -2 56 -2c121 0 165 38 165 155v672c0 83 24 109 110 109h50v49
c-19 2 -37 3 -56 3c-121 0 -166 -40 -166 -156v-673c0 -82 -24 -108 -109 -108h-50z" />
    <glyph glyph-name="_184" unicode="&#x2208;" 
d="M102 388c0 -211 154 -307 390 -307h344v54h-344c-211 0 -318 79 -328 226h672v55h-672c11 146 118 224 328 224h344v55h-344c-236 0 -390 -96 -390 -307z" />
    <glyph glyph-name="_185" unicode="&#x220b;" 
d="M856 388c0 211 -154 307 -390 307h-344v-55h344c210 0 317 -78 328 -224h-672v-55h672c-10 -147 -117 -226 -328 -226h-344v-54h344c236 0 390 96 390 307z" />
    <glyph glyph-name="_186" unicode="&#x2286;" 
d="M124 54v-53h715v53h-715zM100 498c0 -178 131 -261 357 -261h377v55h-377c-203 0 -297 65 -297 206s94 206 297 206h377v55h-377c-226 0 -357 -83 -357 -261z" />
    <glyph glyph-name="_187" unicode="&#x2287;" 
d="M120 54v-53h716v53h-716zM859 498c0 178 -131 261 -356 261h-377v-55h377c203 0 296 -65 296 -206s-93 -206 -296 -206h-377v-55h377c225 0 356 83 356 261z" />
    <glyph glyph-name="_188" unicode="&#x2282;" 
d="M103 388c0 -211 154 -307 390 -307h343v55h-343c-225 0 -330 95 -330 252c0 158 105 253 330 253h343v55h-343c-236 0 -390 -97 -390 -308z" />
    <glyph glyph-name="_189" unicode="&#x2283;" 
d="M856 388c0 211 -154 308 -390 308h-343v-55h343c225 0 330 -95 330 -253c0 -157 -105 -252 -330 -252h-343v-55h343c236 0 390 96 390 307z" />
    <glyph glyph-name="_190" unicode="&#x222a;" 
d="M479 2c211 0 308 154 308 390v344h-62v-344c0 -230 -94 -338 -246 -338c-150 0 -245 108 -245 338v344h-62v-344c0 -236 96 -390 307 -390z" />
    <glyph glyph-name="_191" unicode="&#x2229;" 
d="M479 755c-211 0 -307 -154 -307 -390v-344h62v344c0 230 95 338 245 338c152 0 246 -108 246 -338v-344h62v344c0 236 -97 390 -308 390z" />
    <glyph glyph-name="_192" unicode="&#x2227;" 
d="M163 4l316 654l318 -654l51 28l-360 733h-17l-360 -733z" />
    <glyph glyph-name="_193" unicode="&#x2228;" 
d="M488 -6l360 733l-52 28l-317 -655l-315 655l-53 -28l360 -733h17z" />
    <glyph glyph-name="_194" unicode="&#xffe2;" 
d="M146 456h598v-263h65v320h-663v-57z" />
    <glyph glyph-name="_195" unicode="&#x21d2;" 
d="M912 373l-349 273l-33 -42l135 -105h-618v-50h684l97 -76l-100 -81h-681v-50h618l-136 -109l35 -43z" />
    <glyph glyph-name="_196" unicode="&#x21d4;" 
d="M616 90l320 283l-321 273l-35 -41l125 -106h-453l126 106l-35 41l-321 -273l320 -283l36 42l-127 110h455l-126 -110zM762 292h-567l-92 81l89 76h573l90 -76z" />
    <glyph glyph-name="_197" unicode="&#x2200;" 
d="M161 782l282 -778h73l281 778h-67l-70 -194h-362l-69 194h-68zM317 531h323l-160 -455z" />
    <glyph glyph-name="_198" unicode="&#x2203;" 
d="M693 783h-447v-57h382v-314h-336v-57h336v-295h-376v-57h441v780z" />
    <glyph glyph-name="_199" unicode="&#xb4;" horiz-adv-x="368" 
d="M278 816h-72l-115 -179h58z" />
    <glyph glyph-name="_201" unicode="&#x2c7;" horiz-adv-x="377" 
d="M215 637l139 179h-60l-106 -129l-106 129h-59l138 -179h54z" />
    <glyph glyph-name="_202" unicode="&#x2d8;" horiz-adv-x="376" 
d="M188 641c98 0 154 60 160 165h-58c-4 -79 -39 -116 -102 -116s-99 37 -103 116h-57c6 -105 62 -165 160 -165z" />
    <glyph glyph-name="_203" unicode="&#x2dd;" horiz-adv-x="377" 
d="M199 816h-64l-110 -179h54zM351 816h-64l-120 -179h54z" />
    <glyph glyph-name="_204" unicode="&#x2da;" horiz-adv-x="370" 
d="M302 726c0 72 -50 115 -116 115c-67 0 -118 -43 -118 -115s51 -116 118 -116c66 0 116 44 116 116zM253 726c0 -46 -27 -73 -67 -73c-41 0 -69 27 -69 73c0 45 28 73 69 73c40 0 67 -28 67 -73z" />
    <glyph glyph-name="_205" unicode="&#x2d9;" horiz-adv-x="360" 
d="M218 762h-76v-77h76v77z" />
    <glyph glyph-name="_206" unicode="&#xb8;" horiz-adv-x="370" 
d="M66 -226c28 -21 70 -35 112 -35c79 0 125 42 125 103c0 57 -42 98 -110 98c-9 0 -18 -1 -25 -3l33 66h-49l-44 -88l15 -16c12 5 31 8 46 8c50 0 82 -21 82 -64c0 -35 -25 -59 -76 -59c-31 0 -63 10 -86 30z" />
    <glyph glyph-name="_207" unicode="&#x2db;" horiz-adv-x="370" 
d="M158 3c-56 -28 -92 -79 -92 -130v-7c0 -65 48 -106 127 -106c43 0 83 12 111 39l-24 36c-22 -19 -52 -29 -84 -29c-51 0 -78 25 -78 66v4c0 43 28 91 102 127h-62z" />
    <glyph glyph-name="_208" unicode="&#xa1;" horiz-adv-x="299" 
d="M123 332l-7 -424v-127h65v127l-6 424h-52zM184 559h-69v-101h69v101z" />
    <glyph glyph-name="_209" unicode="&#xbf;" horiz-adv-x="570" 
d="M70 -17c0 -121 75 -215 218 -215c142 0 217 94 217 215v7h-62c0 -95 -55 -167 -155 -167c-97 0 -156 65 -156 161c0 65 21 104 87 161c86 74 104 110 104 186v27h-61v-23c0 -60 -14 -90 -94 -158c-73 -63 -98 -110 -98 -194zM260 458h66v101h-66v-101z" />
    <glyph glyph-name="_211" unicode="&#x222e;" 
d="M290 376c0 -96 66 -170 158 -184v-150c0 -82 -24 -108 -110 -108h-50v-50c19 -1 37 -2 56 -2c121 0 166 39 166 156v154c91 13 159 87 159 184s-68 171 -159 184v150c0 83 23 109 109 109h50v49c-19 2 -37 3 -56 3c-121 0 -165 -40 -165 -156v-155
c-92 -14 -158 -88 -158 -184zM614 376c0 -66 -44 -117 -104 -129v258c60 -12 104 -63 104 -129zM345 376c0 66 42 116 103 128v-256c-61 13 -103 64 -103 128z" />
    <glyph glyph-name="_212" unicode="&#x2211;" 
d="M234 -16v-54h491v56h-419l175 354v22l-176 364h420v57h-491v-57l183 -375z" />
    <glyph glyph-name="_213" unicode="&#x220f;" 
d="M675 -70h65v853h-520v-853h64v796h391v-796z" />
    <glyph glyph-name="_214" unicode="&#xa4;" horiz-adv-x="700" 
d="M595 366c0 63 -22 115 -57 155l109 110l-42 41l-110 -112c-41 30 -91 47 -144 47c-54 0 -105 -17 -146 -47l-111 112l-41 -41l109 -110c-35 -40 -57 -92 -57 -155s22 -116 57 -155l-109 -110l41 -40l111 109c41 -28 92 -44 146 -44c53 0 103 16 144 44l110 -109l42 40
l-109 110c35 39 57 92 57 155zM537 366c0 -118 -85 -189 -187 -189c-101 0 -187 71 -187 189c0 119 86 190 187 190c102 0 187 -71 187 -190z" />
    <glyph glyph-name="_215" unicode="&#x2109;" 
d="M330 651c0 80 -57 141 -143 141c-85 0 -143 -61 -143 -141s58 -140 143 -140c86 0 143 60 143 140zM282 651c0 -57 -40 -95 -95 -95c-53 0 -94 38 -94 95s41 95 94 95c55 0 95 -38 95 -95zM415 3h65v360h336v56h-336v307h371v57h-436v-780z" />
    <glyph glyph-name="_216" unicode="&#x2030;" horiz-adv-x="1219" 
d="M299 4l319 777h-55l-319 -777h55zM371 585c0 143 -57 209 -153 209c-97 0 -153 -66 -153 -209c0 -144 56 -210 153 -210c96 0 153 66 153 210zM317 585c0 -123 -38 -164 -99 -164c-62 0 -100 41 -100 164c0 121 38 163 100 163c61 0 99 -42 99 -163zM492 200
c0 -143 56 -209 153 -209c96 0 153 66 153 209s-57 210 -153 210c-97 0 -153 -67 -153 -210zM545 200c0 122 38 164 100 164c61 0 99 -42 99 -164s-38 -163 -99 -163c-62 0 -100 41 -100 163zM847 200c0 -143 57 -209 154 -209c96 0 153 66 153 209s-57 210 -153 210
c-97 0 -154 -67 -154 -210zM901 200c0 122 38 164 100 164c61 0 99 -42 99 -164s-38 -163 -99 -163c-62 0 -100 41 -100 163z" />
    <glyph glyph-name="_217" unicode="&#x25c1;" 
d="M62 393l776 -448v896zM166 393l613 354v-709z" />
    <glyph glyph-name="_218" unicode="&#x25c0;" 
d="M62 393l776 -448v896z" />
    <glyph glyph-name="_219" unicode="&#x25b7;" 
d="M122 841v-896l776 448zM181 38v709l613 -354z" />
    <glyph glyph-name="_220" unicode="&#x25b6;" 
d="M122 841v-896l776 448z" />
    <glyph glyph-name="_221" unicode="&#x2664;" 
d="M464 409c-10 -85 -128 -157 -205 -157c-109 0 -146 60 -146 145c0 133 207 275 367 368c160 -94 366 -233 366 -368c0 -83 -42 -145 -147 -145c-90 0 -193 75 -204 157h-31zM634 41h-311v3c104 53 146 193 154 304h3c4 -108 52 -252 154 -304v-3zM59 390
c0 -122 79 -182 196 -182c72 0 143 39 183 92c-19 -111 -86 -231 -190 -249v-46h461v46c-103 23 -175 138 -191 250c41 -55 112 -93 189 -93c107 0 193 61 193 182c0 173 -227 313 -420 424c-203 -120 -421 -257 -421 -424z" />
    <glyph glyph-name="_222" unicode="&#x2660;" 
d="M59 389c0 -126 85 -189 193 -189c78 0 158 54 204 118c-22 -120 -103 -250 -208 -275v-38h461v38c-107 27 -189 156 -209 278c42 -66 122 -121 207 -121c102 0 193 65 193 189c0 169 -240 314 -420 424c-187 -116 -421 -255 -421 -424z" />
    <glyph glyph-name="_223" unicode="&#x2661;" 
d="M901 523c0 73 -21 126 -56 161s-85 50 -137 50s-100 -18 -140 -50s-72 -79 -88 -134c-17 55 -50 102 -90 134s-88 50 -137 50c-51 0 -100 -15 -136 -50c-37 -35 -58 -88 -58 -161c0 -104 49 -208 129 -303c79 -93 183 -172 292 -231c107 59 211 140 290 233
c80 93 131 197 131 301zM504 487c10 56 47 116 82 152c30 29 72 48 118 48c92 0 140 -55 140 -174c0 -82 -43 -176 -114 -262c-69 -83 -163 -156 -250 -204c-89 48 -182 122 -251 203c-72 87 -113 181 -113 263c0 116 49 174 141 174c44 0 83 -19 114 -49
c37 -36 74 -95 84 -151h49z" />
    <glyph glyph-name="_224" unicode="&#x2665;" 
d="M901 523c0 73 -21 126 -56 161s-85 50 -137 50c-53 0 -101 -18 -141 -50c-41 -32 -73 -79 -87 -134c-16 55 -47 101 -87 133c-41 33 -90 51 -140 51c-51 0 -100 -15 -136 -50c-37 -35 -58 -88 -58 -161c0 -104 49 -208 129 -303c79 -93 183 -172 292 -231
c107 60 211 140 290 233c80 93 131 197 131 301z" />
    <glyph glyph-name="_225" unicode="&#x2667;" 
d="M656 636c0 98 -80 177 -177 177c-100 0 -176 -80 -176 -177c0 -98 78 -176 176 -176c97 0 177 78 177 176zM711 49c-117 35 -199 146 -211 283h-42c-15 -138 -96 -248 -211 -283v-44h464v44zM630 45h-301v4c68 31 133 126 149 208h3c12 -79 75 -174 149 -208v-4zM610 636
c0 -77 -55 -134 -131 -134c-77 0 -131 58 -131 134c0 75 56 135 131 135c73 0 131 -58 131 -135zM410 338c0 93 -79 177 -177 177c-100 0 -177 -81 -177 -177c0 -97 76 -176 177 -176c100 0 177 81 177 176zM363 338c0 -77 -54 -135 -130 -135c-75 0 -131 57 -131 135
c0 77 56 135 131 135s130 -60 130 -135zM903 338c0 94 -77 177 -177 177s-176 -82 -176 -177c0 -96 76 -176 176 -176c101 0 177 80 177 176zM857 338c0 -79 -57 -135 -131 -135c-75 0 -130 58 -130 135c0 76 55 135 130 135c76 0 131 -60 131 -135z" />
    <glyph glyph-name="_226" unicode="&#x2663;" 
d="M655 637c0 48 -20 92 -52 124c-32 33 -77 53 -124 53c-49 0 -94 -20 -125 -53c-32 -32 -52 -76 -52 -124c0 -49 20 -93 52 -126c31 -32 76 -51 125 -51c47 0 92 19 124 51c32 33 52 77 52 126zM409 338c0 48 -21 93 -53 125c-31 33 -76 53 -124 53s-93 -20 -125 -53
c-32 -32 -51 -77 -51 -125c0 -49 19 -93 51 -125s77 -51 125 -51s93 19 124 51c32 32 53 76 53 125zM903 338c0 48 -21 93 -53 125c-32 33 -76 53 -124 53c-49 0 -93 -20 -125 -53c-32 -32 -52 -77 -52 -125c0 -49 20 -93 52 -125s76 -51 125 -51c48 0 92 19 124 51
s53 76 53 125zM711 43c-58 16 -111 60 -147 108c-38 51 -67 117 -71 181h-29c-4 -63 -34 -129 -71 -180c-36 -51 -89 -93 -147 -109v-38h465v38z" />
    <glyph glyph-name="_228" unicode="&#x25c8;" 
d="M303 390l176 -180l176 180l-176 180zM480 866l-460 -475l460 -474l460 474zM480 790l384 -399l-384 -397l-384 397z" />
    <glyph glyph-name="_229" unicode="&#x25a3;" 
d="M617 254v276h-275v-276h275zM854 21v742h-749v-742h749zM163 74v636h634v-636h-634z" />
    <glyph glyph-name="_230" unicode="&#x25d0;" 
d="M913 390c0 241 -194 434 -433 434c-240 0 -434 -192 -434 -434s192 -434 434 -434c240 0 433 192 433 434zM480 770c212 0 378 -170 378 -380s-166 -380 -378 -380v760z" />
    <glyph glyph-name="_231" unicode="&#x25d1;" 
d="M913 390c0 241 -195 433 -434 433s-433 -192 -433 -433c0 -242 192 -433 433 -433s434 191 434 433zM101 390c0 210 165 379 378 379v-758c-213 0 -378 168 -378 379z" />
    <glyph glyph-name="_232" unicode="&#x2592;" 
d="M456 77h44v45h-44v-45zM651 122v-45h41v45h-41zM596 77v45h-43v-45h43zM306 77v45h-41v-45h41zM210 77v45h-43v-45h43zM402 77v45h-42v-45h42zM746 122v-45h43v45h-43zM456 177h44v43h-44v-43zM651 220v-43h41v43h-41zM596 177v43h-43v-43h43zM306 177v43h-41v-43h41z
M210 177v43h-43v-43h43zM402 177v43h-42v-43h42zM746 220v-43h43v43h-43zM456 274h44v44h-44v-44zM651 318v-44h41v44h-41zM596 274v44h-43v-44h43zM306 274v44h-41v-44h41zM210 274v44h-43v-44h43zM402 274v44h-42v-44h42zM746 318v-44h43v44h-43zM456 372h44v46h-44v-46z
M651 418v-46h41v46h-41zM596 372v46h-43v-46h43zM306 372v46h-41v-46h41zM210 372v46h-43v-46h43zM402 372v46h-42v-46h42zM746 418v-46h43v46h-43zM456 472h44v44h-44v-44zM651 516v-44h41v44h-41zM596 472v44h-43v-44h43zM306 472v44h-41v-44h41zM210 472v44h-43v-44h43z
M402 472v44h-42v-44h42zM746 516v-44h43v44h-43zM456 570h44v44h-44v-44zM651 614v-44h41v44h-41zM596 570v44h-43v-44h43zM306 570v44h-41v-44h41zM210 570v44h-43v-44h43zM402 570v44h-42v-44h42zM746 614v-44h43v44h-43zM456 668h44v45h-44v-45zM651 713v-45h41v45h-41z
M596 668v45h-43v-45h43zM306 668v45h-41v-45h41zM210 668v45h-43v-45h43zM402 668v45h-42v-45h42zM746 713v-45h43v45h-43zM868 12v769h-776v-769h776zM130 43v704h698v-704h-698z" />
    <glyph glyph-name="_233" unicode="&#x25a4;" 
d="M868 12v769h-776v-769h776zM828 121v-78h-698v78h698zM828 225v-79h-698v79h698zM828 328v-78h-698v78h698zM828 435v-81h-698v81h698zM828 538v-78h-698v78h698zM828 645v-81h-698v81h698zM828 747v-77h-698v77h698z" />
    <glyph glyph-name="_234" unicode="&#x25a5;" 
d="M868 781h-776v-769h776v769zM754 744h78v-697h-78v697zM649 744h79v-697h-79v697zM544 744h79v-697h-79v697zM440 744h78v-697h-78v697zM335 744h79v-697h-79v697zM228 744h81v-697h-81v697zM125 744h77v-697h-77v697z" />
    <glyph glyph-name="_235" unicode="&#x25a8;" 
d="M868 781h-776v-769h776v769zM127 162l585 584h98l-683 -683v99zM147 45l682 682v-96l-587 -586h-95zM127 302l445 444h101l-546 -545v101zM282 45l547 547v-101l-448 -446h-99zM421 45l408 407v-102l-306 -305h-102zM129 443l304 303h102l-406 -406v103zM562 45l267 266
v-102l-164 -164h-103zM129 584l163 162h102l-265 -264v102zM705 45l124 124v-124h-124zM129 746h123l-123 -123v123z" />
    <glyph glyph-name="_236" unicode="&#x25a7;" 
d="M92 12h776v769h-776v-769zM831 63l-683 683h98l585 -584v-99zM715 45l-586 586v96l682 -682h-96zM831 201l-546 545h101l445 -444v-101zM576 45l-447 446v101l547 -547h-100zM434 45l-305 305v102l407 -407h-102zM828 340l-405 406h102l303 -303v-103zM293 45l-164 164
v102l266 -266h-102zM828 482l-264 264h102l162 -162v-102zM129 45v124l124 -124h-124zM828 623l-122 123h122v-123z" />
    <glyph glyph-name="_237" unicode="&#x25a6;" 
d="M868 12v769h-776v-769h776zM227 436h82v-81h-82v81zM227 646h82v-81h-82v81zM227 539h82v-78h-82v78zM334 436h80v-81h-80v81zM334 646h80v-81h-80v81zM227 225h82v-78h-82v78zM545 436h79v-81h-79v81zM227 329h82v-78h-82v78zM545 646h79v-81h-79v81zM650 436h80v-81
h-80v81zM650 646h80v-81h-80v81zM227 121h82v-78h-82v78zM756 355v81h78v-81h-78zM756 565v81h78v-81h-78zM440 436h79v-81h-79v81zM440 646h79v-81h-79v81zM334 539h80v-78h-80v78zM309 671h-82v77h82v-77zM545 539h79v-78h-79v78zM650 539h80v-78h-80v78zM334 225h80v-78
h-80v78zM334 329h80v-78h-80v78zM201 436v-81h-78v81h78zM201 646v-81h-78v81h78zM545 225h79v-78h-79v78zM545 329h79v-78h-79v78zM650 225h80v-78h-80v78zM650 329h80v-78h-80v78zM334 121h80v-78h-80v78zM756 461v78h78v-78h-78zM440 539h79v-78h-79v78zM545 121h79v-78
h-79v78zM756 147v78h78v-78h-78zM756 251v78h78v-78h-78zM650 121h80v-78h-80v78zM440 225h79v-78h-79v78zM440 329h79v-78h-79v78zM414 671h-80v77h80v-77zM440 121h79v-78h-79v78zM756 121h78v-78h-78v78zM624 671h-79v77h79v-77zM730 671h-80v77h80v-77zM201 539v-78h-78
v78h78zM201 329v-78h-78v78h78zM201 225v-78h-78v78h78zM519 671h-79v77h79v-77zM834 748v-77h-78v77h78zM201 121v-78h-78v78h78zM201 748v-77h-78v77h78z" />
    <glyph glyph-name="_238" unicode="&#x25a9;" 
d="M868 781h-776v-769h776v769zM204 517l52 -51l-51 -51l-51 52zM755 517l51 -50l-52 -51l-50 50zM498 671l51 51l51 -50l-51 -51zM204 378l50 -51l-51 -51l-50 51zM756 378l51 -51l-51 -51l-51 51zM410 722l51 -51l-50 -50l-51 51zM274 448l50 -51l-50 -50l-51 50zM480 653
l50 -50l-50 -50l-51 50zM756 237l51 -51l-49 -49l-52 51zM635 397l51 51l50 -50l-51 -51zM359 121l51 51l50 -50l-51 -50zM223 257l51 51l49 -50l-51 -51zM152 186l51 51l50 -49l-51 -51zM340 653l51 -52l-49 -49l-51 52zM550 172l50 -51l-49 -49l-51 50zM568 601l51 51
l49 -49l-51 -51zM639 672l51 51l49 -49l-51 -51zM430 192l50 50l50 -50l-50 -50zM685 307l51 -50l-49 -49l-51 50zM270 723l50 -51l-49 -49l-51 51zM500 533l50 50l49 -49l-50 -50zM409 583l51 -50l-49 -49l-51 50zM272 585l51 -52l-48 -48l-51 52zM294 327l50 50l49 -49
l-50 -50zM615 377l50 -50l-49 -49l-50 50zM201 655l51 -51l-48 -48l-51 51zM707 604l51 51l48 -48l-51 -51zM687 169l52 -51l-48 -48l-51 52zM636 533l51 51l48 -47l-51 -51zM341 515l51 -50l-48 -48l-51 50zM221 118l51 51l47 -48l-51 -51zM291 188l51 51l48 -47l-51 -51z
M480 513l49 -49l-49 -49l-49 49zM568 465l50 50l48 -47l-51 -51zM617 239l51 -50l-48 -48l-50 51zM547 309l50 -50l-47 -47l-50 50zM362 259l50 50l48 -47l-50 -50zM412 445l49 -49l-48 -48l-49 49zM499 396l49 49l47 -48l-49 -49zM432 329l48 48l47 -48l-47 -47zM436 45
l-7 7l51 50l51 -50l-7 -7h-88zM578 45l-8 7l50 50l51 -52l-5 -5h-88zM294 45l-6 5l51 51l50 -49l-7 -7h-88zM825 345l-51 51l51 51l5 -4v-93zM130 443l4 4l52 -51l-51 -51l-5 5v93zM434 746h92l5 -5l-51 -51l-51 51zM130 584l4 4l51 -51l-51 -51l-4 5v93zM825 486l-50 51
l51 51l4 -4v-93zM573 746h94l3 -4l-51 -51l-50 51zM293 746h94l4 -4l-51 -50l-51 50zM130 209v95l3 3l51 -50l-51 -51zM827 206l-51 51l50 50l4 -3v-95zM717 45l-6 5l48 48l53 -53h-95zM148 45l53 53l47 -48l-5 -5h-95zM130 164l2 2l50 -49l-52 -52v99zM827 166l3 -2v-99
l-52 52zM713 746h98l-52 -52l-49 49zM247 746l3 -3l-49 -49l-52 52h98zM830 727v-96l-4 -4l-48 48zM130 727l52 -52l-48 -48l-4 4v96z" />
    <glyph glyph-name="_239" unicode="&#x2668;" 
d="M534 360c0 39 -15 86 -29 130s-28 89 -27 135c1 52 18 106 56 157c10 13 -10 25 -22 14c-27 -24 -56 -60 -76 -94c-18 -32 -28 -65 -29 -96c-1 -43 13 -90 28 -132c16 -45 30 -92 29 -134c-1 -56 -13 -112 -42 -154c-9 -13 9 -24 22 -13c54 45 90 120 90 187zM374 360
c0 31 -14 64 -29 96c-14 30 -26 72 -27 110c-1 55 10 112 46 160c15 20 -8 32 -25 15c-49 -49 -96 -117 -92 -195c2 -35 14 -73 28 -104c15 -34 28 -68 30 -102c3 -53 -18 -111 -45 -155c-9 -14 11 -24 26 -9c40 40 88 110 88 184zM244 318c-117 -11 -174 -66 -175 -133
c-2 -114 220 -169 412 -169c193 0 411 60 411 174c0 56 -58 112 -158 119c-11 1 -14 -13 -3 -16c53 -11 96 -41 96 -85c0 -76 -183 -115 -346 -115s-347 34 -347 110c0 50 45 85 113 99c11 3 8 17 -3 16zM694 360c0 31 -14 64 -29 96c-14 30 -26 72 -27 110
c-1 55 10 112 46 160c15 20 -8 32 -25 15c-49 -49 -96 -117 -92 -195c2 -35 14 -73 28 -104c15 -34 28 -68 30 -102c3 -53 -18 -111 -45 -155c-9 -14 11 -24 26 -9c40 40 88 110 88 184z" />
    <glyph glyph-name="_240" unicode="&#x260f;" 
d="M652 623c38 0 40 -34 40 -68c0 -10 -1 -26 -1 -39c0 -17 6 -25 21 -26l167 -17c12 -1 19 3 19 17c-5 93 -49 215 -189 217h-458c-143 -2 -190 -127 -190 -216c0 -14 7 -19 21 -18l171 17c12 1 17 9 17 21c-1 9 -1 19 -1 29c0 48 3 83 39 83h23v-120
c-43 -16 -199 -174 -199 -302l8 -91c1 -15 7 -19 22 -19h640c11 0 19 8 20 24l8 91c0 121 -154 277 -199 297v120h21zM526 504h-91v119h91v-119zM625 298c0 76 -65 139 -142 139c-78 0 -143 -60 -143 -139c0 -81 63 -140 143 -140c78 0 142 62 142 140zM598 490
c76 -39 198 -185 198 -289l-8 -79h-615l-6 80c0 112 128 248 196 288v133h39v-145h156v145h40v-133zM592 298c0 -63 -46 -111 -109 -111c-66 0 -111 48 -111 111c0 62 46 109 111 109c62 0 109 -50 109 -109zM300 647c-52 0 -63 -46 -63 -104c0 -9 0 -17 1 -25l-140 -14
c2 77 39 177 151 177h462c102 0 150 -98 150 -179l-138 14v23c0 62 -13 108 -63 108h-360z" />
    <glyph glyph-name="_241" unicode="&#x260e;" 
d="M877 473c13 -1 22 4 21 20c-2 39 -13 88 -36 128c-28 47 -73 85 -146 86h-470c-76 -1 -122 -37 -150 -84c-23 -40 -33 -89 -35 -130c-1 -16 8 -22 23 -20l163 17c13 1 19 9 18 21c-1 19 -1 41 3 62c5 27 15 50 38 50h40v-120c-32 -6 -77 -44 -125 -104
c-47 -59 -89 -134 -89 -198l8 -89c1 -13 9 -21 23 -21h636c12 0 22 6 23 20l8 95c0 61 -43 135 -91 194s-98 100 -123 103v120h40c20 0 31 -23 36 -51c3 -21 4 -45 4 -64c0 -10 5 -16 20 -18zM544 623v-120h-126v120h126zM622 298c0 -78 -60 -140 -139 -140
c-81 0 -140 59 -140 140c0 79 60 139 140 139c77 0 139 -62 139 -139z" />
    <glyph glyph-name="_242" unicode="&#x261c;" 
d="M938 159v360h-130v-13h-46c-8 0 -12 -5 -12 -14v-38c-4 -1 -10 -1 -15 -1c-30 0 -55 10 -76 26c-14 10 -30 24 -46 38c-35 30 -77 34 -145 34c-50 0 -100 -1 -102 -49h-291c-37 0 -53 -27 -53 -54s17 -53 50 -53h215c-2 -4 -3 -8 -3 -13c0 -17 10 -46 26 -50
c-8 -6 -11 -15 -11 -25c0 -19 11 -42 29 -48c-4 -5 -6 -12 -6 -18c0 -20 18 -54 48 -55c17 -24 60 -29 87 -29h8c10 0 25 -1 41 -1c13 0 24 0 34 1c27 2 50 5 70 16c14 8 30 16 44 25c20 13 36 23 53 30c12 5 28 5 43 5v-46c0 -8 4 -13 12 -13h46v-15h130zM367 439
c7 13 19 35 19 52c0 25 14 36 60 36h22c56 0 96 1 124 -23c18 -15 37 -31 55 -45c25 -20 57 -30 91 -30h12v-173c-15 1 -36 1 -50 -5c-31 -13 -73 -41 -106 -60c-19 -11 -51 -13 -71 -14c-17 -1 -40 0 -64 0c-25 0 -52 4 -57 12c49 0 101 -5 101 59c0 34 -8 75 -15 101
c7 -5 41 -31 61 -31c7 0 10 5 10 10c0 4 -2 8 -7 11c-51 28 -80 67 -83 124c-1 7 -5 11 -9 11s-9 -4 -11 -11c-8 -30 -32 -41 -70 -41c-11 0 -14 2 -14 10c0 2 1 5 2 7zM362 477c-3 -10 -13 -25 -19 -42c-2 -5 -3 -9 -3 -12s1 -4 2 -5h-266c-18 0 -30 13 -30 30
c0 20 11 29 33 29h283zM774 197v285h34v-285h-34zM439 329c20 0 28 -10 28 -22c0 -15 -13 -22 -42 -25c-20 -2 -44 -3 -61 -3c-27 0 -38 5 -38 26c0 10 5 20 19 20h21c23 0 49 1 73 4zM420 397c19 0 28 -9 28 -21c0 -17 -12 -23 -40 -26c-18 -2 -41 -2 -63 -2
c-25 0 -35 8 -35 29c0 10 5 18 19 18c25 0 64 1 91 2zM452 260c19 0 26 -10 26 -21c0 -16 -11 -23 -31 -26c-21 -3 -48 -3 -65 -3c-21 0 -34 6 -34 28c0 10 6 18 17 18h20c22 0 46 1 67 4z" />
    <glyph glyph-name="_243" unicode="&#x261e;" 
d="M152 159v15h46c8 0 12 5 12 13v46c15 0 31 0 43 -5c17 -7 33 -17 53 -30c14 -9 30 -17 44 -25c20 -11 43 -14 70 -16c10 -1 21 -1 34 -1c16 0 31 1 41 1h8c27 0 70 5 87 29c30 1 48 35 48 55c0 6 -2 13 -6 18c18 6 29 29 29 48c0 10 -3 19 -11 25c16 4 26 33 26 50
c0 5 -1 9 -3 13h215c33 0 50 26 50 53s-16 54 -53 54h-291c-2 48 -52 49 -102 49c-68 0 -110 -4 -145 -34c-16 -14 -32 -28 -46 -38c-21 -16 -46 -26 -76 -26c-5 0 -11 0 -15 1v38c0 9 -4 14 -12 14h-46v13h-130v-360h130zM593 439c1 -2 2 -5 2 -7c0 -8 -3 -10 -14 -10
c-38 0 -62 11 -70 41c-2 7 -7 11 -11 11s-8 -4 -9 -11c-3 -57 -32 -96 -83 -124c-5 -3 -7 -7 -7 -11c0 -5 3 -10 10 -10c20 0 54 26 61 31c-7 -26 -15 -67 -15 -101c0 -64 52 -59 101 -59c-5 -8 -32 -12 -57 -12c-24 0 -47 -1 -64 0c-20 1 -52 3 -71 14
c-33 19 -75 47 -106 60c-14 6 -35 6 -50 5v173h12c34 0 66 10 91 30c18 14 37 30 55 45c28 24 68 23 124 23h22c46 0 60 -11 60 -36c0 -17 12 -39 19 -52zM881 477c22 0 33 -9 33 -29c0 -17 -12 -30 -30 -30h-266c1 1 2 2 2 5s-1 7 -3 12c-6 17 -16 32 -19 42h283zM152 197
v285h34v-285h-34zM521 329c24 -3 50 -4 73 -4h21c14 0 19 -10 19 -20c0 -21 -11 -26 -38 -26c-17 0 -41 1 -61 3c-29 3 -42 10 -42 25c0 12 8 22 28 22zM540 397c27 -1 66 -2 91 -2c14 0 19 -8 19 -18c0 -21 -10 -29 -35 -29c-22 0 -45 0 -63 2c-28 3 -40 9 -40 26
c0 12 9 21 28 21zM508 260c21 -3 45 -4 67 -4h20c11 0 17 -8 17 -18c0 -22 -13 -28 -34 -28c-17 0 -44 0 -65 3c-20 3 -31 10 -31 26c0 11 7 21 26 21z" />
    <glyph glyph-name="_244" unicode="&#xb6;" 
d="M489 783c-141 0 -227 -87 -227 -236v-8c0 -150 102 -238 240 -238h31v-444h47v881h51v-881h47v926h-189z" />
    <glyph glyph-name="_245" unicode="&#x2020;" 
d="M709 649h-200v187h-58v-187h-200v-52h200v-740h58v740h200v52z" />
    <glyph glyph-name="_246" unicode="&#x2021;" 
d="M251 44h200v-187h58v187h200v53h-200v500h200v52h-200v187h-58v-187h-200v-52h200v-500h-200v-53z" />
    <glyph glyph-name="_247" unicode="&#x2195;" 
d="M360 124l121 -163l119 163h-93v550h93l-119 164l-121 -164h94v-550h-94z" />
    <glyph glyph-name="_248" unicode="&#x2197;" 
d="M198 44l505 504l65 -65l31 200l-200 -31l66 -66l-505 -504z" />
    <glyph glyph-name="_249" unicode="&#x2199;" 
d="M761 683l-504 -505l-65 66l-32 -200l200 31l-65 66l504 504z" />
    <glyph glyph-name="_250" unicode="&#x2196;" 
d="M799 82l-504 504l65 66l-200 31l32 -200l65 65l504 -504z" />
    <glyph glyph-name="_251" unicode="&#x2198;" 
d="M160 645l505 -504l-66 -66l200 -31l-31 200l-65 -66l-505 505z" />
    <glyph glyph-name="_252" unicode="&#x266d;" 
d="M371 840h-45v-856c180 -2 348 127 348 291c0 99 -56 166 -141 166c-75 0 -134 -46 -162 -101v500zM371 210c0 106 73 183 141 183c58 0 90 -41 90 -127c0 -117 -112 -232 -231 -239v183z" />
    <glyph glyph-name="_253" unicode="&#x2669;" 
d="M535 134c-16 7 -42 11 -66 11c-92 0 -190 -66 -190 -149c0 -52 41 -80 95 -80c122 0 207 77 207 188v737h-46v-707z" />
    <glyph glyph-name="_254" unicode="&#x266a;" 
d="M513 621c113 -37 210 -137 210 -255c0 -77 -30 -161 -71 -230h26c48 71 90 158 90 260c0 108 -63 188 -137 242c-77 56 -131 103 -131 202h-33v-707c-15 7 -42 11 -66 11c-92 0 -189 -66 -189 -148c0 -51 41 -80 95 -80c121 0 206 77 206 188v517z" />
    <glyph glyph-name="_255" unicode="&#x266c;" 
d="M813 666l-490 -112v105l490 111v-104zM813 247c-17 7 -42 11 -67 11c-92 0 -189 -66 -189 -149c0 -51 41 -80 95 -80c121 0 206 77 206 188v643l-581 -132v-595c-16 7 -42 11 -66 11c-92 0 -189 -66 -189 -148c0 -51 41 -80 95 -80c121 0 206 77 206 188v373l490 110
v-340z" />
    <glyph glyph-name="_256" unicode="&#x327f;" 
d="M901 458c-25 213 -205 364 -422 364c-241 0 -426 -179 -423 -447h204v42h-151c7 200 152 360 370 360c197 0 348 -136 372 -319h50zM58 327c25 -213 205 -364 422 -364c241 0 426 179 423 447h-204v-42h151c-7 -200 -152 -360 -370 -360c-197 0 -349 136 -372 319h-50z
M676 662h-69l-168 -234h-54v234h-61v-533h61v247h54l190 -247h70l-212 272z" />
    <glyph glyph-name="_257" unicode="&#x321c;" 
d="M235 -26c-83 123 -138 271 -138 416s55 294 138 417h-49c-87 -121 -143 -266 -143 -417s56 -295 143 -416h49zM773 -26c87 121 143 265 143 416s-56 296 -143 417h-49c83 -123 138 -272 138 -417s-55 -293 -138 -416h49zM226 644h222v-20c0 -117 -115 -185 -230 -203v-49
c117 18 221 72 261 155c41 -83 140 -137 259 -155v49c-116 18 -230 86 -230 203v20h224v50h-506v-50zM191 235h257v-190h60v190h260v49h-577v-49z" />
    <glyph glyph-name="_258" unicode="&#x2116;" horiz-adv-x="958" 
d="M439 4h61v777h-61v-639l-295 639h-62v-777h62v638zM566 4h341v49h-341v-49zM912 367c0 144 -49 226 -175 226c-127 0 -175 -82 -175 -226s48 -226 175 -226c126 0 175 82 175 226zM855 367c0 -119 -33 -176 -118 -176c-86 0 -119 57 -119 176c0 118 33 176 119 176
c85 0 118 -58 118 -176z" />
    <glyph glyph-name="_259" unicode="&#x33c7;" 
d="M245 -10c129 0 198 103 206 267h-62c-7 -129 -54 -210 -144 -210c-124 0 -150 153 -150 347c0 189 21 347 150 347c91 0 137 -80 144 -211h62c-8 165 -76 268 -206 268c-173 0 -212 -183 -212 -404c0 -219 39 -404 212 -404zM845 283c0 184 -58 292 -175 292
c-118 0 -175 -108 -175 -292c0 -185 57 -293 175 -293c117 0 175 108 175 293zM784 283c0 -152 -34 -240 -114 -240c-81 0 -114 88 -114 240c0 151 33 239 114 239c80 0 114 -88 114 -239zM927 112h-68v-109h68v109z" />
    <glyph glyph-name="_260" unicode="&#x2122;" horiz-adv-x="723" 
d="M17 741h107v-330h49v330h108v42h-264v-42zM512 411l114 264v-264h47v372h-45l-135 -313l-135 313h-45v-372h47v264l114 -264h38z" />
    <glyph glyph-name="_261" unicode="&#x33c2;" 
d="M259 167c0 -73 -26 -124 -91 -124s-91 47 -91 124c0 76 26 125 91 125s91 -53 91 -125zM316 381c0 121 -46 191 -140 191c-89 0 -133 -67 -138 -171h59c4 78 25 119 79 119c58 0 83 -47 83 -137v-105c-16 39 -46 66 -101 66c-89 0 -138 -68 -138 -177s49 -176 138 -176
c54 0 84 30 101 72c0 -22 3 -42 9 -59h59c-6 20 -11 49 -11 77v300zM795 4h58v393c0 130 -31 175 -96 175c-44 0 -77 -31 -91 -103c-7 72 -39 103 -83 103c-33 0 -67 -29 -79 -90v77h-58v-555h58v263c0 189 25 253 69 253c27 0 47 -22 47 -123v-393h58v308
c0 146 27 208 69 208c32 0 48 -27 48 -167v-349zM411 111h-60v-107h60v107zM943 111h-60v-107h60v107z" />
    <glyph glyph-name="_262" unicode="&#x33d8;" 
d="M331 281c0 193 -41 291 -141 291c-47 0 -81 -34 -94 -84v71h-58v-798h58v312c16 -49 49 -82 94 -82c100 0 141 97 141 290zM272 281c0 -158 -23 -238 -87 -238c-70 0 -89 82 -89 238s19 239 89 239c64 0 87 -82 87 -239zM795 4h58v393c0 130 -31 175 -96 175
c-44 0 -77 -31 -91 -103c-7 72 -39 103 -83 103c-33 0 -67 -29 -79 -90v77h-58v-555h58v263c0 189 25 253 69 253c27 0 47 -22 47 -123v-393h58v308c0 146 27 208 69 208c32 0 48 -27 48 -167v-349zM411 111h-60v-107h60v107zM943 111h-60v-107h60v107z" />
    <glyph glyph-name="_263" unicode="&#x2121;" 
d="M754 292c-2 199 -78 281 -209 281c-134 0 -209 -85 -209 -291s75 -292 209 -292c112 0 179 58 200 176h-63c-16 -84 -64 -123 -137 -123c-93 0 -145 63 -147 222h356v27zM545 521c90 0 142 -60 146 -207h-292c3 147 56 207 146 207zM15 726h172v-723h65v723h172v57h-409
v-57zM893 3v780h-63v-780h63z" />
    <glyph glyph-name="_265" unicode="&#xff02;" 
d="M573 559v222h-57v-222h57zM445 559v222h-58v-222h58z" />
    <glyph glyph-name="_266" unicode="&#xff03;" 
d="M497 4h58l50 229h156v51h-146l48 216h136v51h-125l50 230h-58l-50 -230h-204l50 230h-58l-50 -230h-156v-51h145l-47 -216h-136v-51h125l-50 -229h59l50 229h203zM401 500h204l-48 -216h-203z" />
    <glyph glyph-name="_267" unicode="&#xff04;" 
d="M448 -93h50v84c156 7 240 99 240 216c0 114 -65 184 -208 215l-32 7v306c94 -11 147 -67 147 -147v-17h64v17c0 105 -73 192 -211 204v86h-50v-85c-148 -6 -226 -97 -226 -205c0 -111 68 -176 190 -201l36 -8v-330c-104 11 -162 75 -162 157v24h-64v-23
c0 -113 78 -204 226 -215v-85zM512 365c116 -25 162 -76 162 -159c0 -86 -64 -152 -176 -158v320zM286 588c0 84 58 142 162 148v-296l-18 3c-94 19 -144 64 -144 145z" />
    <glyph glyph-name="_268" unicode="&#xff05;" 
d="M347 4l319 777h-55l-319 -777h55zM419 585c0 143 -57 209 -153 209c-97 0 -153 -66 -153 -209c0 -144 56 -210 153 -210c96 0 153 66 153 210zM365 585c0 -123 -38 -164 -99 -164c-62 0 -100 41 -100 164c0 121 38 163 100 163c61 0 99 -42 99 -163zM540 200
c0 -143 56 -209 153 -209c96 0 153 66 153 209s-57 210 -153 210c-97 0 -153 -67 -153 -210zM593 200c0 122 38 164 100 164c61 0 99 -42 99 -164s-38 -163 -99 -163c-62 0 -100 41 -100 163z" />
    <glyph glyph-name="_269" unicode="&#xff06;" 
d="M425 794c-113 0 -192 -65 -192 -176c0 -60 18 -108 82 -174c-94 -57 -140 -134 -140 -232c0 -133 97 -221 247 -221c105 0 182 37 236 100l86 -87h80l-132 136c38 68 58 154 60 249h-62c-3 -77 -17 -146 -44 -202l-275 283c-61 62 -76 99 -76 147c0 78 51 122 130 122
s131 -44 131 -122v-21h62v22c0 111 -79 176 -193 176zM422 45c-107 0 -185 65 -185 168c0 79 35 142 114 193l264 -270c-42 -57 -105 -91 -193 -91z" />
    <glyph glyph-name="_270" unicode="&#xff07;" 
d="M509 559v222h-58v-222h58z" />
    <glyph glyph-name="_273" unicode="&#xff0a;" 
d="M431 366l-171 -94l29 -50l167 101l-5 -194h58l-5 194l167 -101l29 50l-172 94l172 93l-29 51l-167 -103l5 196h-58l5 -196l-167 103l-29 -51z" />
    <glyph glyph-name="_274" unicode="&#xff0b;" 
d="M249 340h202v-211h58v211h201v52h-201v211h-58v-211h-202v-52z" />
    <glyph glyph-name="_276" unicode="&#xff0d;" 
d="M320 338h319v56h-319v-56z" />
    <glyph glyph-name="_278" unicode="&#xff0f;" 
d="M53 4l41 -43l812 821l-44 42z" />
    <glyph glyph-name="_279" unicode="&#xff10;" 
d="M727 393c0 178 -24 266 -73 327c-38 48 -97 74 -174 74s-135 -26 -174 -74c-49 -61 -73 -149 -73 -327c0 -180 24 -267 73 -329c39 -48 97 -73 174 -73s136 25 174 73c49 62 73 149 73 329zM665 393c0 -162 -18 -242 -55 -289c-29 -37 -73 -59 -130 -59s-101 22 -130 59
c-37 47 -55 127 -55 289c0 161 18 241 55 288c29 37 73 58 130 58s101 -21 130 -58c37 -47 55 -127 55 -288z" />
    <glyph glyph-name="_280" unicode="&#xff11;" 
d="M562 4v777h-55l-209 -94v-62l202 90v-711h62z" />
    <glyph glyph-name="_281" unicode="&#xff12;" 
d="M702 567c0 123 -79 227 -228 227c-148 0 -228 -104 -228 -227v-23h62v22c0 98 60 173 166 173c105 0 166 -74 166 -173c0 -54 -18 -98 -64 -150l-319 -361v-51h457v54h-374l286 324c61 67 76 114 76 185z" />
    <glyph glyph-name="_282" unicode="&#xff13;" 
d="M658 217c0 -105 -75 -172 -178 -172s-178 68 -178 181v5h-63v-7c0 -143 98 -233 241 -233s240 86 240 225c0 112 -61 181 -148 201c80 22 125 89 125 179c0 111 -82 198 -217 198s-217 -87 -217 -198v-18h62v14c0 86 59 147 155 147c93 0 155 -61 155 -147
c0 -78 -49 -148 -145 -148h-80v-54h76c107 0 172 -69 172 -173z" />
    <glyph glyph-name="_283" unicode="&#xff14;" 
d="M289 239l266 437v-437h-266zM721 239h-104v542h-67l-331 -542v-55h336v-180h62v180h104v55z" />
    <glyph glyph-name="_284" unicode="&#xff15;" 
d="M479 453c109 0 171 -73 171 -204s-62 -204 -171 -204c-97 0 -159 55 -170 162h-62c12 -135 94 -216 232 -216c145 0 233 94 233 257c0 168 -87 260 -224 260c-71 0 -124 -32 -151 -78l14 296h319v55h-378l-20 -426h63c26 63 78 98 144 98z" />
    <glyph glyph-name="_285" unicode="&#xff16;" 
d="M698 606c-15 125 -97 188 -216 188c-170 0 -241 -113 -241 -444v-17c0 -82 5 -152 26 -203c38 -95 114 -139 214 -139c142 0 238 98 238 258s-91 259 -233 259c-88 0 -153 -40 -181 -99c4 234 48 330 175 330c83 0 142 -42 153 -133h65zM481 46c-105 0 -176 74 -176 203
c0 128 71 204 176 204s176 -76 176 -204c0 -129 -71 -203 -176 -203z" />
    <glyph glyph-name="_286" unicode="&#xff17;" 
d="M253 726h391l-280 -722h66l277 726v51h-454v-55z" />
    <glyph glyph-name="_287" unicode="&#xff18;" 
d="M479 -9c150 0 252 82 252 221c0 104 -59 177 -154 202c78 25 130 91 130 180c0 118 -87 200 -228 200s-228 -82 -228 -200c0 -89 52 -155 130 -180c-95 -25 -153 -98 -153 -202c0 -139 101 -221 251 -221zM479 442c-98 0 -166 57 -166 148s68 149 166 149
s166 -58 166 -149s-68 -148 -166 -148zM668 216c0 -108 -78 -171 -189 -171c-110 0 -189 63 -189 171s79 172 189 172c111 0 189 -64 189 -172z" />
    <glyph glyph-name="_288" unicode="&#xff19;" 
d="M262 179c15 -125 97 -188 217 -188c167 0 240 111 240 443v17c0 83 -5 152 -26 204c-38 95 -114 139 -213 139c-142 0 -239 -98 -239 -258s91 -259 233 -259c89 0 153 40 181 99c-3 -235 -48 -330 -175 -330c-83 0 -142 42 -153 133h-65zM480 739c105 0 175 -75 175 -203
c0 -129 -70 -204 -175 -204c-106 0 -176 75 -176 204c0 128 70 203 176 203z" />
    <glyph glyph-name="_295" unicode="&#xff20;" 
d="M579 526c-135 0 -212 -94 -212 -257c0 -157 73 -256 219 -256c144 0 222 97 222 265v16c0 364 -90 500 -328 500c-239 0 -328 -136 -328 -500c0 -385 104 -500 328 -500c57 0 112 14 158 37l-19 47c-38 -22 -90 -34 -139 -34c-190 0 -272 89 -272 450
c0 341 68 450 272 450c175 0 250 -85 266 -307c-25 54 -82 89 -167 89zM588 64c-107 0 -163 70 -163 205c0 134 56 205 163 205s164 -71 164 -205c0 -135 -57 -205 -164 -205z" />
    <glyph glyph-name="_296" unicode="&#xff21;" 
d="M444 781l-281 -777h68l68 194h361l69 -194h68l-282 777h-71zM480 708l160 -454h-321z" />
    <glyph glyph-name="_297" unicode="&#xff22;" 
d="M513 4c158 0 240 68 240 211c0 104 -51 171 -145 189c75 20 123 80 123 177c0 127 -76 200 -227 200h-278v-777h287zM666 577c0 -97 -55 -146 -174 -146h-202v292h202c119 0 174 -49 174 -146zM290 62v312h209c139 0 190 -55 190 -157c0 -101 -51 -155 -190 -155h-209z
" />
    <glyph glyph-name="_298" unicode="&#xff23;" 
d="M484 -9c174 0 272 104 283 266h-65c-10 -129 -82 -210 -218 -210c-71 0 -126 25 -162 70c-48 61 -65 150 -65 276c0 125 17 214 65 275c36 44 91 69 162 69c136 0 208 -81 218 -209h65c-11 161 -109 266 -283 266c-96 0 -167 -33 -213 -91c-59 -74 -78 -183 -78 -310
c0 -129 19 -237 78 -311c46 -59 117 -91 213 -91z" />
    <glyph glyph-name="_299" unicode="&#xff24;" 
d="M478 4c230 0 289 177 289 389c0 211 -61 388 -289 388h-265v-777h265zM702 393c0 -197 -50 -331 -230 -331h-195v661h195c180 0 230 -135 230 -330z" />
    <glyph glyph-name="_300" unicode="&#xff25;" 
d="M257 4h445v57h-381v312h336v58h-336v292h376v58h-440v-777z" />
    <glyph glyph-name="_301" unicode="&#xff26;" 
d="M273 4h64v358h336v57h-336v304h370v58h-434v-777z" />
    <glyph glyph-name="_302" unicode="&#xff27;" 
d="M483 737c136 0 208 -81 218 -209h65c-11 161 -109 266 -283 266c-225 0 -291 -175 -291 -401c0 -229 67 -402 289 -402c118 0 196 53 228 130l10 -117h49v391h-279v-57h216v-38c0 -163 -85 -252 -222 -252c-169 0 -227 125 -227 345c0 215 57 344 227 344z" />
    <glyph glyph-name="_303" unicode="&#xff28;" 
d="M675 4h64v777h-64v-351h-390v351h-64v-777h64v369h390v-369z" />
    <glyph glyph-name="_304" unicode="&#xff29;" 
d="M512 781h-64v-777h64v777z" />
    <glyph glyph-name="_305" unicode="&#xff2a;" 
d="M450 48c-110 0 -165 71 -166 196h-64c0 -159 78 -253 230 -253c149 0 230 93 230 251v539h-65v-534c0 -129 -58 -199 -165 -199z" />
    <glyph glyph-name="_306" unicode="&#xff2b;" 
d="M742 781h-75l-257 -350h-103v350h-64v-777h64v369h103l291 -369h76l-317 397z" />
    <glyph glyph-name="_307" unicode="&#xff2c;" 
d="M277 4h445v57h-381v720h-64v-777z" />
    <glyph glyph-name="_308" unicode="&#xff2d;" 
d="M515 4l276 638v-638h64v777h-71l-304 -705l-305 705h-71v-777h64v638l276 -638h71z" />
    <glyph glyph-name="_309" unicode="&#xff2e;" 
d="M744 4v777h-64v-659l-401 659h-64v-777h64v659l401 -659h64z" />
    <glyph glyph-name="_310" unicode="&#xff2f;" 
d="M771 393c0 127 -19 236 -77 310c-47 58 -118 91 -214 91c-97 0 -167 -33 -214 -91c-58 -74 -78 -183 -78 -310c0 -129 20 -237 78 -311c47 -59 117 -91 214 -91c96 0 167 32 214 91c58 74 77 182 77 311zM707 393c0 -126 -17 -215 -64 -276c-37 -45 -92 -70 -163 -70
s-127 25 -163 70c-48 61 -64 150 -64 276c0 125 16 214 64 275c36 44 92 69 163 69s126 -25 163 -69c47 -61 64 -150 64 -275z" />
    <glyph glyph-name="_311" unicode="&#xff30;" 
d="M300 364v359h215c122 0 184 -67 184 -179s-62 -180 -184 -180h-215zM521 307c159 0 242 91 242 237c0 145 -83 237 -242 237h-285v-777h64v303h221z" />
    <glyph glyph-name="_312" unicode="&#xff31;" 
d="M771 393c0 127 -19 236 -77 310c-47 58 -118 91 -214 91c-97 0 -167 -33 -214 -91c-58 -74 -78 -183 -78 -310c0 -129 20 -237 78 -311c47 -59 117 -91 214 -91c84 0 149 24 194 70l100 -85l38 43l-102 86c45 73 61 172 61 288zM707 393c0 -107 -12 -187 -44 -247
l-122 104l-37 -43l124 -106c-36 -35 -86 -54 -148 -54c-71 0 -127 25 -163 70c-48 61 -64 150 -64 276c0 125 16 214 64 275c36 44 92 69 163 69s126 -25 163 -69c47 -61 64 -150 64 -275z" />
    <glyph glyph-name="_313" unicode="&#xff32;" 
d="M756 4c-7 18 -11 41 -14 71l-7 110c-8 102 -45 149 -123 164c93 27 138 99 138 205c0 139 -77 227 -240 227h-287v-777h64v316h211c123 0 165 -40 172 -136l8 -110c2 -29 5 -53 12 -70h66zM287 378v345h217c119 0 182 -59 182 -173c0 -113 -63 -172 -182 -172h-217z" />
    <glyph glyph-name="_314" unicode="&#xff33;" 
d="M738 207c0 114 -65 186 -208 215l-100 21c-94 19 -144 64 -144 145c0 89 65 149 179 149c115 0 180 -60 180 -149v-17h64v17c0 113 -85 206 -244 206s-243 -93 -243 -206c0 -111 68 -176 190 -201l100 -21c115 -24 162 -77 162 -160c0 -91 -71 -159 -194 -159
s-194 68 -194 159v24h-64v-23c0 -121 90 -216 258 -216s258 95 258 216z" />
    <glyph glyph-name="_315" unicode="&#xff34;" 
d="M214 723h234v-719h64v719h234v58h-532v-58z" />
    <glyph glyph-name="_316" unicode="&#xff35;" 
d="M479 -9c194 0 276 121 276 299v491h-64v-483c0 -160 -61 -251 -212 -251c-149 0 -211 91 -211 251v483h-64v-491c0 -178 82 -299 275 -299z" />
    <glyph glyph-name="_317" unicode="&#xff36;" 
d="M515 4l282 777h-68l-249 -692l-249 692h-68l281 -777h71z" />
    <glyph glyph-name="_318" unicode="&#xff37;" 
d="M661 4h74l201 777h-67l-173 -685l-184 685h-65l-184 -685l-173 685h-66l200 -777h74l182 674z" />
    <glyph glyph-name="_319" unicode="&#xff38;" 
d="M708 4h73l-261 397l247 380h-71l-217 -332l-216 332h-71l247 -380l-261 -397h72l229 350z" />
    <glyph glyph-name="_320" unicode="&#xff39;" 
d="M174 781l273 -471v-306h64v306l274 471h-70l-236 -409l-236 409h-69z" />
    <glyph glyph-name="_321" unicode="&#xff3a;" 
d="M237 56v-52h485v57h-410l404 667v53h-468v-58h393z" />
    <glyph glyph-name="_323" unicode="&#xffe6;" 
d="M651 4h74l92 375h123v43h-112l88 359h-67l-85 -359h-161l-91 359h-65l-91 -359h-161l-85 359h-66l88 -359h-112v-43h122l92 -375h74l96 375h152zM545 422h-130l65 256zM206 379h139l-72 -283zM614 379h139l-67 -283z" />
    <glyph glyph-name="_325" unicode="&#xff3e;" 
d="M452 781l-176 -258h63l140 207l141 -207h63l-176 258h-55z" />
    <glyph glyph-name="_327" unicode="&#xff40;" 
d="M513 636h59l-115 178h-70z" />
    <glyph glyph-name="_328" unicode="&#xff41;" 
d="M639 167c0 -76 -55 -123 -167 -123c-111 0 -166 47 -166 123s55 123 166 123c112 0 167 -47 167 -123zM639 65c1 -22 4 -44 12 -61h64c-9 20 -14 49 -14 77v290c0 123 -75 201 -218 201c-135 0 -206 -70 -216 -172h62c9 70 56 119 154 119c103 0 156 -58 156 -146v-104
c-24 45 -85 75 -179 75c-135 0 -215 -68 -215 -177c0 -110 80 -176 215 -176c94 0 155 27 179 74z" />
    <glyph glyph-name="_329" unicode="&#xff42;" 
d="M326 97c25 -63 85 -106 180 -106c148 0 228 100 228 290s-80 291 -228 291c-95 0 -155 -43 -180 -107v316h-61v-777h61v93zM673 281c0 -151 -52 -237 -173 -237c-122 0 -174 86 -174 237c0 152 52 238 174 238c121 0 173 -86 173 -238z" />
    <glyph glyph-name="_330" unicode="&#xff43;" 
d="M250 281c0 -183 76 -290 235 -290c131 0 211 70 225 189h-63c-11 -86 -66 -136 -162 -136c-122 0 -174 84 -174 237s52 238 174 238c96 0 151 -51 162 -137h63c-14 120 -94 190 -225 190c-159 0 -235 -108 -235 -291z" />
    <glyph glyph-name="_331" unicode="&#xff44;" 
d="M633 4h61v777h-61v-316c-25 64 -84 107 -179 107c-149 0 -229 -101 -229 -291s80 -290 229 -290c95 0 154 43 179 106v-93zM633 281c0 -151 -52 -237 -173 -237c-122 0 -174 86 -174 237c0 152 52 238 174 238c121 0 173 -86 173 -238z" />
    <glyph glyph-name="_332" unicode="&#xff45;" 
d="M714 263v18c0 182 -75 291 -234 291s-235 -109 -235 -291s76 -290 235 -290c126 0 201 64 222 174h-63c-16 -77 -68 -121 -158 -121c-118 0 -172 78 -175 219h408zM480 519c112 0 166 -75 172 -205h-344c5 130 59 205 172 205z" />
    <glyph glyph-name="_333" unicode="&#xff46;" 
d="M642 735v51c-19 2 -37 3 -56 3c-121 0 -165 -39 -165 -155v-75h-83v-53h83v-502h62v502h159v53h-159v70c0 82 23 106 108 106h51z" />
    <glyph glyph-name="_334" unicode="&#xff47;" 
d="M653 -32c0 -106 -60 -168 -160 -168c-85 0 -142 41 -154 111h-62c14 -99 89 -164 216 -164c146 0 221 91 221 225v587h-61v-94c-25 64 -84 107 -179 107c-149 0 -229 -101 -229 -291s80 -290 229 -290c95 0 154 43 179 106v-129zM653 281c0 -151 -52 -237 -173 -237
c-122 0 -174 86 -174 237c0 152 52 238 174 238c121 0 173 -86 173 -238z" />
    <glyph glyph-name="_335" unicode="&#xff48;" 
d="M713 347c0 141 -69 225 -196 225c-100 0 -162 -50 -190 -121v330h-61v-777h61v280c2 149 76 235 178 235c96 0 147 -58 147 -192v-323h61v343z" />
    <glyph glyph-name="_336" unicode="&#xff49;" 
d="M511 4v555h-62v-555h62zM511 679v102h-62v-102h62z" />
    <glyph glyph-name="_337" unicode="&#xff4a;" 
d="M526 559h-62v-655c0 -62 -28 -89 -82 -89h-29v-52c8 -1 22 -1 33 -1c96 0 140 46 140 149v648zM526 679v102h-62v-102h62z" />
    <glyph glyph-name="_338" unicode="&#xff4b;" 
d="M350 4v262h70l216 -262h75l-237 290l212 265h-73l-192 -239h-71v461h-61v-777h61z" />
    <glyph glyph-name="_339" unicode="&#xff4c;" 
d="M511 4v777h-62v-777h62z" />
    <glyph glyph-name="_340" unicode="&#xff4d;" 
d="M804 4h62v366c0 130 -67 202 -183 202c-99 0 -156 -53 -185 -128c-21 83 -86 128 -172 128c-87 0 -147 -45 -172 -119v106h-61v-555h61v277c0 155 70 238 161 238c85 0 133 -50 133 -150v-365h62v277c0 155 70 238 161 238c84 0 133 -50 133 -150v-365z" />
    <glyph glyph-name="_341" unicode="&#xff4e;" 
d="M703 347c0 141 -69 225 -196 225c-100 0 -162 -50 -190 -121v108h-61v-555h61v280c2 149 76 235 178 235c96 0 147 -58 147 -192v-323h61v343z" />
    <glyph glyph-name="_342" unicode="&#xff4f;" 
d="M714 281c0 182 -75 291 -234 291s-235 -109 -235 -291c0 -181 76 -290 235 -290s234 109 234 290zM306 281c0 152 52 238 174 238c121 0 173 -86 173 -238c0 -151 -52 -237 -173 -237c-122 0 -174 86 -174 237z" />
    <glyph glyph-name="_343" unicode="&#xff50;" 
d="M326 97c25 -63 85 -106 180 -106c148 0 228 100 228 290s-80 291 -228 291c-95 0 -155 -43 -180 -107v94h-61v-797h61v335zM326 281c0 152 52 238 174 238c121 0 173 -86 173 -238c0 -151 -52 -237 -173 -237c-122 0 -174 86 -174 237z" />
    <glyph glyph-name="_344" unicode="&#xff51;" 
d="M633 -238h61v797h-61v-94c-25 64 -84 107 -179 107c-149 0 -229 -101 -229 -291s80 -290 229 -290c95 0 154 43 179 106v-335zM633 281c0 -151 -52 -237 -173 -237c-122 0 -174 86 -174 237c0 152 52 238 174 238c121 0 173 -86 173 -238z" />
    <glyph glyph-name="_345" unicode="&#xff52;" 
d="M592 518c16 0 32 -1 41 -2l1 52c-10 3 -25 4 -41 4c-89 0 -142 -43 -166 -120v107h-61v-555h61v280c0 157 65 234 165 234z" />
    <glyph glyph-name="_346" unicode="&#xff53;" 
d="M509 254c86 -17 119 -47 119 -104c0 -65 -62 -106 -148 -106s-148 41 -148 106v20h-61v-20c0 -96 84 -159 209 -159c128 0 209 65 209 159c0 89 -48 133 -166 158l-68 14c-84 17 -118 45 -118 97c0 57 48 100 135 100c86 0 135 -43 135 -100v-17h62v17
c0 88 -74 153 -197 153c-126 0 -197 -68 -197 -153c0 -82 47 -127 166 -151z" />
    <glyph glyph-name="_347" unicode="&#xff54;" 
d="M477 506h170v53h-170v158h-61v-158h-84v-53h84v-358c0 -116 52 -152 168 -152c19 0 42 0 63 1v52h-55c-77 0 -115 21 -115 109v348z" />
    <glyph glyph-name="_348" unicode="&#xff55;" 
d="M256 216c0 -142 69 -225 197 -225c100 0 161 49 189 120v-107h62v555h-62v-281c-1 -148 -75 -234 -177 -234c-97 0 -147 57 -147 191v324h-62v-343z" />
    <glyph glyph-name="_349" unicode="&#xff56;" 
d="M226 559l219 -555h70l219 555h-65l-189 -483l-189 483h-65z" />
    <glyph glyph-name="_350" unicode="&#xff57;" 
d="M446 559l-160 -478l-160 478h-64l190 -555h68l160 477l160 -477h68l190 555h-65l-160 -478l-160 478h-67z" />
    <glyph glyph-name="_351" unicode="&#xff58;" 
d="M653 4h70l-206 284l195 271h-70l-163 -226l-162 226h-70l195 -271l-206 -284h70l173 239z" />
    <glyph glyph-name="_352" unicode="&#xff59;" 
d="M400 -117c-22 -57 -46 -68 -93 -68h-23v-52c9 -1 17 -1 28 -1c71 0 111 17 145 103l277 694h-66l-188 -479l-190 479h-65l223 -556z" />
    <glyph glyph-name="_353" unicode="&#xff5a;" 
d="M672 559h-384v-53h309l-318 -453v-49h401v53h-326l318 452v50z" />
    <glyph glyph-name="_358" unicode="&#x3131;" 
d="M192 636v-53h506v-410h60v463h-566z" />
    <glyph glyph-name="_359" unicode="&#x3132;" 
d="M152 636v-53h230v-410h61v463h-291zM503 636v-53h235v-410h60v463h-295z" />
    <glyph glyph-name="_360" unicode="&#x3133;" 
d="M136 636v-53h217v-411h61v464h-278zM611 636v-196c0 -125 -65 -191 -143 -215v-53c81 19 148 75 173 140c28 -65 93 -120 173 -140v53c-77 25 -143 91 -143 215v196h-60z" />
    <glyph glyph-name="_361" unicode="&#x3134;" 
d="M768 173v53h-506v410h-60v-463h566z" />
    <glyph glyph-name="_362" unicode="&#x3135;" 
d="M405 225h-195v411h-61v-464h256v53zM599 583v-180c0 -99 -79 -163 -150 -178v-52c82 15 154 69 180 131c28 -62 104 -116 182 -131v52c-71 15 -151 80 -151 178v180h145v53h-349v-53h143z" />
    <glyph glyph-name="_363" unicode="&#x3136;" 
d="M412 226h-202v410h-60v-463h262v53zM415 580v-51h419v51h-179v105h-62v-105h-178zM498 310c0 28 11 53 30 71c22 21 56 33 96 33c39 0 73 -12 95 -33c20 -18 30 -43 30 -71s-10 -53 -30 -71c-22 -21 -56 -33 -95 -33c-40 0 -74 12 -96 33c-19 18 -30 43 -30 71zM440 310
c0 -45 19 -82 49 -108c34 -30 82 -46 135 -46c52 0 100 16 134 46c30 26 49 63 49 108s-19 82 -49 108c-34 30 -82 46 -134 46c-53 0 -101 -16 -135 -46c-30 -26 -49 -63 -49 -108z" />
    <glyph glyph-name="_364" unicode="&#x3137;" 
d="M262 226v357h496v53h-556v-463h566v53h-506z" />
    <glyph glyph-name="_365" unicode="&#x3138;" 
d="M568 226v357h225v53h-286v-463h296v53h-235zM225 583h215v53h-275v-463h286v53h-226v357z" />
    <glyph glyph-name="_366" unicode="&#x3139;" 
d="M267 216v163h486v267h-546v-53h486v-161h-486v-269h566v53h-506z" />
    <glyph glyph-name="_367" unicode="&#x313a;" 
d="M516 223h-298v158h237v255h-295v-50h236v-155h-236v-258h356v50zM805 636h-293v-51h234v-412h59v463z" />
    <glyph glyph-name="_368" unicode="&#x313b;" 
d="M511 636v-463h294v463h-294zM570 585h177v-361h-177v361zM461 223h-243v158h222v255h-280v-50h221v-155h-221v-258h301v50z" />
    <glyph glyph-name="_369" unicode="&#x313c;" 
d="M570 462v174h-59v-463h294v463h-58v-174h-177zM570 411h177v-187h-177v187zM461 223h-243v158h222v255h-280v-50h221v-155h-221v-258h301v50z" />
    <glyph glyph-name="_370" unicode="&#x313d;" 
d="M454 223h-236v158h221v255h-280v-51h221v-155h-221v-258h295v51zM617 636v-206c0 -116 -63 -183 -135 -205v-53c77 18 142 74 166 135c27 -61 89 -117 166 -135v53c-75 22 -136 92 -136 205v206h-61z" />
    <glyph glyph-name="_371" unicode="&#x313e;" 
d="M570 223v158h225v50h-225v155h235v50h-294v-463h301v50h-242zM461 223h-243v158h222v255h-280v-50h221v-155h-221v-258h301v50z" />
    <glyph glyph-name="_372" unicode="&#x313f;" 
d="M599 585h92v-361h-92v361zM749 224v361h56v51h-320v-51h55v-361h-58v-51h328v51h-61zM447 223h-229v158h213v255h-271v-50h212v-155h-212v-258h287v50z" />
    <glyph glyph-name="_373" unicode="&#x3140;" 
d="M461 223h-243v158h212v255h-270v-50h211v-155h-211v-258h301v50zM472 580v-51h362v51h-151v105h-62v-105h-149zM547 310c0 29 10 54 27 72c18 20 45 32 78 32s60 -12 78 -32c17 -18 27 -43 27 -72s-10 -54 -27 -72c-18 -20 -45 -32 -78 -32s-60 12 -78 32
c-17 18 -27 43 -27 72zM488 310c0 -44 17 -81 45 -109c29 -28 71 -45 119 -45s90 17 119 45c28 28 45 65 45 109s-17 81 -45 109c-29 28 -71 45 -119 45s-90 -17 -119 -45c-28 -28 -45 -65 -45 -109z" />
    <glyph glyph-name="_374" unicode="&#x3141;" 
d="M202 636v-463h556v463h-556zM698 583v-357h-436v357h436z" />
    <glyph glyph-name="_375" unicode="&#x3142;" 
d="M262 455v181h-60v-463h556v463h-60v-181h-436zM698 402v-176h-436v176h436z" />
    <glyph glyph-name="_376" unicode="&#x3143;" 
d="M241 455v181h-59v-463h596v463h-59v-181h-206v181h-58v-181h-214zM241 403h214v-179h-214v179zM719 403v-179h-206v179h206z" />
    <glyph glyph-name="_377" unicode="&#x3144;" 
d="M218 459v177h-59v-464h294v464h-58v-177h-177zM218 409h177v-186h-177v186zM617 636v-206c0 -116 -63 -183 -135 -205v-53c77 18 142 74 166 135c27 -61 89 -117 166 -135v53c-75 22 -136 92 -136 205v206h-61z" />
    <glyph glyph-name="_378" unicode="&#x3145;" 
d="M479 387c45 -105 161 -190 315 -222v55c-160 31 -285 140 -285 319v107h-61v-107c0 -179 -124 -287 -284 -319v-55c160 30 269 118 315 222z" />
    <glyph glyph-name="_379" unicode="&#x3146;" 
d="M479 172c77 38 137 107 163 179c31 -73 102 -143 197 -180v55c-89 38 -166 126 -166 253v157h-60v-157c0 -115 -63 -205 -134 -249c-70 43 -134 134 -134 249v157h-60v-157c0 -127 -77 -216 -166 -253v-55c95 36 167 107 197 180c28 -72 89 -141 163 -179z" />
    <glyph glyph-name="_380" unicode="&#x3147;" 
d="M243 405c0 56 21 102 59 135c42 37 104 58 178 58s136 -21 178 -58c38 -33 59 -79 59 -135s-21 -102 -59 -135c-42 -37 -104 -58 -178 -58s-136 21 -178 58c-38 33 -59 79 -59 135zM183 405c0 -75 30 -137 84 -180c52 -43 126 -66 213 -66s161 23 213 66
c54 43 84 105 84 180s-30 137 -84 180c-52 43 -126 66 -213 66s-161 -23 -213 -66c-54 -43 -84 -105 -84 -180z" />
    <glyph glyph-name="_381" unicode="&#x3148;" 
d="M479 387c48 -105 160 -192 302 -221v55c-146 32 -272 136 -272 302v60h263v53h-586v-53h262v-60c0 -166 -126 -270 -273 -302v-55c145 29 256 115 304 221z" />
    <glyph glyph-name="_382" unicode="&#x3149;" 
d="M479 172c72 37 132 110 156 181c30 -74 101 -147 194 -182v55c-85 36 -162 125 -162 249v108h153v53h-669v-53h140v-108c0 -124 -77 -216 -162 -249v-55c93 34 165 109 194 182c26 -71 86 -144 156 -181zM479 230c-64 41 -127 134 -127 246v107h254v-107
c0 -112 -62 -204 -127 -246z" />
    <glyph glyph-name="_383" unicode="&#x314a;" 
d="M479 377c48 -102 162 -187 302 -214v55c-146 30 -272 136 -272 288v10h263v53h-263v135h-61v-135h-262v-53h262v-10c0 -152 -126 -258 -273 -288v-55c144 27 256 111 304 214z" />
    <glyph glyph-name="_384" unicode="&#x314b;" 
d="M202 636v-53h496v-165c-73 -11 -172 -16 -254 -16h-242v-53h241c86 0 183 6 255 19v-195h60v463h-556z" />
    <glyph glyph-name="_385" unicode="&#x314c;" 
d="M267 216v163h476v53h-476v161h486v53h-546v-483h566v53h-506z" />
    <glyph glyph-name="_386" unicode="&#x314d;" 
d="M605 417c0 -68 -6 -141 -25 -191h-222v357h247v-166zM665 583h113v53h-596v-53h116v-357h-136v-53h636v53h-159c19 50 26 125 26 198v159z" />
    <glyph glyph-name="_387" unicode="&#x314e;" 
d="M169 593v-53h622v53h-281v121h-62v-121h-279zM698 305c0 -24 -11 -45 -30 -61c-36 -32 -104 -47 -188 -47s-152 15 -188 47c-19 16 -30 37 -30 61s11 45 30 61c36 32 104 47 188 47s152 -15 188 -47c19 -16 30 -37 30 -61zM202 305c0 -39 17 -72 47 -98
c49 -41 132 -63 231 -63s182 22 231 63c30 26 47 59 47 98s-17 72 -47 98c-49 41 -132 63 -231 63s-182 -22 -231 -63c-30 -26 -47 -59 -47 -98z" />
    <glyph glyph-name="_388" unicode="&#x314f;" 
d="M489 838h-61v-887h61v453h181v54h-181v380z" />
    <glyph glyph-name="_389" unicode="&#x3150;" 
d="M625 -49v887h-60v-373h-172v368h-59v-871h59v449h172v-460h60z" />
    <glyph glyph-name="_390" unicode="&#x3151;" 
d="M489 838h-61v-886h61v295h179v53h-179v248h179v54h-179v236z" />
    <glyph glyph-name="_391" unicode="&#x3152;" 
d="M625 -48v886h-60v-222h-172v217h-59v-871h59v279h172v-289h60zM393 294v270h172v-270h-172z" />
    <glyph glyph-name="_392" unicode="&#x3153;" 
d="M469 458h-182v-54h182v-453h61v887h-61v-380z" />
    <glyph glyph-name="_393" unicode="&#x3154;" 
d="M637 -49v887h-60v-887h60zM383 413v-451h60v871h-60v-367h-169v-53h169z" />
    <glyph glyph-name="_394" unicode="&#x3155;" 
d="M469 602h-180v-54h180v-241h-180v-54h180v-301h61v886h-61v-236z" />
    <glyph glyph-name="_395" unicode="&#x3156;" 
d="M383 547v-236h-165v-53h165v-296h60v871h-60v-232h-165v-54h165zM637 -49v887h-60v-887h60z" />
    <glyph glyph-name="_396" unicode="&#x3157;" 
d="M85 194h789v54h-365v376h-62v-376h-362v-54z" />
    <glyph glyph-name="_397" unicode="&#x3158;" 
d="M274 426v-330h-226v-52h414c100 0 183 21 232 63v-155h61v452h161v54h-161v380h-61v-679c-49 -41 -129 -63 -224 -63h-135v330h-61z" />
    <glyph glyph-name="_398" unicode="&#x3159;" 
d="M266 425v-329h-178v-52h282c88 0 160 18 201 55v-136h60v454h142v-465h60v886h-60v-367h-142v362h-60v-683c-41 -36 -110 -54 -193 -54h-52v329h-60z" />
    <glyph glyph-name="_399" unicode="&#x315a;" 
d="M317 426v-330h-236v-52h407c112 0 204 18 256 63v-156h62v887h-62v-679c-55 -45 -144 -63 -237 -63h-129v330h-61z" />
    <glyph glyph-name="_400" unicode="&#x315b;" 
d="M612 606v-358h-261v358h-60v-358h-206v-54h789v54h-202v358h-60z" />
    <glyph glyph-name="_401" unicode="&#x315c;" 
d="M85 370h362v-371h62v371h365v54h-789v-54z" />
    <glyph glyph-name="_402" unicode="&#x315d;" 
d="M806 838h-60v-663h-224v-53h224v-170h60v886zM456 323c77 0 156 10 206 37v52c-67 -30 -156 -35 -239 -35h-358v-54h226v-372h61v372h104z" />
    <glyph glyph-name="_403" unicode="&#x315e;" 
d="M773 838v-887h60v887h-60zM345 329c71 0 134 6 179 30v51c-47 -22 -111 -28 -177 -28h-259v-53h161v-379h61v379h35zM585 135v-173h60v871h-60v-645h-151v-53h151z" />
    <glyph glyph-name="_404" unicode="&#x315f;" 
d="M512 306c101 0 184 22 234 64v-420h61v889h-61v-417c-53 -42 -133 -63 -221 -63h-460v-53h242v-357h61v357h144z" />
    <glyph glyph-name="_405" unicode="&#x3160;" 
d="M620 370v-361h60v361h194v54h-789v-54h197v-361h60v361h278z" />
    <glyph glyph-name="_406" unicode="&#x3161;" 
d="M85 194h789v54h-789v-54z" />
    <glyph glyph-name="_407" unicode="&#x3162;" 
d="M799 -49v887h-61v-675c-56 -46 -144 -63 -238 -63h-429v-53h410c112 0 205 18 257 64v-160h61z" />
    <glyph glyph-name="_408" unicode="&#x3163;" 
d="M448 -48h62v886h-62v-886z" />
    <glyph glyph-name="_409" unicode="&#x3165;" 
d="M453 226h-233v410h-60v-463h293v53zM808 226h-240v410h-60v-463h300v53z" />
    <glyph glyph-name="_410" unicode="&#x3166;" 
d="M567 226v357h230v53h-291v-463h297v53h-236zM452 226h-232v410h-60v-463h292v53z" />
    <glyph glyph-name="_411" unicode="&#x3167;" 
d="M431 225h-211v411h-61v-464h272v53zM611 636v-196c0 -125 -65 -191 -143 -215v-53c81 19 148 75 173 140c28 -65 93 -120 173 -140v53c-77 25 -143 91 -143 215v196h-60z" />
    <glyph glyph-name="_412" unicode="&#x3168;" 
d="M633 529l101 -305h-204zM633 676l-183 -503h364zM432 226h-212v410h-60v-463h272v53z" />
    <glyph glyph-name="_413" unicode="&#x3169;" 
d="M361 224h-214v156h174v256h-229v-52h173v-154h-173v-258h269v52zM579 636h-216v-52h160v-412h56v464zM724 636v-192c0 -132 -42 -195 -110 -220v-53c64 18 118 67 139 121c23 -51 76 -102 138 -121v53c-68 25 -110 90 -110 220v192h-57z" />
    <glyph glyph-name="_414" unicode="&#x316a;" 
d="M469 223h-251v158h230v255h-288v-50h229v-155h-229v-258h309v50zM583 226v357h222v53h-282v-463h288v53h-228z" />
    <glyph glyph-name="_415" unicode="&#x316b;" 
d="M421 460v176h-55v-464h234v464h-56v-176h-123zM421 408h123v-184h-123v184zM328 224h-181v156h164v256h-219v-52h163v-154h-163v-258h236v52zM726 636v-192c0 -128 -39 -194 -108 -220v-53c63 18 116 68 137 121c23 -51 75 -102 136 -121v53c-68 25 -108 92 -108 220v192
h-57z" />
    <glyph glyph-name="_416" unicode="&#x316c;" 
d="M642 534l102 -310h-206zM642 675l-180 -502h359zM461 223h-243v158h222v255h-280v-50h221v-155h-221v-258h301v50z" />
    <glyph glyph-name="_417" unicode="&#x316d;" 
d="M751 322c0 -37 -13 -69 -37 -89c-16 -14 -38 -22 -62 -22c-26 0 -48 8 -64 22c-24 20 -37 52 -37 89s13 69 37 89c16 14 38 22 64 22c24 0 46 -8 62 -22c24 -20 37 -52 37 -89zM822 583v53h-339v-53h339zM461 223h-243v158h212v255h-270v-50h211v-155h-211v-258h301v50z
M492 322c0 -55 23 -101 60 -130c26 -21 60 -33 99 -33s73 12 99 33c37 29 60 75 60 130s-23 101 -60 130c-26 21 -60 33 -99 33s-73 -12 -99 -33c-37 -29 -60 -75 -60 -130z" />
    <glyph glyph-name="_418" unicode="&#x316e;" 
d="M574 462v174h-59v-463h290v463h-58v-174h-173zM574 411h173v-187h-173v187zM160 636v-463h290v463h-290zM218 585h173v-361h-173v361z" />
    <glyph glyph-name="_419" unicode="&#x316f;" 
d="M159 636v-464h291v464h-291zM218 585h174v-362h-174v362zM617 636v-206c0 -116 -63 -183 -135 -205v-53c77 18 142 74 166 135c27 -61 89 -117 166 -135v53c-75 22 -136 92 -136 205v206h-61z" />
    <glyph glyph-name="_420" unicode="&#x3170;" 
d="M160 636v-463h291v463h-291zM218 585h175v-361h-175v361zM642 534l102 -310h-206zM642 675l-180 -502h359z" />
    <glyph glyph-name="_421" unicode="&#x3171;" 
d="M242 739v-337h476v337h-476zM658 686v-231h-356v231h356zM346 190c0 22 8 42 24 57c23 23 62 35 110 35s87 -12 110 -35c16 -15 24 -35 24 -57c0 -23 -8 -43 -24 -58c-23 -22 -62 -35 -110 -35s-87 13 -110 35c-16 15 -24 35 -24 58zM285 190c0 -38 16 -71 43 -95
c36 -32 90 -49 152 -49s116 17 152 49c27 24 43 57 43 95s-16 70 -43 95c-36 31 -90 49 -152 49s-116 -18 -152 -49c-27 -25 -43 -57 -43 -95z" />
    <glyph glyph-name="_422" unicode="&#x3172;" 
d="M218 461v175h-58v-463h304v463h-59v-175h-187zM218 411h187v-187h-187v187zM805 636h-283v-51h224v-412h59v463z" />
    <glyph glyph-name="_423" unicode="&#x3173;" 
d="M218 461v175h-58v-463h294v463h-59v-175h-177zM218 411h177v-187h-177v187zM587 226v357h218v53h-279v-463h285v53h-224z" />
    <glyph glyph-name="_424" unicode="&#x3174;" 
d="M839 636h-214v-52h158v-412h56v464zM167 460v176h-55v-464h237v464h-56v-176h-126zM167 408h126v-184h-126v184zM482 636v-192c0 -128 -39 -194 -108 -220v-53c63 18 116 68 137 121c23 -51 75 -102 136 -121v53c-68 25 -108 92 -108 220v192h-57z" />
    <glyph glyph-name="_425" unicode="&#x3175;" 
d="M839 636h-196v-464h206v52h-151v360h141v52zM167 460v176h-55v-464h227v464h-56v-176h-116zM167 408h116v-184h-116v184zM462 636v-219c0 -110 -44 -171 -100 -193v-53c61 19 108 64 129 117c21 -51 70 -97 128 -117v53c-58 22 -100 84 -100 193v219h-57z" />
    <glyph glyph-name="_426" unicode="&#x3176;" 
d="M218 461v175h-58v-463h294v463h-59v-175h-177zM623 583v-156c0 -114 -62 -180 -131 -202v-52c74 17 137 73 161 132c27 -59 87 -114 161 -132v52c-69 22 -131 88 -131 202v156h128v53h-308v-53h120zM218 411h177v-187h-177v187z" />
    <glyph glyph-name="_427" unicode="&#x3177;" 
d="M218 461v175h-58v-463h292v463h-58v-175h-176zM218 411h176v-187h-176v187zM583 223v158h212v50h-212v155h222v50h-281v-463h288v50h-229z" />
    <glyph glyph-name="_428" unicode="&#x3178;" 
d="M302 619v120h-60v-337h476v337h-60v-120h-356zM658 566v-111h-356v111h356zM346 190c0 22 8 42 24 57c23 23 62 35 110 35s87 -12 110 -35c16 -15 24 -35 24 -57c0 -23 -8 -43 -24 -58c-23 -22 -62 -35 -110 -35s-87 13 -110 35c-16 15 -24 35 -24 58zM285 190
c0 -38 16 -71 43 -95c36 -32 90 -49 152 -49s116 17 152 49c27 24 43 57 43 95s-16 70 -43 95c-36 31 -90 49 -152 49s-116 -18 -152 -49c-27 -25 -43 -57 -43 -95z" />
    <glyph glyph-name="_429" unicode="&#x3179;" 
d="M281 618v121h-59v-337h516v337h-59v-121h-166v121h-58v-121h-174zM285 190c0 -38 16 -71 43 -95c36 -32 90 -49 152 -49s116 17 152 49c27 24 43 57 43 95s-16 70 -43 95c-36 31 -90 49 -152 49s-116 -18 -152 -49c-27 -25 -43 -57 -43 -95zM346 190c0 22 8 42 24 57
c23 23 62 35 110 35s87 -12 110 -35c16 -15 24 -35 24 -57c0 -23 -8 -43 -24 -58c-23 -22 -62 -35 -110 -35s-87 13 -110 35c-16 15 -24 35 -24 58zM281 567h174v-113h-174v113zM679 567v-113h-166v113h166z" />
    <glyph glyph-name="_430" unicode="&#x317a;" 
d="M306 636v-196c0 -125 -64 -191 -142 -215v-53c81 19 148 75 173 140c28 -65 93 -120 172 -140v53c-76 25 -142 91 -142 215v196h-61zM508 636v-53h220v-411h61v464h-281z" />
    <glyph glyph-name="_431" unicode="&#x317b;" 
d="M801 225h-211v411h-61v-464h272v53zM280 636v-206c0 -116 -63 -183 -136 -205v-53c77 18 142 74 166 135c27 -61 89 -117 166 -135v53c-73 22 -136 90 -136 205v206h-60z" />
    <glyph glyph-name="_432" unicode="&#x317c;" 
d="M575 225v358h220v53h-281v-464h287v53h-226zM273 636v-199c0 -124 -63 -189 -139 -212v-53c79 18 145 73 170 136c27 -63 91 -117 169 -136v53c-74 23 -139 90 -139 212v199h-61z" />
    <glyph glyph-name="_433" unicode="&#x317d;" 
d="M270 636v-206c0 -116 -63 -183 -136 -205v-53c77 18 142 74 166 135c27 -61 89 -117 166 -135v53c-73 22 -136 90 -136 205v206h-60zM571 461v175h-59v-464h293v464h-59v-175h-175zM571 411h175v-188h-175v188z" />
    <glyph glyph-name="_434" unicode="&#x317e;" 
d="M479 172c74 38 135 110 160 181c29 -74 99 -146 190 -182v55c-85 37 -159 125 -159 249v108h150v53h-356v-53h145v-107c0 -112 -63 -203 -130 -246c-66 42 -130 134 -130 246v160h-61v-161c0 -124 -75 -215 -159 -249v-55c91 35 162 109 190 182c27 -71 88 -143 160 -181
z" />
    <glyph glyph-name="_435" unicode="&#x317f;" 
d="M172 173h617l-311 521zM477 584l214 -360h-423z" />
    <glyph glyph-name="_436" unicode="&#x3180;" 
d="M198 405c0 78 14 138 46 168c15 14 34 22 56 22s40 -8 55 -22c32 -30 46 -90 46 -168s-14 -138 -46 -168c-15 -15 -33 -22 -55 -22s-41 7 -56 22c-32 30 -46 90 -46 168zM140 405c0 -98 24 -170 69 -209c24 -21 55 -32 91 -32c35 0 67 11 91 32c45 39 69 111 69 209
s-24 170 -69 209c-24 21 -56 32 -91 32c-36 0 -67 -11 -91 -32c-45 -39 -69 -111 -69 -209zM564 405c0 78 14 138 46 168c15 14 33 22 55 22s41 -8 56 -22c32 -30 46 -90 46 -168s-14 -138 -46 -168c-15 -15 -34 -22 -56 -22s-40 7 -55 22c-32 30 -46 90 -46 168zM505 405
c0 -98 24 -170 69 -209c24 -21 56 -32 91 -32c36 0 67 11 91 32c45 39 69 111 69 209s-24 170 -69 209c-24 21 -55 32 -91 32c-35 0 -67 -11 -91 -32c-45 -39 -69 -111 -69 -209z" />
    <glyph glyph-name="_437" unicode="&#x3181;" 
d="M182 355c0 -61 26 -112 72 -149c52 -43 131 -67 225 -67s173 24 225 67c46 37 72 88 72 149s-26 112 -72 149c-47 38 -114 61 -194 66v140h-61v-140c-81 -5 -149 -28 -195 -66c-46 -37 -72 -88 -72 -149zM242 355c0 44 19 81 52 109c42 34 106 54 185 54s143 -20 184 -54
c34 -28 53 -65 53 -109s-19 -81 -53 -109c-41 -34 -105 -54 -184 -54s-143 20 -185 54c-33 28 -52 65 -52 109z" />
    <glyph glyph-name="_438" unicode="&#x3182;" 
d="M611 636v-196c0 -125 -65 -191 -143 -215v-53c81 19 148 75 173 140c28 -65 93 -120 173 -140v53c-77 25 -143 91 -143 215v196h-60zM140 357c0 -69 19 -122 55 -155c28 -25 64 -38 107 -38s79 13 106 38c36 33 56 86 56 155c0 68 -20 121 -56 154c-21 19 -46 31 -76 36
v118h-61v-118c-30 -5 -55 -17 -76 -36c-36 -33 -55 -86 -55 -154zM198 357c0 51 12 91 35 115c17 18 40 27 69 27c28 0 51 -9 68 -27c23 -24 35 -64 35 -115c0 -52 -12 -92 -35 -115c-17 -18 -40 -27 -68 -27c-29 0 -52 9 -69 27c-23 23 -35 63 -35 115z" />
    <glyph glyph-name="_439" unicode="&#x3183;" 
d="M140 357c0 -69 19 -122 55 -155c28 -25 64 -38 107 -38s79 13 106 38c36 33 56 86 56 155c0 68 -20 121 -56 154c-21 19 -46 31 -76 36v118h-61v-118c-30 -5 -55 -17 -76 -36c-36 -33 -55 -86 -55 -154zM642 676l-181 -503h360zM198 357c0 51 12 91 35 115
c17 18 40 27 69 27c28 0 51 -9 68 -27c23 -24 35 -64 35 -115c0 -52 -12 -92 -35 -115c-17 -18 -40 -27 -68 -27c-29 0 -52 9 -69 27c-23 23 -35 63 -35 115zM642 529l99 -305h-200z" />
    <glyph glyph-name="_440" unicode="&#x3184;" 
d="M202 402h556v53h-134c15 37 19 94 19 144v87h95v53h-516v-53h97v-231h-117v-53zM379 686h204v-95c0 -47 -3 -99 -19 -136h-185v231zM346 190c0 22 8 42 24 57c23 23 62 35 110 35s87 -12 110 -35c16 -15 24 -35 24 -57c0 -23 -8 -43 -24 -58c-23 -22 -62 -35 -110 -35
s-87 13 -110 35c-16 15 -24 35 -24 58zM285 190c0 -38 16 -71 43 -95c36 -32 90 -49 152 -49s116 17 152 49c27 24 43 57 43 95s-16 70 -43 95c-36 31 -90 49 -152 49s-116 -18 -152 -49c-27 -25 -43 -57 -43 -95z" />
    <glyph glyph-name="_441" unicode="&#x3185;" 
d="M753 308c0 -33 -10 -61 -30 -80c-16 -15 -39 -24 -66 -24s-50 9 -66 24c-20 19 -30 47 -30 80s10 60 30 79c16 16 39 24 66 24s50 -8 66 -24c20 -19 30 -46 30 -79zM822 527v52h-135v106h-62v-106h-122v-52h319zM502 308c0 -52 20 -93 53 -120c27 -22 62 -33 102 -33
s75 11 102 33c33 27 53 68 53 120c0 51 -20 93 -53 119c-27 22 -62 34 -102 34s-75 -12 -102 -34c-33 -26 -53 -68 -53 -119zM207 308c0 33 10 60 30 79c16 16 39 24 66 24s50 -8 66 -24c20 -19 30 -46 30 -79s-10 -61 -30 -80c-16 -15 -39 -24 -66 -24s-50 9 -66 24
c-20 19 -30 47 -30 80zM457 527v52h-122v106h-62v-106h-135v-52h319zM458 308c0 51 -20 93 -53 119c-27 22 -62 34 -102 34s-75 -12 -102 -34c-33 -26 -53 -68 -53 -119c0 -52 20 -93 53 -120c27 -22 62 -33 102 -33s75 11 102 33c33 27 53 68 53 120z" />
    <glyph glyph-name="_442" unicode="&#x3186;" 
d="M192 636v-53h576v53h-576zM668 327c0 -28 -11 -52 -32 -70c-32 -29 -86 -45 -156 -45s-124 16 -156 45c-21 18 -32 42 -32 70s11 51 32 70c32 28 86 45 156 45s124 -17 156 -45c21 -19 32 -42 32 -70zM232 327c0 -45 17 -82 49 -110c44 -38 113 -58 199 -58
s155 20 199 58c32 28 49 65 49 110s-17 82 -49 110c-44 37 -113 58 -199 58s-155 -21 -199 -58c-32 -28 -49 -65 -49 -110z" />
    <glyph glyph-name="_443" unicode="&#x3187;" 
d="M194 426v-330h-146v-52h414c100 0 183 21 232 63v-155h61v322h161v54h-161v196h161v54h-161v260h-61v-679c-48 -40 -126 -62 -217 -63v330h-61v-330h-161v330h-61z" />
    <glyph glyph-name="_444" unicode="&#x3188;" 
d="M833 -48v886h-60v-267h-142v262h-60v-683c-33 -30 -84 -46 -145 -51v326h-60v-329h-110v329h-60v-329h-108v-52h282c88 0 160 18 201 55v-136h60v304h142v-315h60zM631 517h142v-196h-142v196z" />
    <glyph glyph-name="_445" unicode="&#x3189;" 
d="M247 426v-330h-166v-52h407c112 0 204 18 256 63v-156h62v887h-62v-679c-51 -41 -128 -60 -212 -63v330h-62v-330h-162v330h-61z" />
    <glyph glyph-name="_446" unicode="&#x318a;" 
d="M385 343v-392h61v392c80 0 163 9 216 37v52c-67 -30 -166 -35 -249 -35h-348v-54h129v-392h61v392h130zM806 838h-60v-573h-214v-53h214v-97h-214v-52h214v-111h60v886z" />
    <glyph glyph-name="_447" unicode="&#x318b;" 
d="M333 349v-399h61v399c54 2 104 10 140 30v51c-47 -23 -110 -28 -177 -28h-269v-53h95v-399h61v399h89zM595 221v-93h-145v-52h145v-114h60v871h-60v-558h-145v-54h145zM773 838v-887h60v887h-60z" />
    <glyph glyph-name="_448" unicode="&#x318c;" 
d="M463 306v-356h61v356c88 0 176 25 222 63v-418h60v887h-60v-417c-53 -42 -133 -62 -221 -62h-457v-53h165v-356h61v356h169z" />
    <glyph glyph-name="_449" unicode="&#x318d;" 
d="M516 470h-73v-108h73v108z" />
    <glyph glyph-name="_450" unicode="&#x318e;" 
d="M405 470h-73v-108h73v108zM558 -48h62v886h-62v-886z" />
    <glyph glyph-name="_451" unicode="&#x2170;" 
d="M511 3v557h-62v-557h62zM511 681v102h-62v-102h62z" />
    <glyph glyph-name="_452" unicode="&#x2171;" 
d="M371 3v557h-62v-557h62zM371 681v102h-62v-102h62zM651 3v557h-62v-557h62zM651 681v102h-62v-102h62z" />
    <glyph glyph-name="_453" unicode="&#x2172;" 
d="M511 3v557h-62v-557h62zM511 681v102h-62v-102h62zM291 3v557h-62v-557h62zM291 681v102h-62v-102h62zM731 3v557h-62v-557h62zM731 681v102h-62v-102h62z" />
    <glyph glyph-name="_454" unicode="&#x2173;" 
d="M767 561l-176 -488l-177 488h-66l206 -557h73l206 557h-66zM300 4v555h-62v-555h62zM300 680v102h-62v-102h62z" />
    <glyph glyph-name="_455" unicode="&#x2174;" 
d="M515 4l220 555h-67l-188 -482l-189 482h-67l220 -555h71z" />
    <glyph glyph-name="_456" unicode="&#x2175;" 
d="M564 559l-177 -486l-177 486h-66l206 -555h74l206 555h-66zM740 4v555h-62v-555h62zM740 680v102h-62v-102h62z" />
    <glyph glyph-name="_457" unicode="&#x2176;" 
d="M437 559l-140 -485l-140 485h-66l169 -555h74l169 555h-66zM790 4v555h-62v-555h62zM790 680v102h-62v-102h62zM620 4v555h-62v-555h62zM620 680v102h-62v-102h62z" />
    <glyph glyph-name="_458" unicode="&#x2177;" 
d="M343 559l-118 -485l-118 485h-66l147 -555h74l147 555h-66zM520 4v555h-62v-555h62zM520 680v102h-62v-102h62zM690 4v555h-62v-555h62zM690 680v102h-62v-102h62zM860 4v555h-62v-555h62zM860 680v102h-62v-102h62z" />
    <glyph glyph-name="_459" unicode="&#x2178;" 
d="M841 4l-205 287l192 268h-70l-157 -220l-158 220h-69l192 -268l-206 -287h70l171 238l170 -238h70zM300 4v555h-62v-555h62zM300 680v102h-62v-102h62z" />
    <glyph glyph-name="_460" unicode="&#x2179;" 
d="M654 3h70l-206 286l195 271h-70l-163 -227l-163 227h-70l195 -271l-206 -286h70l174 240z" />
    <glyph glyph-name="_461" unicode="&#x2160;" 
d="M582 3v57h-70v666h70v57h-205v-57h70v-666h-70v-57h205z" />
    <glyph glyph-name="_462" unicode="&#x2161;" 
d="M429 3v57h-67v666h67v57h-198v-57h66v-666h-66v-57h198zM729 3v57h-67v666h67v57h-198v-57h66v-666h-66v-57h198z" />
    <glyph glyph-name="_463" unicode="&#x2162;" 
d="M814 3v57h-62v666h62v57h-188v-57h61v-666h-61v-57h188zM574 3v57h-62v666h62v57h-188v-57h61v-666h-61v-57h188zM334 3v57h-62v666h62v57h-188v-57h61v-666h-61v-57h188z" />
    <glyph glyph-name="_464" unicode="&#x2163;" 
d="M325 3v57h-65v666h65v57h-195v-57h65v-666h-65v-57h195zM656 3l217 780h-69l-189 -706l-189 706h-66l215 -780h81z" />
    <glyph glyph-name="_465" unicode="&#x2164;" 
d="M161 782l282 -778h73l281 778h-67l-250 -695l-251 695h-68z" />
    <glyph glyph-name="_466" unicode="&#x2165;" 
d="M833 3v57h-65v666h65v57h-195v-57h65v-666h-65v-57h195zM386 3l217 780h-69l-189 -706l-189 706h-66l215 -780h81z" />
    <glyph glyph-name="_467" unicode="&#x2166;" 
d="M904 3v57h-57v666h57v57h-178v-57h56v-666h-56v-57h178zM684 3v57h-57v666h57v57h-178v-57h56v-666h-56v-57h178zM295 3l181 780h-67l-153 -699l-154 699h-66l180 -780h79z" />
    <glyph glyph-name="_468" unicode="&#x2167;" 
d="M925 3v57h-49v666h49v57h-161v-57h49v-666h-49v-57h161zM735 3v57h-49v666h49v57h-161v-57h49v-666h-49v-57h161zM545 3v57h-49v666h49v57h-161v-57h49v-666h-49v-57h161zM235 3l121 780h-65l-100 -701l-101 701h-64l121 -780h88z" />
    <glyph glyph-name="_469" unicode="&#x2168;" 
d="M304 4v56h-64v666h64v56h-194v-56h65v-666h-65v-56h194zM892 4l-244 396l235 382h-70l-200 -325l-200 325h-70l235 -382l-244 -396h70l209 339l209 -339h70z" />
    <glyph glyph-name="_470" unicode="&#x2169;" 
d="M697 782l-218 -332l-217 332h-71l248 -380l-263 -398h73l230 349l231 -349h72l-263 398l250 380h-72z" />
    <glyph glyph-name="_471" unicode="&#x391;" horiz-adv-x="660" 
d="M79 4l69 193h362l69 -193h68l-282 778h-72l-282 -778h68zM167 254l162 456l161 -456h-323z" />
    <glyph glyph-name="_472" unicode="&#x392;" horiz-adv-x="656" 
d="M147 432v294h202c120 0 175 -50 175 -148c0 -96 -55 -146 -175 -146h-202zM372 3c158 0 239 69 239 212c0 105 -51 174 -150 191c76 17 128 77 128 177c0 127 -75 200 -226 200h-281v-780h290zM546 217c0 -101 -51 -157 -189 -157h-210v315h210c138 0 189 -55 189 -158z
" />
    <glyph glyph-name="_473" unicode="&#x393;" horiz-adv-x="530" 
d="M82 783v-780h65v723h371v57h-436z" />
    <glyph glyph-name="_474" unicode="&#x394;" horiz-adv-x="660" 
d="M647 4l-282 778h-72l-282 -778h636zM560 61h-462l231 649z" />
    <glyph glyph-name="_475" unicode="&#x395;" horiz-adv-x="574" 
d="M82 3h447v57h-382v314h336v57h-336v295h376v57h-441v-780z" />
    <glyph glyph-name="_476" unicode="&#x396;" horiz-adv-x="582" 
d="M47 56v-53h487v57h-410l405 670v53h-471v-57h394z" />
    <glyph glyph-name="_477" unicode="&#x397;" horiz-adv-x="685" 
d="M538 3h65v780h-65v-352h-391v352h-65v-780h65v371h391v-371z" />
    <glyph glyph-name="_478" unicode="&#x398;" horiz-adv-x="702" 
d="M578 393c0 -206 -49 -345 -229 -345c-177 0 -227 139 -227 345s52 345 227 345c178 0 229 -139 229 -345zM58 393c0 -237 71 -402 291 -402c224 0 293 166 293 402c0 231 -67 402 -293 402c-223 0 -291 -170 -291 -402zM227 364h246v56h-246v-56z" />
    <glyph glyph-name="_479" unicode="&#x399;" horiz-adv-x="229" 
d="M147 783h-65v-780h65v780z" />
    <glyph glyph-name="_480" unicode="&#x39a;" horiz-adv-x="616" 
d="M583 783h-74l-260 -352h-102v352h-65v-780h65v371h102l293 -371h76l-316 399z" />
    <glyph glyph-name="_481" unicode="&#x39b;" horiz-adv-x="660" 
d="M580 3h67l-281 780h-73l-282 -780h68l251 708z" />
    <glyph glyph-name="_482" unicode="&#x39c;" horiz-adv-x="918" 
d="M494 3l277 641v-641h65v780h-71l-306 -707l-305 707h-72v-780h65v641l277 -641h70z" />
    <glyph glyph-name="_483" unicode="&#x39d;" horiz-adv-x="696" 
d="M614 3v780h-65v-662l-402 662h-65v-780h65v662l402 -662h65z" />
    <glyph glyph-name="_484" unicode="&#x39e;" horiz-adv-x="607" 
d="M51 726h506v57h-506v-57zM45 3h517v57h-517v-57zM90 374h427v57h-427v-57z" />
    <glyph glyph-name="_485" unicode="&#x39f;" horiz-adv-x="702" 
d="M578 393c0 -206 -49 -345 -229 -345c-177 0 -227 139 -227 345s52 345 227 345c178 0 229 -139 229 -345zM58 393c0 -237 71 -402 291 -402c224 0 293 166 293 402c0 231 -67 402 -293 402c-223 0 -291 -170 -291 -402z" />
    <glyph glyph-name="_486" unicode="&#x3a0;" horiz-adv-x="685" 
d="M538 3h65v780h-521v-780h65v723h391v-723z" />
    <glyph glyph-name="_487" unicode="&#x3a1;" horiz-adv-x="646" 
d="M147 364v362h216c121 0 183 -68 183 -181c0 -112 -62 -181 -183 -181h-216zM368 307c160 0 243 92 243 238s-83 238 -243 238h-286v-780h65v304h221z" />
    <glyph glyph-name="_488" unicode="&#x3a3;" horiz-adv-x="567" 
d="M59 61v-58h468v57h-393l197 333v24l-195 309h391v57h-468v-58l203 -320z" />
    <glyph glyph-name="_489" unicode="&#x3a4;" horiz-adv-x="569" 
d="M18 726h234v-723h65v723h234v57h-533v-57z" />
    <glyph glyph-name="_490" unicode="&#x3a5;" horiz-adv-x="649" 
d="M324 373l-237 410h-69l274 -472v-308h65v308l274 472h-69z" />
    <glyph glyph-name="_491" unicode="&#x3a6;" horiz-adv-x="791" 
d="M749 393c0 186 -132 267 -322 271v118h-64v-118c-189 -4 -321 -85 -321 -271c0 -187 132 -268 321 -272v-117h64v117c190 4 322 85 322 272zM684 393c0 -151 -106 -212 -257 -217v433c151 -5 257 -66 257 -216zM363 176c-151 5 -257 66 -257 217c0 150 106 211 257 216
v-433z" />
    <glyph glyph-name="_492" unicode="&#x3a7;" horiz-adv-x="648" 
d="M541 782l-218 -332l-217 332h-71l248 -380l-263 -398h73l230 349l231 -349h72l-263 398l250 380h-72z" />
    <glyph glyph-name="_493" unicode="&#x3a8;" horiz-adv-x="753" 
d="M408 4v169c178 11 272 126 272 295v314h-64v-307c0 -149 -71 -235 -208 -245v552h-65v-552c-137 10 -207 96 -207 245v307h-65v-314c0 -169 93 -284 272 -295v-169h65z" />
    <glyph glyph-name="_494" unicode="&#x3a9;" horiz-adv-x="702" 
d="M351 796c-97 0 -168 -32 -215 -92c-57 -72 -77 -177 -77 -305c0 -167 43 -295 153 -339h-133v-57h221v57c-138 38 -177 167 -177 333c0 124 17 216 64 278c37 44 93 68 164 68s127 -24 162 -68c49 -62 66 -154 66 -278c0 -166 -40 -295 -177 -333v-57h221v57h-134
c111 44 154 172 154 339c0 128 -21 233 -78 305c-47 60 -117 92 -214 92z" />
    <glyph glyph-name="_495" unicode="&#x3b1;" horiz-adv-x="598" 
d="M520 559h-62v-102c-26 72 -88 115 -182 115c-149 0 -227 -101 -227 -291s78 -290 227 -290c94 0 156 44 182 115c0 -69 19 -110 88 -110c9 0 23 1 32 2v51h-16c-32 0 -42 11 -42 49v461zM458 281c0 -151 -50 -238 -174 -238s-173 87 -173 238s49 239 173 239
s174 -88 174 -239z" />
    <glyph glyph-name="_496" unicode="&#x3b2;" horiz-adv-x="600" 
d="M526 578c0 127 -81 218 -228 218s-228 -90 -228 -221v-813h63v338c31 -72 98 -110 190 -110c149 0 236 89 236 222c0 114 -68 184 -165 201c85 20 132 85 132 165zM464 576c0 -74 -49 -137 -153 -137h-33v-52h33c120 0 186 -75 186 -172c0 -103 -65 -172 -182 -172
c-119 0 -182 76 -182 183v346c0 105 61 171 165 171c103 0 166 -63 166 -167z" />
    <glyph glyph-name="_497" unicode="&#x3b3;" horiz-adv-x="550" 
d="M306 -238v238l224 560h-67l-188 -480l-188 480h-67l224 -559v-239h62z" />
    <glyph glyph-name="_498" unicode="&#x3b4;" horiz-adv-x="569" 
d="M102 782v-53l202 -165c-9 3 -22 5 -35 5c-148 0 -220 -113 -220 -288c0 -183 75 -290 235 -290s235 107 235 290c0 116 -30 198 -90 248l-240 200h289v53h-376zM457 281c0 -151 -50 -238 -173 -238c-124 0 -174 87 -174 238s50 239 174 239c123 0 173 -88 173 -239z" />
    <glyph glyph-name="_499" unicode="&#x3b5;" horiz-adv-x="523" 
d="M266 313c-96 0 -144 44 -144 104c0 61 50 104 144 104c95 0 145 -43 145 -104v-11h62v11c0 88 -71 156 -207 156s-206 -68 -206 -154c0 -66 44 -118 116 -132c-77 -13 -129 -63 -129 -139c0 -97 84 -158 223 -158c138 0 222 65 222 163v4h-62v-3
c0 -70 -65 -111 -160 -111c-96 0 -161 37 -161 108s65 110 161 110h68v52h-72z" />
    <glyph glyph-name="_500" unicode="&#x3b6;" horiz-adv-x="483" 
d="M410 39c-222 0 -303 65 -303 190c0 189 135 383 341 499v55h-346v-53h266c-185 -107 -323 -306 -323 -504c0 -148 99 -238 342 -236c-4 -46 -28 -104 -64 -165l48 -14c47 69 77 145 77 196c0 25 -8 32 -38 32z" />
    <glyph glyph-name="_501" unicode="&#x3b7;" horiz-adv-x="588" 
d="M132 3v259c2 165 67 259 182 259c95 0 143 -73 143 -196v-563h62v585c0 144 -69 226 -192 226c-98 0 -167 -54 -195 -144v131h-62v-557h62z" />
    <glyph glyph-name="_502" unicode="&#x3b8;" horiz-adv-x="623" 
d="M565 393c0 311 -93 402 -254 402c-163 0 -255 -94 -255 -402c0 -312 94 -402 255 -402c160 0 254 88 254 402zM119 418c4 219 56 325 192 325s188 -106 192 -325h-384zM503 368c-4 -219 -56 -325 -192 -325s-188 106 -192 325h384z" />
    <glyph glyph-name="_503" unicode="&#x3b9;" horiz-adv-x="222" 
d="M133 560h-63v-469c0 -68 24 -96 89 -96c10 0 23 1 33 2v51h-16c-34 0 -43 12 -43 50v462z" />
    <glyph glyph-name="_504" unicode="&#x3ba;" horiz-adv-x="501" 
d="M133 3v265h71l217 -265h74l-238 291l213 266h-72l-194 -240h-71v240h-63v-557h63z" />
    <glyph glyph-name="_505" unicode="&#x3bb;" horiz-adv-x="527" 
d="M232 555l-224 -552h66l190 473l189 -473h66l-278 689c-35 88 -74 104 -144 104c-12 0 -20 0 -29 -1v-52h24c45 0 71 -12 93 -70z" />
    <glyph glyph-name="_506" unicode="&#x3bc;" horiz-adv-x="590" 
d="M274 -10c90 0 155 49 184 132v-119h61v557h-61v-286c-2 -147 -81 -231 -182 -231c-93 0 -143 61 -143 173v344h-63v-798h63v318c22 -58 72 -90 141 -90z" />
    <glyph glyph-name="_507" unicode="&#x3bd;" horiz-adv-x="550" 
d="M239 4h71l220 555h-67l-188 -482l-189 482h-66z" />
    <glyph glyph-name="_508" unicode="&#x3be;" horiz-adv-x="507" 
d="M470 7c0 25 -7 32 -38 32c-208 2 -325 72 -325 199c0 114 95 199 193 199h69v52h-96c-75 0 -131 49 -131 127c0 79 49 127 136 127c85 0 132 -46 137 -113h62c-4 89 -66 166 -199 166s-198 -79 -198 -176c0 -89 57 -146 134 -161c-98 -34 -169 -114 -169 -227
c0 -152 139 -242 365 -242c-5 -46 -29 -104 -64 -165l47 -14c47 69 77 145 77 196z" />
    <glyph glyph-name="_509" unicode="&#x3bf;" horiz-adv-x="569" 
d="M520 282c0 183 -75 291 -236 291c-160 0 -235 -108 -235 -291s75 -292 235 -292c161 0 236 109 236 292zM458 282c0 -152 -50 -239 -174 -239s-173 87 -173 239c0 150 49 239 173 239s174 -89 174 -239z" />
    <glyph glyph-name="_510" unicode="&#x3c0;" horiz-adv-x="589" 
d="M178 508h232v-505h62v505h91v52h-537v-52h90v-505h62v505z" />
    <glyph glyph-name="_511" unicode="&#x3c1;" horiz-adv-x="579" 
d="M58 -238h62v343c25 -70 88 -114 181 -114c150 0 228 101 228 290c0 183 -75 291 -236 291c-160 0 -235 -108 -235 -291v-519zM467 281c0 -151 -50 -238 -174 -238c-123 0 -173 87 -173 238s50 239 173 239c124 0 174 -88 174 -239z" />
    <glyph glyph-name="_512" unicode="&#x3c3;" horiz-adv-x="575" 
d="M284 -10c160 0 236 110 236 285c0 119 -39 204 -113 233h142v52h-265c-159 0 -235 -110 -235 -285s76 -285 235 -285zM458 275c0 -142 -51 -232 -174 -232c-122 0 -173 90 -173 232c0 143 51 233 173 233c123 0 174 -90 174 -233z" />
    <glyph glyph-name="_513" unicode="&#x3c4;" horiz-adv-x="489" 
d="M466 560h-446v-52h185v-392c0 -86 28 -121 114 -121c14 0 32 1 42 3v50h-32c-44 0 -62 15 -62 67v393h199v52z" />
    <glyph glyph-name="_514" unicode="&#x3c5;" horiz-adv-x="576" 
d="M288 -10c140 0 224 75 224 229v341h-63v-340c0 -125 -60 -177 -161 -177s-161 52 -161 177v340h-63v-341c0 -154 84 -229 224 -229z" />
    <glyph glyph-name="_515" unicode="&#x3c6;" horiz-adv-x="758" 
d="M648 275c0 -167 -63 -231 -238 -232v465c175 -3 238 -65 238 -233zM709 275c0 191 -83 284 -302 285h-59v-517c-175 1 -237 65 -237 232c0 139 44 197 131 220l-10 53c-129 -31 -184 -115 -184 -273c0 -190 80 -282 300 -285v-228h62v228c220 3 299 95 299 285z" />
    <glyph glyph-name="_516" unicode="&#x3c7;" horiz-adv-x="536" 
d="M451 559l-183 -335l-184 335h-66l213 -389l-224 -408h66l195 353l194 -353h67l-224 408l213 389h-67z" />
    <glyph glyph-name="_517" unicode="&#x3c8;" horiz-adv-x="721" 
d="M390 -238v230c162 7 266 89 266 238v329h-62v-328c0 -121 -83 -181 -204 -186v514h-61v-514c-121 5 -203 65 -203 186v328h-62v-329c0 -149 104 -231 265 -238v-230h61z" />
    <glyph glyph-name="_518" unicode="&#x3c9;" horiz-adv-x="825" 
d="M412 113c19 -78 80 -122 165 -122c114 0 194 71 194 272c0 93 -19 194 -57 296h-63c37 -100 58 -205 58 -293c0 -163 -52 -223 -137 -223c-78 0 -129 55 -129 188v219h-62v-219c0 -133 -51 -188 -130 -188c-84 0 -136 60 -136 223c0 88 21 193 58 293h-62
c-38 -102 -58 -203 -58 -296c0 -201 80 -272 194 -272c85 0 146 44 165 122z" />
    <glyph glyph-name="_519" unicode="&#x2500;" 
d="M960 417h-960v-59h960v59z" />
    <glyph glyph-name="_520" unicode="&#x2502;" 
d="M451 888v-1000h59v1000h-59z" />
    <glyph glyph-name="_521" unicode="&#x250c;" 
d="M451 -112h59v470h450v59h-509v-529z" />
    <glyph glyph-name="_522" unicode="&#x2510;" 
d="M510 417h-510v-59h451v-470h59v529z" />
    <glyph glyph-name="_523" unicode="&#x2518;" 
d="M510 888h-59v-471h-451v-59h510v530z" />
    <glyph glyph-name="_524" unicode="&#x2514;" 
d="M451 358h509v59h-450v471h-59v-530z" />
    <glyph glyph-name="_525" unicode="&#x251c;" 
d="M451 888v-1000h59v470h450v59h-450v471h-59z" />
    <glyph glyph-name="_526" unicode="&#x252c;" 
d="M960 417h-960v-59h451v-470h59v470h450v59z" />
    <glyph glyph-name="_527" unicode="&#x2524;" 
d="M510 888h-59v-471h-451v-59h451v-470h59v1000z" />
    <glyph glyph-name="_528" unicode="&#x2534;" 
d="M960 358v59h-450v471h-59v-471h-451v-59h960z" />
    <glyph glyph-name="_529" unicode="&#x253c;" 
d="M451 888v-471h-451v-59h451v-470h59v470h450v59h-450v471h-59z" />
    <glyph glyph-name="_530" unicode="&#x2501;" 
d="M0 435v-94h960v94h-960z" />
    <glyph glyph-name="_531" unicode="&#x2503;" 
d="M433 888v-1000h94v1000h-94z" />
    <glyph glyph-name="_532" unicode="&#x250f;" 
d="M433 435v-547h94v453h433v94h-527z" />
    <glyph glyph-name="_533" unicode="&#x2513;" 
d="M0 435v-94h433v-453h94v547h-527z" />
    <glyph glyph-name="_534" unicode="&#x251b;" 
d="M433 888v-453h-433v-94h527v547h-94z" />
    <glyph glyph-name="_535" unicode="&#x2517;" 
d="M433 888v-547h527v94h-433v453h-94z" />
    <glyph glyph-name="_536" unicode="&#x2523;" 
d="M433 888v-1000h94v453h433v94h-433v453h-94z" />
    <glyph glyph-name="_537" unicode="&#x2533;" 
d="M0 341h433v-453h94v453h433v94h-960v-94z" />
    <glyph glyph-name="_538" unicode="&#x252b;" 
d="M0 341h433v-453h94v1000h-94v-453h-433v-94z" />
    <glyph glyph-name="_539" unicode="&#x253b;" 
d="M433 435h-433v-94h960v94h-433v453h-94v-453z" />
    <glyph glyph-name="_540" unicode="&#x254b;" 
d="M433 435h-433v-94h433v-453h94v453h433v94h-433v453h-94v-453z" />
    <glyph glyph-name="_541" unicode="&#x2520;" 
d="M960 405h-433v483h-94v-1000h94v481h433v36z" />
    <glyph glyph-name="_542" unicode="&#x252f;" 
d="M960 435h-960v-94h461v-453h37v453h462v94z" />
    <glyph glyph-name="_543" unicode="&#x2528;" 
d="M527 -112v1000h-94v-483h-433v-36h433v-481h94z" />
    <glyph glyph-name="_544" unicode="&#x2537;" 
d="M461 435h-461v-94h960v94h-462v453h-37v-453z" />
    <glyph glyph-name="_545" unicode="&#x253f;" 
d="M461 435h-461v-94h461v-453h37v453h462v94h-462v453h-37v-453z" />
    <glyph glyph-name="_546" unicode="&#x251d;" 
d="M960 435h-462v453h-37v-1000h37v453h462v94z" />
    <glyph glyph-name="_547" unicode="&#x2530;" 
d="M960 405h-960v-36h433v-481h94v481h433v36z" />
    <glyph glyph-name="_548" unicode="&#x2525;" 
d="M461 435h-461v-94h461v-453h37v1000h-37v-453z" />
    <glyph glyph-name="_549" unicode="&#x2538;" 
d="M433 405h-433v-36h960v36h-433v483h-94v-483z" />
    <glyph glyph-name="_550" unicode="&#x2542;" 
d="M433 405h-433v-36h433v-481h94v481h433v36h-433v483h-94v-483z" />
    <glyph glyph-name="_551" unicode="&#x2512;" 
d="M433 369v-481h94v517h-527v-36h433z" />
    <glyph glyph-name="_552" unicode="&#x2511;" 
d="M461 341v-453h37v547h-498v-94h461z" />
    <glyph glyph-name="_553" unicode="&#x251a;" 
d="M433 405h-433v-36h527v519h-94v-483z" />
    <glyph glyph-name="_554" unicode="&#x2519;" 
d="M461 435h-461v-94h498v547h-37v-453z" />
    <glyph glyph-name="_555" unicode="&#x2516;" 
d="M527 405v483h-94v-519h527v36h-433z" />
    <glyph glyph-name="_556" unicode="&#x2515;" 
d="M498 435v453h-37v-547h499v94h-462z" />
    <glyph glyph-name="_557" unicode="&#x250e;" 
d="M527 369h433v36h-527v-517h94v481z" />
    <glyph glyph-name="_558" unicode="&#x250d;" 
d="M461 435v-547h37v453h462v94h-499z" />
    <glyph glyph-name="_559" unicode="&#x251e;" 
d="M433 888v-519h28v-481h37v481h462v36h-433v483h-94z" />
    <glyph glyph-name="_560" unicode="&#x251f;" 
d="M461 888v-483h-28v-517h94v481h433v36h-462v483h-37z" />
    <glyph glyph-name="_561" unicode="&#x2521;" 
d="M461 -112h37v453h462v94h-433v453h-94v-547h28v-453z" />
    <glyph glyph-name="_562" unicode="&#x2522;" 
d="M433 -112h94v453h433v94h-462v453h-37v-453h-28v-547z" />
    <glyph glyph-name="_563" unicode="&#x2526;" 
d="M433 888v-483h-433v-36h461v-481h37v481h29v519h-94z" />
    <glyph glyph-name="_564" unicode="&#x2527;" 
d="M0 405v-36h433v-481h94v517h-29v483h-37v-483h-461z" />
    <glyph glyph-name="_565" unicode="&#x2529;" 
d="M0 341h461v-453h37v453h29v547h-94v-453h-433v-94z" />
    <glyph glyph-name="_566" unicode="&#x252a;" 
d="M0 341h433v-453h94v547h-29v453h-37v-453h-461v-94z" />
    <glyph glyph-name="_567" unicode="&#x252d;" 
d="M0 341h461v-453h37v481h462v36h-462v30h-498v-94z" />
    <glyph glyph-name="_568" unicode="&#x252e;" 
d="M0 369h461v-481h37v453h462v94h-499v-30h-461v-36z" />
    <glyph glyph-name="_569" unicode="&#x2531;" 
d="M0 341h433v-453h94v481h433v36h-433v30h-527v-94z" />
    <glyph glyph-name="_570" unicode="&#x2532;" 
d="M0 369h433v-481h94v453h433v94h-527v-30h-433v-36z" />
    <glyph glyph-name="_571" unicode="&#x2535;" 
d="M0 341h498v28h462v36h-462v483h-37v-453h-461v-94z" />
    <glyph glyph-name="_572" unicode="&#x2536;" 
d="M0 369h461v-28h499v94h-462v453h-37v-483h-461v-36z" />
    <glyph glyph-name="_573" unicode="&#x2539;" 
d="M0 341h527v28h433v36h-433v483h-94v-453h-433v-94z" />
    <glyph glyph-name="_574" unicode="&#x253a;" 
d="M0 369h433v-28h527v94h-433v453h-94v-483h-433v-36z" />
    <glyph glyph-name="_575" unicode="&#x253d;" 
d="M0 341h461v-453h37v481h462v36h-462v483h-37v-453h-461v-94z" />
    <glyph glyph-name="_576" unicode="&#x253e;" 
d="M498 888h-37v-483h-461v-36h461v-481h37v453h462v94h-462v453z" />
    <glyph glyph-name="_577" unicode="&#x2540;" 
d="M527 888h-94v-483h-433v-36h461v-481h37v481h462v36h-433v483z" />
    <glyph glyph-name="_578" unicode="&#x2541;" 
d="M498 888h-37v-483h-461v-36h433v-481h94v481h433v36h-462v483z" />
    <glyph glyph-name="_579" unicode="&#x2543;" 
d="M527 888h-94v-453h-433v-94h461v-453h37v453h29v28h433v36h-433v483z" />
    <glyph glyph-name="_580" unicode="&#x2544;" 
d="M498 -112v453h462v94h-433v453h-94v-483h-433v-36h433v-28h28v-453h37z" />
    <glyph glyph-name="_581" unicode="&#x2545;" 
d="M498 888h-37v-453h-461v-94h433v-453h94v481h433v36h-433v30h-29v453z" />
    <glyph glyph-name="_582" unicode="&#x2546;" 
d="M498 888h-37v-453h-28v-30h-433v-36h433v-481h94v452h433v95h-462v453z" />
    <glyph glyph-name="_583" unicode="&#x2547;" 
d="M527 888h-94v-453h-433v-94h461v-453h37v453h462v94h-433v453z" />
    <glyph glyph-name="_584" unicode="&#x2548;" 
d="M498 888h-37v-453h-461v-94h433v-453h94v453h433v94h-462v453z" />
    <glyph glyph-name="_585" unicode="&#x2549;" 
d="M527 888h-94v-453h-433v-94h433v-453h94v481h433v36h-433v483z" />
    <glyph glyph-name="_586" unicode="&#x254a;" 
d="M527 888h-94v-483h-433v-36h433v-481h94v453h433v94h-433v453z" />
    <glyph glyph-name="_587" unicode="&#x3395;" 
d="M160 559h-64v-797h64v290c20 -39 56 -61 101 -61c61 0 109 37 134 97v-84h63v555h-63v-285c0 -148 -58 -231 -132 -231c-67 0 -103 60 -103 172v344zM731 45c-55 0 -89 47 -96 143c161 78 237 214 237 391v9c0 131 -53 207 -149 207c-97 0 -150 -76 -150 -207v-367
c-20 -8 -46 -17 -70 -25l17 -53c19 6 38 12 55 19c14 -106 71 -171 156 -171s139 56 153 160l-61 14c-10 -82 -44 -120 -92 -120zM723 741c55 0 87 -51 87 -152v-10c0 -140 -51 -254 -174 -326v336c0 101 31 152 87 152z" />
    <glyph glyph-name="_588" unicode="&#x3396;" 
d="M463 4h63v366c0 131 -41 202 -119 202c-50 0 -85 -33 -105 -90c-17 59 -53 90 -102 90c-39 0 -70 -28 -88 -73v60h-63v-555h63v279c0 154 33 237 80 237c43 0 63 -50 63 -150v-366h64v278c0 155 33 238 81 238c42 0 63 -50 63 -150v-366zM778 45c-50 0 -80 46 -86 143
c145 78 220 215 220 391v9c0 131 -50 207 -141 207c-93 0 -143 -76 -143 -207v-368c-19 -9 -42 -18 -65 -24l16 -54c18 5 38 13 52 19c12 -107 65 -170 147 -170c81 0 132 55 145 159l-61 16c-10 -83 -41 -121 -84 -121zM771 741c49 0 79 -51 79 -152v-10
c0 -136 -51 -250 -158 -320v330c0 101 28 152 79 152z" />
    <glyph glyph-name="_589" unicode="&#x3397;" 
d="M88 281c0 -190 62 -290 177 -290c60 0 104 28 128 78v-65h62v778h-62v-289c-24 50 -68 79 -128 79c-115 0 -177 -101 -177 -291zM393 281c0 -151 -35 -238 -122 -238s-121 87 -121 238s34 239 121 239s122 -88 122 -239zM735 45c-55 0 -89 47 -96 143
c160 78 237 214 237 391v9c0 131 -53 207 -149 207c-98 0 -150 -76 -150 -207v-367c-20 -8 -46 -17 -71 -25l18 -53c18 6 38 12 55 19c14 -106 71 -171 156 -171s139 56 153 160l-62 14c-9 -82 -44 -120 -91 -120zM727 741c55 0 87 -51 87 -152v-10
c0 -140 -51 -254 -175 -326v336c0 101 32 152 88 152z" />
    <glyph glyph-name="_590" unicode="&#x2113;" horiz-adv-x="534" 
d="M17 197l21 -51c26 6 51 12 74 20c17 -118 88 -175 192 -175c101 0 170 56 189 161l-61 12c-13 -82 -62 -120 -128 -120c-74 0 -121 44 -131 143c202 78 305 207 305 392v9c0 131 -65 206 -185 206s-185 -75 -185 -206v-314c0 -18 0 -35 1 -52c-29 -9 -59 -17 -92 -25z
M170 589c0 100 43 152 123 152c78 0 123 -52 123 -152v-10c0 -151 -81 -262 -245 -333c-1 16 -1 33 -1 50v293z" />
    <glyph glyph-name="_591" unicode="&#x3398;" 
d="M191 4v263h50l174 -263h70l-189 289l170 266h-69l-155 -239h-51v462h-63v-778h63zM723 45c-56 0 -90 47 -97 143c161 78 237 214 237 391v9c0 131 -53 207 -149 207c-97 0 -150 -76 -150 -207v-367c-21 -9 -48 -18 -74 -26l18 -53c20 6 41 13 58 20
c14 -106 71 -171 157 -171c84 0 138 56 152 160l-61 14c-10 -82 -44 -120 -91 -120zM714 741c55 0 87 -51 87 -152v-10c0 -140 -51 -254 -174 -326v336c0 101 31 152 87 152z" />
    <glyph glyph-name="_592" unicode="&#x33c4;" 
d="M71 282c0 -183 62 -292 195 -292c110 0 175 70 187 190h-63c-9 -86 -52 -137 -124 -137c-93 0 -132 87 -132 239c0 150 39 239 132 239c72 0 115 -52 124 -138h63c-12 120 -77 190 -187 190c-133 0 -195 -108 -195 -291zM511 282c0 -183 62 -292 195 -292
c111 0 176 70 188 190h-64c-9 -86 -52 -137 -124 -137c-93 0 -132 87 -132 239c0 150 39 239 132 239c72 0 115 -52 124 -138h64c-12 120 -77 190 -188 190c-133 0 -195 -108 -195 -291z" />
    <glyph glyph-name="_593" unicode="&#x33a3;" 
d="M886 677c0 -25 -14 -38 -39 -38c-22 0 -39 16 -39 49h-42c0 -54 33 -84 81 -84c49 0 81 28 81 73c0 28 -11 49 -30 58c15 10 24 30 24 51c0 38 -28 69 -75 69c-46 0 -74 -30 -74 -67v-12h42c0 25 9 43 32 43c21 0 32 -15 32 -34c0 -17 -8 -34 -29 -34h-36v-35h35
c24 0 37 -14 37 -39zM387 4h60v366c0 137 -35 200 -95 200c-45 0 -77 -30 -94 -76c-14 50 -43 78 -84 78c-32 0 -59 -27 -72 -64v51h-56v-555h60v279c0 161 23 237 62 237c34 0 48 -50 48 -150v-366h60v278c0 161 24 238 63 238c35 0 48 -50 48 -150v-366zM854 4h60v366
c0 144 -35 202 -102 202c-42 0 -71 -31 -87 -78c-14 50 -44 78 -85 78c-31 0 -57 -28 -71 -64v51h-57v-555h60v279c0 161 24 237 62 237c34 0 49 -50 49 -150v-366h60v278c0 161 24 238 62 238c35 0 49 -50 49 -150v-366z" />
    <glyph glyph-name="_594" unicode="&#x33a4;" 
d="M36 281c0 -183 55 -290 178 -290c102 0 160 70 171 188h-63c-9 -85 -45 -136 -108 -136c-82 0 -115 87 -115 238s33 239 115 239c63 0 99 -52 108 -137h63c-11 120 -69 189 -171 189c-123 0 -178 -108 -178 -291zM886 677c0 -25 -14 -38 -39 -38c-22 0 -39 16 -39 49h-42
c0 -54 33 -84 81 -84c49 0 81 28 81 73c0 28 -11 49 -30 58c15 10 24 30 24 51c0 38 -28 69 -75 69c-46 0 -74 -30 -74 -67v-12h42c0 25 9 43 32 43c21 0 32 -15 32 -34c0 -17 -8 -34 -29 -34h-36v-35h35c24 0 37 -14 37 -39zM848 4h63v366c0 131 -39 202 -118 202
c-50 0 -85 -33 -104 -88c-17 57 -53 88 -101 88c-38 0 -70 -28 -89 -73v60h-60v-555h63v286c0 154 33 230 80 230c41 0 62 -50 62 -150v-366h62v278c0 155 34 238 80 238c41 0 62 -50 62 -150v-366z" />
    <glyph glyph-name="_595" unicode="&#x33a5;" 
d="M787 4h63v366c0 131 -65 202 -179 202c-94 0 -155 -52 -182 -136c-18 90 -80 136 -169 136c-86 0 -145 -48 -171 -130v117h-62v-555h62v279c0 154 69 237 159 237c83 0 130 -50 130 -150v-366h61v278c0 155 70 238 159 238c84 0 129 -50 129 -150v-366zM886 677
c0 -25 -14 -38 -39 -38c-22 0 -39 16 -39 49h-42c0 -54 33 -84 81 -84c49 0 81 28 81 73c0 28 -11 49 -30 58c15 10 24 30 24 51c0 38 -28 69 -75 69c-46 0 -74 -30 -74 -67v-12h42c0 25 9 43 32 43c21 0 32 -15 32 -34c0 -17 -8 -34 -29 -34h-36v-35h35c24 0 37 -14 37 -39
z" />
    <glyph glyph-name="_596" unicode="&#x33a6;" 
d="M109 4v263h44l183 -263h70l-198 289l178 266h-69l-163 -239h-45v462h-63v-778h63zM886 677c0 -25 -14 -38 -39 -38c-22 0 -39 16 -39 49h-42c0 -54 33 -84 81 -84c49 0 81 28 81 73c0 28 -11 49 -30 58c15 10 24 30 24 51c0 38 -28 69 -75 69c-46 0 -74 -30 -74 -67v-12
h42c0 25 9 43 32 43c21 0 32 -15 32 -34c0 -17 -8 -34 -29 -34h-36v-35h35c24 0 37 -14 37 -39zM843 4h63v366c0 131 -41 202 -118 202c-51 0 -86 -33 -106 -90c-17 59 -52 90 -102 90c-38 0 -69 -28 -87 -73v60h-64v-555h64v279c0 154 33 237 80 237c42 0 63 -50 63 -150
v-366h64v278c0 155 32 238 80 238c42 0 63 -50 63 -150v-366z" />
    <glyph glyph-name="_597" unicode="&#x3399;" 
d="M819 4h63v366c0 131 -41 202 -119 202c-51 0 -85 -33 -105 -90c-17 59 -53 90 -102 90c-39 0 -70 -28 -88 -73v60h-64v-555h64v279c0 154 33 237 80 237c42 0 63 -50 63 -150v-366h64v278c0 155 33 238 81 238c42 0 63 -50 63 -150v-366zM347 738v49c-19 2 -38 3 -56 3
c-120 0 -166 -38 -166 -156v-75h-83v-52h83v-503h63v503h159v52h-159v71c0 82 23 108 108 108h51z" />
    <glyph glyph-name="_598" unicode="&#x339a;" 
d="M112 4v284c0 148 47 232 105 232c55 0 81 -58 81 -186v-330h63v343c0 149 -45 225 -135 225c-53 0 -92 -28 -114 -80v67h-63v-555h63zM849 4h63v366c0 131 -39 202 -118 202c-50 0 -85 -33 -104 -88c-17 57 -53 88 -101 88c-38 0 -70 -28 -89 -73v60h-60v-555h63v286
c0 154 33 230 80 230c41 0 62 -50 62 -150v-366h62v278c0 155 34 238 80 238c41 0 62 -50 62 -150v-366z" />
    <glyph glyph-name="_599" unicode="&#x339b;" 
d="M111 559h-63v-797h63v276c16 -31 45 -47 79 -47c47 0 85 30 106 81v-68h63v555h-63v-292c0 -148 -46 -224 -106 -224c-51 0 -79 54 -79 166v350zM849 4h63v366c0 131 -39 202 -118 202c-50 0 -85 -33 -104 -88c-17 57 -53 88 -101 88c-38 0 -70 -28 -89 -73v60h-60v-555
h63v286c0 154 33 230 80 230c41 0 62 -50 62 -150v-366h62v278c0 155 34 238 80 238c41 0 62 -50 62 -150v-366z" />
    <glyph glyph-name="_600" unicode="&#x339c;" 
d="M385 4h61v366c0 137 -35 200 -95 200c-47 0 -77 -30 -94 -76c-14 50 -44 78 -85 78c-31 0 -58 -27 -71 -64v51h-57v-555h60v279c0 161 24 237 63 237c33 0 48 -50 48 -150v-366h60v278c0 161 24 238 63 238c34 0 47 -50 47 -150v-366zM855 4h60v366
c0 144 -35 202 -102 202c-41 0 -71 -31 -87 -78c-14 50 -44 78 -84 78c-32 0 -58 -28 -72 -64v51h-56v-555h59v279c0 161 24 237 62 237c35 0 49 -50 49 -150v-366h60v278c0 161 24 238 63 238c34 0 48 -50 48 -150v-366z" />
    <glyph glyph-name="_601" unicode="&#x339d;" 
d="M37 281c0 -183 55 -290 178 -290c102 0 160 70 171 188h-63c-9 -85 -45 -136 -108 -136c-82 0 -115 87 -115 238s33 239 115 239c63 0 99 -52 108 -137h63c-11 120 -69 189 -171 189c-123 0 -178 -108 -178 -291zM849 4h63v366c0 131 -39 202 -118 202
c-50 0 -85 -33 -104 -88c-17 57 -53 88 -101 88c-38 0 -70 -28 -89 -73v60h-60v-555h63v286c0 154 33 230 80 230c41 0 62 -50 62 -150v-366h62v278c0 155 34 238 80 238c41 0 62 -50 62 -150v-366z" />
    <glyph glyph-name="_602" unicode="&#x339e;" 
d="M114 4v263h44l183 -263h70l-198 289l177 266h-68l-163 -239h-45v462h-63v-778h63zM848 4h63v366c0 131 -41 202 -118 202c-51 0 -86 -33 -106 -90c-17 59 -52 90 -102 90c-39 0 -70 -28 -88 -73v60h-63v-555h63v279c0 154 33 237 81 237c42 0 62 -50 62 -150v-366h64v278
c0 155 33 238 81 238c42 0 63 -50 63 -150v-366z" />
    <glyph glyph-name="_603" unicode="&#x339f;" 
d="M923 780c0 40 -27 76 -77 76c-52 0 -78 -36 -78 -76v-16h42v16c0 23 13 40 36 40c22 0 35 -17 35 -40c0 -12 -7 -29 -22 -46l-88 -99v-26h156v35h-97l61 69c19 22 32 45 32 67zM387 4h60v366c0 137 -35 200 -95 200c-45 0 -77 -30 -94 -76c-14 50 -43 78 -84 78
c-32 0 -59 -27 -72 -64v51h-56v-555h60v279c0 161 23 237 62 237c34 0 48 -50 48 -150v-366h60v278c0 161 24 238 63 238c35 0 48 -50 48 -150v-366zM854 4h60v366c0 144 -35 202 -102 202c-42 0 -71 -31 -87 -78c-14 50 -44 78 -85 78c-31 0 -57 -28 -71 -64v51h-57v-555
h60v279c0 161 24 237 62 237c34 0 49 -50 49 -150v-366h60v278c0 161 24 238 62 238c35 0 49 -50 49 -150v-366z" />
    <glyph glyph-name="_604" unicode="&#x33a0;" 
d="M36 281c0 -183 55 -290 178 -290c102 0 160 70 171 188h-63c-9 -85 -45 -136 -108 -136c-82 0 -115 87 -115 238s33 239 115 239c63 0 99 -52 108 -137h63c-11 120 -69 189 -171 189c-123 0 -178 -108 -178 -291zM848 4h63v366c0 131 -39 202 -118 202
c-50 0 -85 -33 -104 -88c-17 57 -53 88 -101 88c-38 0 -70 -28 -89 -73v60h-60v-555h63v286c0 154 33 230 80 230c41 0 62 -50 62 -150v-366h62v278c0 155 34 238 80 238c41 0 62 -50 62 -150v-366zM923 780c0 40 -27 76 -77 76c-52 0 -78 -36 -78 -76v-16h42v16
c0 23 13 40 36 40c22 0 35 -17 35 -40c0 -12 -7 -29 -22 -46l-88 -99v-26h156v35h-97l61 69c19 22 32 45 32 67z" />
    <glyph glyph-name="_605" unicode="&#x33a1;" 
d="M787 4h63v366c0 131 -65 202 -179 202c-94 0 -155 -52 -182 -136c-18 90 -80 136 -169 136c-86 0 -145 -48 -171 -130v117h-62v-555h62v279c0 154 69 237 159 237c83 0 130 -50 130 -150v-366h61v278c0 155 70 238 159 238c84 0 129 -50 129 -150v-366zM923 780
c0 40 -27 76 -77 76c-52 0 -78 -36 -78 -76v-16h42v16c0 23 13 40 36 40c22 0 35 -17 35 -40c0 -12 -7 -29 -22 -46l-88 -99v-26h156v35h-97l61 69c19 22 32 45 32 67z" />
    <glyph glyph-name="_606" unicode="&#x33a2;" 
d="M109 4v263h44l183 -263h70l-198 289l178 266h-69l-163 -239h-45v462h-63v-778h63zM843 4h63v366c0 131 -41 202 -118 202c-51 0 -86 -33 -106 -90c-17 59 -52 90 -102 90c-38 0 -69 -28 -87 -73v60h-64v-555h64v279c0 154 33 237 80 237c42 0 63 -50 63 -150v-366h64v278
c0 155 32 238 80 238c42 0 63 -50 63 -150v-366zM923 780c0 40 -27 76 -77 76c-52 0 -78 -36 -78 -76v-16h42v16c0 23 13 40 36 40c22 0 35 -17 35 -40c0 -12 -7 -29 -22 -46l-88 -99v-26h156v35h-97l61 69c19 22 32 45 32 67z" />
    <glyph glyph-name="_607" unicode="&#x33ca;" 
d="M143 4v284c2 148 55 232 127 232c67 0 103 -58 103 -186v-330h61v343c0 142 -54 225 -153 225c-65 0 -113 -36 -138 -95v82h-62v-555h62zM815 167c0 -77 -40 -124 -119 -124s-117 47 -117 124c0 76 38 125 117 125s119 -49 119 -125zM876 368c0 125 -58 204 -172 204
c-107 0 -163 -68 -170 -171h63c6 72 38 119 107 119c73 0 111 -59 111 -150v-81c-23 34 -66 55 -129 55c-106 0 -170 -68 -170 -177s64 -176 170 -176c63 0 107 20 130 56c1 -16 4 -30 8 -43h63c-6 20 -11 49 -11 77v287z" />
    <glyph glyph-name="_608" unicode="&#x338d;" 
d="M134 559h-62v-797h62v290c21 -40 57 -61 103 -61c61 0 109 37 135 97v-84h61v555h-61v-285c0 -148 -60 -231 -134 -231c-68 0 -104 60 -104 172v344zM826 281c0 -151 -35 -238 -124 -238c-88 0 -123 87 -123 238s35 239 123 239c89 0 124 -88 124 -239zM542 -90
c10 -97 71 -163 171 -163c119 0 175 95 175 225v587h-62v-68c-24 51 -68 81 -129 81c-117 0 -179 -101 -179 -291c0 -189 62 -290 179 -290c61 0 105 29 129 81v-104c0 -106 -40 -169 -113 -169c-61 0 -101 43 -109 111h-62z" />
    <glyph glyph-name="_609" unicode="&#x338e;" 
d="M854 281c0 -151 -33 -238 -111 -238c-79 0 -112 87 -112 238s33 239 112 239c78 0 111 -88 111 -239zM592 -90c9 -97 65 -163 160 -163c111 0 164 95 164 225v587h-62v-60c-23 48 -62 73 -117 73c-109 0 -167 -101 -167 -291c0 -189 58 -290 167 -290c55 0 94 26 117 74
v-97c0 -106 -36 -169 -102 -169c-54 0 -90 43 -98 111h-62zM452 4h62v366c0 131 -39 202 -118 202c-50 0 -85 -33 -104 -88c-16 57 -52 88 -101 88c-38 0 -70 -28 -89 -73v60h-59v-555h63v286c0 154 33 230 79 230c41 0 62 -50 62 -150v-366h62v278c0 155 34 238 80 238
c42 0 63 -50 63 -150v-366z" />
    <glyph glyph-name="_610" unicode="&#x338f;" 
d="M169 4v263h50l174 -263h70l-189 289l170 266h-69l-155 -239h-51v462h-63v-778h63zM794 281c0 -151 -35 -238 -124 -238c-88 0 -123 87 -123 238s35 239 123 239c89 0 124 -88 124 -239zM510 -90c10 -97 71 -163 171 -163c119 0 175 95 175 225v587h-62v-68
c-24 51 -68 81 -129 81c-117 0 -179 -101 -179 -291c0 -189 62 -290 179 -290c61 0 105 29 129 81v-104c0 -106 -40 -169 -113 -169c-61 0 -101 43 -109 111h-62z" />
    <glyph glyph-name="_611" unicode="&#x33cf;" 
d="M178 3v265h65l204 -265h74l-225 291l199 266h-72l-180 -240h-65v463h-62v-780h62zM703 508h170v52h-170v158h-62v-158h-84v-52h84v-359c0 -117 53 -154 170 -154c19 0 42 0 62 2v51h-54c-78 0 -116 21 -116 109v351z" />
    <glyph glyph-name="_612" unicode="&#x3388;" 
d="M45 282c0 -183 54 -292 168 -292c95 0 152 70 162 190h-63c-8 -86 -42 -137 -99 -137c-76 0 -106 87 -106 239c0 150 30 239 106 239c57 0 91 -52 99 -138h63c-10 120 -67 190 -162 190c-114 0 -168 -108 -168 -291zM700 3h62c-5 21 -9 49 -9 77v289
c0 124 -54 204 -156 204c-98 0 -150 -68 -155 -172h63c3 73 34 120 92 120c62 0 94 -60 94 -150v-75c-22 33 -57 48 -110 48c-97 0 -155 -68 -155 -177c0 -110 58 -177 155 -177c53 0 91 20 112 52c1 -13 4 -29 7 -39zM691 167c0 -76 -33 -124 -101 -124s-101 48 -101 124
s33 125 101 125s101 -49 101 -125zM898 3v780h-61v-780h61z" />
    <glyph glyph-name="_613" unicode="&#x3389;" 
d="M117 4v261h13l103 -261h61l-117 289l104 266h-60l-92 -238h-12v461h-57v-778h57zM287 281c0 -183 40 -290 123 -290c71 0 112 70 119 188h-58c-5 -85 -25 -136 -61 -136c-47 0 -65 87 -65 238s18 239 65 239c36 0 56 -52 61 -137h58c-7 120 -48 189 -119 189
c-83 0 -123 -108 -123 -291zM735 167c0 -77 -20 -124 -62 -124s-63 47 -63 124c0 76 21 125 63 125s62 -49 62 -125zM793 368c0 125 -40 204 -115 204c-72 0 -110 -68 -114 -171h58c3 72 21 119 56 119c38 0 57 -59 57 -150v-63c-14 23 -37 37 -68 37
c-72 0 -114 -68 -114 -177s42 -176 114 -176c31 0 57 16 71 39c0 -9 1 -19 3 -26h58c-4 20 -6 49 -6 77v287zM912 4v778h-57v-778h57z" />
    <glyph glyph-name="_614" unicode="&#x33c8;" 
d="M59 281c0 -190 58 -290 169 -290c54 0 94 26 118 72v-59h62v778h-62v-282c-24 46 -64 72 -118 72c-111 0 -169 -101 -169 -291zM346 281c0 -151 -33 -238 -113 -238s-112 87 -112 238s32 239 112 239s113 -88 113 -239zM575 432v293h132c77 0 113 -50 113 -147
s-36 -146 -113 -146h-132zM723 4c117 0 177 68 177 210c0 103 -39 172 -112 191c57 19 97 79 97 178c0 126 -58 199 -169 199h-206v-778h213zM835 217c0 -102 -32 -157 -123 -157h-137v315h137c91 0 123 -56 123 -158z" />
    <glyph glyph-name="_615" unicode="&#x33a7;" 
d="M905 420c0 89 -44 152 -122 152c-77 0 -120 -64 -120 -152c0 -86 30 -123 99 -151c12 -5 26 -10 41 -15c38 -13 55 -45 55 -105c0 -64 -28 -106 -69 -106s-69 41 -69 107v20h-60v-20c0 -97 53 -159 129 -159s128 63 128 159c0 87 -29 133 -97 156c-16 5 -29 10 -41 15
c-39 15 -58 41 -58 100c0 56 22 100 62 100c39 0 64 -46 64 -101v-17h58v17zM364 4h58v366c0 138 -34 200 -91 200c-38 0 -69 -30 -85 -72c-12 49 -40 74 -78 74c-26 0 -51 -21 -64 -57v44h-55v-555h58v279c0 161 21 237 56 237c30 0 44 -50 44 -150v-366h58v278
c0 161 20 238 57 238c30 0 42 -50 42 -150v-366zM603 782l-172 -1011h55l172 1011h-55z" />
    <glyph glyph-name="_616" unicode="&#x33a8;" 
d="M364 4h58v366c0 138 -34 200 -91 200c-38 0 -69 -30 -85 -72c-12 49 -40 74 -78 74c-26 0 -51 -21 -64 -57v44h-55v-555h58v279c0 161 21 237 56 237c30 0 44 -50 44 -150v-366h58v278c0 161 20 238 57 238c30 0 42 -50 42 -150v-366zM603 782l-172 -1011h55l172 1011
h-55zM905 420c0 89 -44 152 -122 152c-77 0 -120 -64 -120 -152c0 -86 30 -123 99 -151c12 -5 26 -10 41 -15c38 -13 55 -45 55 -105c0 -64 -28 -106 -69 -106s-69 41 -69 107v20h-60v-20c0 -97 53 -159 129 -159s128 63 128 159c0 87 -29 133 -97 156c-16 5 -29 10 -41 15
c-39 15 -58 41 -58 100c0 56 22 100 62 100c39 0 64 -46 64 -101v-17h58v17zM923 783c0 40 -27 76 -77 76c-52 0 -78 -36 -78 -76v-16h42v16c0 23 13 40 36 40c22 0 35 -17 35 -40c0 -12 -7 -29 -22 -46l-88 -99v-26h156v35h-97l61 69c19 22 32 45 32 67z" />
    <glyph glyph-name="_617" unicode="&#x33b0;" 
d="M471 281c0 190 -65 291 -189 291c-66 0 -112 -31 -138 -83v70h-64v-797h64v313c25 -55 71 -84 138 -84c124 0 189 101 189 290zM407 281c0 -151 -37 -238 -131 -238s-132 87 -132 238s38 239 132 239s131 -88 131 -239zM874 420c0 87 -61 152 -166 152
c-106 0 -165 -67 -165 -152s42 -127 138 -151c20 -5 38 -10 60 -16c58 -16 85 -45 85 -104c0 -64 -45 -106 -111 -106c-64 0 -110 41 -110 107v20h-65v-20c0 -95 72 -159 175 -159c106 0 176 65 176 159c0 95 -40 127 -131 155c-18 6 -41 11 -63 17c-61 16 -90 45 -90 99
c0 56 37 100 101 100c66 0 101 -44 101 -101v-17h65v17z" />
    <glyph glyph-name="_618" unicode="&#x33b1;" 
d="M144 4v284c2 148 59 232 136 232c71 0 110 -58 110 -186v-330h64v343c0 142 -58 225 -162 225c-72 0 -121 -35 -148 -98v85h-64v-555h64zM874 420c0 87 -61 152 -166 152c-106 0 -165 -67 -165 -152s42 -127 138 -151c20 -5 38 -10 60 -16c58 -16 85 -45 85 -104
c0 -64 -45 -106 -111 -106c-64 0 -110 41 -110 107v20h-65v-20c0 -95 72 -159 175 -159c106 0 176 65 176 159c0 95 -40 127 -131 155c-18 6 -41 11 -63 17c-61 16 -90 45 -90 99c0 56 37 100 101 100c66 0 101 -44 101 -101v-17h65v17z" />
    <glyph glyph-name="_619" unicode="&#x33b2;" 
d="M257 -10c63 0 112 38 138 99v-86h63v557h-63v-286c0 -147 -59 -231 -136 -231c-69 0 -106 61 -106 173v344h-64v-798h64v289c21 -40 58 -61 104 -61zM874 420c0 87 -61 152 -166 152c-106 0 -165 -67 -165 -152s42 -127 138 -151c20 -5 38 -10 60 -16
c58 -16 85 -45 85 -104c0 -64 -45 -106 -111 -106c-64 0 -110 41 -110 107v20h-65v-20c0 -95 72 -159 175 -159c106 0 176 65 176 159c0 95 -40 127 -131 155c-18 6 -41 11 -63 17c-61 16 -90 45 -90 99c0 56 37 100 101 100c66 0 101 -44 101 -101v-17h65v17z" />
    <glyph glyph-name="_620" unicode="&#x33b3;" 
d="M898 420c0 87 -54 152 -149 152c-96 0 -149 -67 -149 -152c0 -82 37 -126 123 -152c16 -5 31 -9 44 -13c56 -18 82 -35 82 -106c0 -64 -39 -106 -93 -106c-55 0 -94 41 -94 107v20h-64v-20c0 -95 64 -159 158 -159s157 65 157 159c0 97 -37 128 -127 158
c-14 5 -29 9 -45 14c-52 15 -77 43 -77 99s32 100 85 100c54 0 85 -46 85 -101v-17h64v17zM462 4h63v366c0 131 -39 202 -118 202c-50 0 -85 -33 -104 -88c-17 57 -53 88 -101 88c-38 0 -70 -28 -89 -73v60h-60v-555h63v286c0 154 33 230 80 230c41 0 62 -50 62 -150v-366
h62v278c0 155 34 238 80 238c41 0 62 -50 62 -150v-366z" />
    <glyph glyph-name="_621" unicode="&#x33b4;" 
d="M471 281c0 190 -65 291 -188 291c-67 0 -113 -31 -139 -83v70h-63v-797h63v313c25 -55 72 -84 139 -84c123 0 188 101 188 290zM408 281c0 -151 -38 -238 -131 -238c-95 0 -133 87 -133 238s38 239 133 239c93 0 131 -88 131 -239zM449 782l208 -778h75l207 778h-67
l-177 -694l-178 694h-68z" />
    <glyph glyph-name="_622" unicode="&#x33b5;" 
d="M144 4v284c2 148 59 232 136 232c71 0 110 -58 110 -186v-330h64v343c0 142 -58 225 -162 225c-72 0 -121 -35 -148 -98v85h-64v-555h64zM449 782l208 -778h75l207 778h-67l-177 -694l-178 694h-68z" />
    <glyph glyph-name="_623" unicode="&#x33b6;" 
d="M144 559h-63v-797h63v290c21 -40 58 -61 105 -61c62 0 111 37 138 97v-84h63v555h-63v-285c0 -148 -60 -231 -136 -231c-70 0 -107 60 -107 172v344zM449 782l208 -778h75l207 778h-67l-177 -694l-178 694h-68z" />
    <glyph glyph-name="_624" unicode="&#x33b7;" 
d="M501 782l186 -778h78l186 778h-67l-158 -692l-158 692h-67zM461 4h62v366c0 131 -39 202 -117 202c-51 0 -85 -33 -105 -88c-16 57 -52 88 -100 88c-38 0 -71 -28 -89 -73v60h-60v-555h63v286c0 154 33 230 79 230c41 0 63 -50 63 -150v-366h62v278c0 155 34 238 80 238
c41 0 62 -50 62 -150v-366z" />
    <glyph glyph-name="_625" unicode="&#x33b8;" 
d="M447 782l208 -778h75l208 778h-67l-178 -694l-178 694h-68zM169 4v263h50l178 -263h70l-193 289l173 266h-69l-158 -239h-51v462h-63v-778h63z" />
    <glyph glyph-name="_626" unicode="&#x33b9;" 
d="M321 4l133 532v-532h62v778h-61l-167 -645l-167 645h-61v-778h61v537l135 -537h65zM618 782h-66l160 -778h69l160 778h-66l-128 -621z" />
    <glyph glyph-name="_627" unicode="&#x3380;" 
d="M509 4l54 193h262l53 -193h67l-216 778h-71l-216 -778h67zM576 254l118 425l116 -425h-234zM433 281c0 190 -60 291 -175 291c-58 0 -100 -27 -124 -77v64h-63v-797h63v307c23 -50 65 -78 124 -78c115 0 175 101 175 290zM370 281c0 -151 -34 -238 -118 -238
c-85 0 -118 87 -118 238s33 239 118 239c84 0 118 -88 118 -239z" />
    <glyph glyph-name="_628" unicode="&#x3381;" 
d="M128 4v284c0 148 53 232 122 232c64 0 99 -58 99 -186v-330h62v343c0 142 -53 225 -151 225c-63 0 -107 -32 -132 -89v76h-63v-555h63zM509 4l54 193h262l53 -193h67l-216 778h-71l-216 -778h67zM576 254l118 425l116 -425h-234z" />
    <glyph glyph-name="_629" unicode="&#x3382;" 
d="M131 559h-63v-797h63v284c21 -37 52 -55 95 -55c57 0 101 32 126 89v-76h62v555h-62v-285c0 -148 -55 -231 -125 -231c-63 0 -96 60 -96 172v344zM509 4l54 193h262l53 -193h67l-216 778h-71l-216 -778h67zM576 254l118 425l116 -425h-234z" />
    <glyph glyph-name="_630" unicode="&#x3383;" 
d="M587 4l45 193h212l46 -193h65l-183 778h-68l-183 -778h66zM644 254l94 403l94 -403h-188zM443 4h62v366c0 131 -38 202 -115 202c-50 0 -84 -33 -104 -91c-16 63 -50 91 -98 91c-40 0 -67 -23 -87 -67v54h-62v-555h62v279c0 154 34 237 79 237c40 0 61 -50 61 -150v-366
h62v278c0 155 34 238 79 238c40 0 61 -50 61 -150v-366z" />
    <glyph glyph-name="_631" unicode="&#x3384;" 
d="M566 254l118 425l116 -425h-234zM373 4h126l54 193h262l53 -193h67l-216 778h-71l-213 -767l-179 278l174 266h-69l-159 -239h-43v462h-64v-778h64v263h43z" />
    <glyph glyph-name="_632" unicode="&#x33ba;" 
d="M373 281c0 190 -52 291 -150 291c-42 0 -76 -21 -96 -60v47h-63v-797h63v288c20 -38 52 -59 96 -59c98 0 150 101 150 290zM310 281c0 -151 -27 -238 -92 -238s-91 87 -91 238s26 239 91 239s92 -88 92 -239zM630 782l-102 -613l-100 613h-64l127 -778h65l103 600
l103 -600h66l126 778h-64l-100 -613l-101 613h-59z" />
    <glyph glyph-name="_633" unicode="&#x33bb;" 
d="M122 4v284c0 148 41 232 94 232c49 0 75 -58 75 -186v-330h62v343c0 142 -45 225 -129 225c-46 0 -81 -25 -102 -70v57h-63v-555h63zM630 782l-102 -613l-100 613h-64l127 -778h65l103 600l103 -600h66l126 778h-64l-100 -613l-101 613h-59z" />
    <glyph glyph-name="_634" unicode="&#x33bc;" 
d="M122 559h-63v-797h63v270c16 -30 38 -41 72 -41c42 0 78 27 98 69v-56h62v555h-62v-285c0 -148 -42 -231 -97 -231c-47 0 -73 60 -73 172v344zM630 782l-102 -613l-100 613h-64l127 -778h65l103 600l103 -600h66l126 778h-64l-100 -613l-101 613h-59z" />
    <glyph glyph-name="_635" unicode="&#x33bd;" 
d="M670 782l-85 -581l-77 581h-64l108 -778h63l83 565l83 -565h63l107 778h-63l-78 -581l-84 581h-56zM384 4h61v366c0 128 -33 199 -98 199c-44 0 -73 -28 -90 -74c-16 51 -44 77 -84 77c-32 0 -57 -25 -72 -62v49h-58v-555h61v279c0 154 26 237 63 237
c31 0 46 -50 46 -150v-366h62v278c0 155 25 238 62 238c31 0 47 -50 47 -150v-366z" />
    <glyph glyph-name="_636" unicode="&#x33be;" 
d="M119 4v263h33l173 -263h69l-188 289l176 266h-70l-159 -239h-34v462h-63v-778h63zM630 782l-102 -613l-100 613h-64l127 -778h65l103 600l103 -600h66l126 778h-64l-100 -613l-101 613h-59z" />
    <glyph glyph-name="_637" unicode="&#x33bf;" 
d="M271 4l97 491v-491h60v778h-62l-125 -628l-125 628h-61v-778h60v490l96 -490h60zM673 782l-79 -578l-72 578h-61l101 -778h63l76 567l77 -567h64l100 778h-61l-72 -577l-78 577h-58z" />
    <glyph glyph-name="_638" unicode="&#x3390;" 
d="M432 3h62v780h-62v-352h-287v352h-62v-780h62v371h287v-371zM905 560h-324v-52h252l-260 -458v-47h338v53h-266l260 457v47z" />
    <glyph glyph-name="_639" unicode="&#x3391;" 
d="M572 3h62v780h-62v-352h-156v352h-62v-780h62v371h156v-371zM927 560h-245v-52h177l-182 -459v-46h254v53h-187l183 458v46zM120 3v265h28l127 -265h66l-140 291l125 266h-65l-112 -240h-29v463h-62v-780h62z" />
    <glyph glyph-name="_640" unicode="&#x3392;" 
d="M617 3h61v780h-61v-352h-125v352h-61v-780h61v371h125v-371zM936 560h-218v-52h152l-156 -461v-44h225v53h-160l157 460v44zM229 3l86 456v-456h59v780h-51l-119 -616l-119 616h-52v-780h60v470l87 -470h49z" />
    <glyph glyph-name="_641" unicode="&#x3393;" 
d="M33 393c0 -237 36 -402 158 -402c47 0 77 31 104 81l1 -68h53v391h-167v-57h107v-48c0 -160 -41 -242 -96 -242c-75 0 -100 129 -100 345c0 203 24 345 100 345c58 0 90 -82 95 -210h61c-5 162 -61 267 -156 267c-126 0 -160 -168 -160 -402zM612 4h61v778h-61v-351h-150
v351h-61v-778h61v369h150v-369zM930 559h-217v-52h152l-157 -457v-46h226v52h-161l157 457v46z" />
    <glyph glyph-name="_642" unicode="&#x3394;" 
d="M580 3h62v780h-62v-352h-159v352h-61v-780h61v371h159v-371zM921 560h-229v-52h163l-168 -458v-47h238v53h-171l167 458v46zM17 726h122v-723h62v723h123v57h-307v-57z" />
    <glyph glyph-name="_643" unicode="&#x2126;" horiz-adv-x="702" 
d="M351 794c-97 0 -168 -33 -214 -91c-58 -72 -78 -179 -78 -307c0 -166 42 -289 147 -335h-126v-57h220v57c-137 41 -176 166 -176 332c0 125 15 214 64 275c36 44 92 69 163 69s127 -24 163 -69c48 -60 64 -150 64 -275c0 -166 -39 -291 -176 -332v-57h219v57h-125
c105 46 146 169 146 335c0 128 -20 235 -77 307c-46 59 -118 91 -214 91z" />
    <glyph glyph-name="_644" unicode="&#x33c0;" 
d="M675 795c-182 0 -227 -181 -227 -397c0 -160 38 -290 119 -338h-104v-56h181v55c-103 37 -132 167 -132 334c0 179 23 345 163 345c138 0 163 -168 163 -345c0 -167 -28 -297 -132 -334v-55h181v56h-104c81 48 119 178 119 338c0 214 -47 397 -227 397zM148 4v263h43
l171 -263h69l-186 289l174 266h-69l-159 -239h-43v462h-64v-778h64z" />
    <glyph glyph-name="_645" unicode="&#x33c1;" 
d="M305 4l134 532v-532h62v778h-62l-166 -645l-167 645h-62v-778h62v537l135 -537h64zM737 795c-143 0 -179 -173 -179 -397c0 -154 32 -286 93 -338h-82v-56h146v52c-72 43 -94 168 -94 337c0 179 20 345 116 345c97 0 116 -166 116 -345c0 -169 -22 -294 -94 -337v-52h146
v56h-82c61 52 94 183 94 338c0 222 -36 397 -180 397z" />
    <glyph glyph-name="_646" unicode="&#x338a;" 
d="M461 281c0 190 -65 291 -189 291c-66 0 -112 -31 -138 -83v70h-64v-797h64v313c25 -55 71 -84 138 -84c124 0 189 101 189 290zM397 281c0 -151 -37 -238 -131 -238s-132 87 -132 238s38 239 132 239s131 -88 131 -239zM539 4h65v358h293v57h-293v306h318v57h-383v-778z
" />
    <glyph glyph-name="_647" unicode="&#x338b;" 
d="M539 4h65v358h293v57h-293v306h318v57h-383v-778zM132 4v284c0 148 60 232 136 232c71 0 109 -58 109 -186v-330h64v343c0 142 -58 225 -162 225c-71 0 -121 -35 -147 -98v85h-64v-555h64z" />
    <glyph glyph-name="_648" unicode="&#x338c;" 
d="M236 -10c62 0 112 38 138 99v-86h63v557h-63v-286c0 -147 -60 -231 -136 -231c-70 0 -107 61 -107 173v344h-63v-798h63v289c21 -40 58 -61 105 -61zM540 3h64v360h294v56h-294v307h318v57h-382v-780z" />
    <glyph glyph-name="_649" unicode="&#x33d6;" 
d="M388 4h61v366c0 137 -37 202 -105 202c-42 0 -71 -28 -89 -78c-16 53 -47 78 -87 78c-30 0 -55 -22 -72 -59v46h-59v-555h61v279c0 154 27 237 64 237c32 0 50 -50 50 -150v-366h61v278c0 155 28 238 65 238c32 0 50 -50 50 -150v-366zM784 281c0 183 -38 291 -141 291
s-140 -108 -140 -291s37 -290 140 -290s141 107 141 290zM722 281c0 -151 -22 -238 -79 -238s-79 87 -79 238s22 239 79 239s79 -88 79 -239zM902 4v778h-62v-778h62z" />
    <glyph glyph-name="_650" unicode="&#x33c5;" 
d="M61 281c0 -183 62 -290 194 -290c111 0 176 70 188 188h-63c-9 -85 -52 -136 -125 -136c-92 0 -131 87 -131 238s39 239 131 239c73 0 116 -52 125 -137h63c-12 120 -77 189 -188 189c-132 0 -194 -108 -194 -291zM512 281c0 -190 61 -290 177 -290c60 0 104 28 128 78
v-65h62v778h-62v-289c-24 50 -68 79 -128 79c-116 0 -177 -101 -177 -291zM817 281c0 -151 -35 -238 -122 -238s-121 87 -121 238s34 239 121 239s122 -88 122 -239z" />
    <glyph glyph-name="_651" unicode="&#x33ad;" 
d="M501 167c0 -77 -27 -124 -83 -124s-84 47 -84 124c0 76 28 125 84 125s83 -49 83 -125zM563 368c0 131 -48 204 -139 204c-87 0 -133 -67 -138 -171h63c2 72 26 117 71 117c55 0 81 -55 81 -148v-71c-18 28 -49 45 -91 45c-86 0 -137 -68 -137 -177s51 -176 137 -176
c41 0 75 19 94 46c1 -16 2 -18 5 -33h62c-5 20 -8 49 -8 77v287zM622 281c0 -191 49 -290 141 -290c37 0 70 23 88 61v-48h62v778h-62v-264c-18 35 -50 54 -88 54c-92 0 -141 -100 -141 -291zM851 281c0 -151 -24 -238 -84 -238c-59 0 -83 87 -83 238s24 239 83 239
c60 0 84 -88 84 -239zM218 519c12 0 28 -2 39 -4v52c-11 4 -25 5 -38 5c-53 0 -94 -33 -113 -85v72h-62v-555h62v280c0 160 45 235 112 235z" />
    <glyph glyph-name="_652" unicode="&#x33ae;" 
d="M898 177c0 49 -47 85 -131 85s-130 -37 -130 -85c0 -51 31 -70 106 -82c15 -2 31 -5 50 -9c43 -8 65 -20 65 -40c0 -26 -35 -42 -85 -42s-84 16 -84 42v18h-54v-18c0 -53 56 -89 138 -89c84 0 138 36 138 89c0 56 -35 72 -106 85c-14 3 -30 6 -47 9c-44 7 -67 18 -67 37
c0 22 28 38 76 38c50 0 77 -16 77 -37v-17h54v16zM411 490c0 -32 -21 -52 -64 -52s-64 20 -64 52c0 30 21 50 64 50s64 -20 64 -50zM466 590c0 72 -40 113 -114 113c-71 0 -110 -39 -114 -101h56c3 32 21 53 58 53c40 0 59 -24 59 -64v-25c-16 15 -40 23 -70 23
c-70 0 -112 -39 -112 -99c0 -62 42 -100 112 -100c29 0 56 11 74 26c0 -6 2 -15 5 -20h56c-6 16 -10 34 -10 50v144zM508 546c0 -102 40 -156 116 -156c27 0 51 14 67 36v-30h55v412h-55v-134c-16 18 -40 29 -67 29c-76 0 -116 -54 -116 -157zM691 546
c0 -68 -18 -108 -64 -108s-65 40 -65 108c0 69 19 109 65 109s64 -40 64 -109zM187 655c12 0 25 -1 34 -2v46c-10 3 -21 4 -33 4c-37 0 -70 -17 -88 -40v33h-55v-300h55v152c0 73 35 107 87 107zM60 86l14 -37l839 340l-13 37z" />
    <glyph glyph-name="_653" unicode="&#x33af;" 
d="M951 292c0 27 -20 50 -53 50c-35 0 -53 -23 -53 -50v-14h35v13c0 13 6 22 18 22s18 -8 18 -21c0 -7 -6 -17 -15 -28l-54 -61v-21h106v29h-55l33 37c12 13 20 29 20 44zM401 490c0 -32 -21 -52 -64 -52s-64 20 -64 52c0 30 21 50 64 50s64 -20 64 -50zM456 590
c0 72 -40 113 -114 113c-71 0 -110 -39 -114 -101h56c3 32 21 53 58 53c40 0 59 -24 59 -64v-25c-16 15 -40 23 -70 23c-70 0 -112 -39 -112 -99c0 -62 42 -100 112 -100c29 0 56 11 74 26c0 -6 2 -15 5 -20h56c-6 16 -10 34 -10 50v144zM498 546c0 -102 40 -156 116 -156
c27 0 51 14 67 36v-30h55v412h-55v-134c-16 18 -40 29 -67 29c-76 0 -116 -54 -116 -157zM681 546c0 -68 -18 -108 -64 -108s-65 40 -65 108c0 69 19 109 65 109s64 -40 64 -109zM177 655c12 0 25 -1 34 -2v46c-10 3 -21 4 -33 4c-37 0 -70 -17 -88 -40v33h-55v-300h55v152
c0 73 35 107 87 107zM890 429c-280 -114 -560 -227 -840 -341c4 -11 10 -24 14 -36c280 113 559 227 839 341c-4 12 -9 24 -13 36zM828 177c0 49 -47 85 -131 85s-130 -37 -130 -85c0 -51 31 -70 106 -82c15 -2 31 -5 50 -9c43 -8 65 -20 65 -40c0 -26 -35 -42 -85 -42
s-84 16 -84 42v18h-54v-18c0 -53 56 -89 138 -89c84 0 138 36 138 89c0 56 -35 72 -106 85c-14 3 -30 6 -47 9c-44 7 -67 18 -67 37c0 22 28 38 76 38c50 0 77 -16 77 -37v-17h54v16z" />
    <glyph glyph-name="_654" unicode="&#x33db;" 
d="M291 573c-106 0 -165 -67 -165 -153c0 -82 41 -130 138 -151c20 -4 40 -10 60 -15c59 -15 86 -46 86 -104c0 -65 -46 -108 -111 -108s-111 41 -111 109v19h-65v-19c0 -96 72 -161 176 -161c105 0 175 66 175 161c0 88 -39 133 -134 156l-60 15c-61 16 -90 45 -90 99
c0 57 37 100 101 100c66 0 102 -43 102 -100v-18h64v17c0 87 -60 153 -166 153zM806 520c17 0 33 -1 42 -3v52c-8 3 -24 4 -40 4c-89 0 -145 -44 -166 -128v115h-63v-557h63v282c0 160 65 235 164 235z" />
    <glyph glyph-name="_655" unicode="&#x33a9;" 
d="M139 363v362h151c93 0 141 -68 141 -181c0 -112 -48 -181 -141 -181h-151zM294 306c132 0 200 93 200 238c0 146 -68 238 -200 238h-218v-778h63v302h155zM824 167c0 -77 -41 -124 -121 -124s-121 47 -121 124c0 76 41 125 121 125s121 -49 121 -125zM886 368
c0 125 -59 204 -175 204c-110 0 -166 -68 -173 -171h63c6 72 40 119 110 119c74 0 113 -59 113 -150v-80c-24 33 -68 54 -131 54c-109 0 -173 -68 -173 -177s64 -176 173 -176c64 0 108 20 132 55c3 -14 3 -31 9 -42h63c-6 20 -11 49 -11 77v287z" />
    <glyph glyph-name="_656" unicode="&#x33aa;" 
d="M427 364v362h82c50 0 75 -68 75 -181c0 -112 -25 -181 -75 -181h-82zM511 307c90 0 136 92 136 238s-46 238 -136 238h-145v-780h61v304h84zM849 3h62c-4 21 -7 49 -7 77v289c0 124 -40 204 -120 204c-76 0 -114 -69 -118 -172h61c4 72 22 120 57 120
c39 0 59 -60 59 -150v-55c-16 18 -39 28 -70 28c-75 0 -118 -68 -118 -177c0 -110 43 -177 118 -177c30 0 57 14 72 37c1 -9 2 -18 4 -24zM843 167c0 -76 -22 -124 -64 -124c-41 0 -63 48 -63 124s22 125 63 125c42 0 64 -49 64 -125zM122 3v265h26l123 -265h65l-136 291
l122 266h-65l-109 -240h-26v463h-62v-780h62z" />
    <glyph glyph-name="_657" unicode="&#x33ab;" 
d="M491 363v362h62c48 0 69 -68 69 -181c0 -112 -21 -181 -69 -181h-62zM555 306c88 0 130 93 130 238c0 146 -42 238 -130 238h-125v-778h61v302h64zM862 167c0 -77 -18 -124 -52 -124s-53 47 -53 124c0 76 19 125 53 125s52 -49 52 -125zM923 368c0 125 -36 204 -109 204
c-69 0 -104 -68 -108 -171h61c4 72 19 119 47 119c31 0 48 -59 48 -150v-56c-13 17 -32 30 -58 30c-67 0 -107 -68 -107 -177s40 -176 107 -176c27 0 51 16 64 41c0 -11 1 -20 2 -28h59c-3 20 -6 49 -6 77v287zM228 4l87 455v-455h59v778h-51l-120 -616l-118 616h-52v-778
h59v468l87 -468h49z" />
    <glyph glyph-name="_658" unicode="&#x33ac;" 
d="M485 363v362h62c48 0 70 -68 70 -181c0 -112 -22 -181 -70 -181h-62zM550 306c87 0 129 93 129 238c0 146 -42 238 -129 238h-126v-778h61v302h65zM856 167c0 -77 -18 -124 -52 -124s-52 47 -52 124c0 76 18 125 52 125s52 -49 52 -125zM917 368c0 125 -36 204 -109 204
c-69 0 -104 -68 -107 -171h61c3 72 18 119 46 119c32 0 48 -59 48 -150v-56c-13 17 -32 30 -57 30c-68 0 -108 -68 -108 -177s40 -176 108 -176c26 0 50 16 63 41c0 -11 1 -20 2 -28h60c-4 20 -7 49 -7 77v287zM40 393c0 -237 37 -402 159 -402c45 0 80 32 103 81l2 -68h53
v391h-168v-57h108v-48c0 -158 -42 -242 -96 -242c-76 0 -100 129 -100 345c0 203 22 345 100 345c58 0 90 -82 95 -210h60c-5 162 -60 267 -155 267c-126 0 -161 -168 -161 -402z" />
    <glyph glyph-name="_659" unicode="&#x33dd;" 
d="M914 281c0 190 -58 291 -169 291c-54 0 -96 -28 -117 -76v286h-63v-778h63v63c22 -48 63 -76 117 -76c111 0 169 100 169 290zM852 281c0 -151 -33 -238 -112 -238c-80 0 -112 87 -112 238s32 239 112 239c79 0 112 -88 112 -239zM234 782l-85 -581l-77 581h-63l108 -778
h62l84 565l83 -565h62l108 778h-64l-77 -581l-84 581h-57z" />
    <glyph glyph-name="_660" unicode="&#x33d0;" 
d="M805 4h63v366c0 131 -49 202 -137 202c-62 0 -106 -38 -128 -103c-18 70 -61 103 -121 103c-51 0 -90 -30 -113 -81v68h-63v-555h63v279c0 154 45 237 104 237c53 0 83 -50 83 -150v-366h63v278c0 155 45 238 103 238c54 0 83 -50 83 -150v-366zM176 4v778h-62v-778h62z
" />
    <glyph glyph-name="_661" unicode="&#x33d3;" 
d="M217 3v780h-62v-780h62zM759 3h70l-206 286l195 271h-70l-163 -227l-163 227h-71l196 -271l-207 -286h70l175 240z" />
    <glyph glyph-name="_662" unicode="&#x33c3;" 
d="M541 282c0 -190 57 -290 167 -290c56 0 95 26 118 73v-302h62v797h-62v-61c-23 48 -62 74 -118 74c-110 0 -167 -102 -167 -291zM826 282c0 -151 -32 -238 -113 -238c-79 0 -112 87 -112 238c0 150 33 239 112 239c81 0 113 -89 113 -239zM145 432v293h139
c78 0 114 -50 114 -147s-36 -146 -114 -146h-139zM300 4c117 0 177 68 177 210c0 105 -39 172 -112 191h1c56 19 95 80 95 178c0 126 -56 199 -167 199h-212v-778h218zM413 217c0 -102 -33 -157 -123 -157h-145v315h145c90 0 123 -56 123 -158z" />
    <glyph glyph-name="_663" unicode="&#x33c9;" 
d="M63 393c0 -226 48 -402 212 -402c71 0 124 39 153 101l4 -88h53v391h-213v-57h151v-48c0 -157 -60 -242 -147 -242c-113 0 -149 127 -149 345c0 205 33 345 149 345c90 0 138 -82 145 -210h63c-7 162 -80 267 -208 267c-161 0 -213 -171 -213 -402zM672 -116
c-15 -54 -32 -69 -57 -69h-25v-51c11 -2 18 -2 29 -2c55 0 87 22 117 127l187 670h-64l-123 -446l-124 446h-64l156 -556z" />
    <glyph glyph-name="_664" unicode="&#x33dc;" 
d="M279 47c-91 0 -142 68 -142 159v24h-62v-23c0 -120 71 -216 204 -216c132 0 203 96 203 216c0 113 -53 185 -163 215c-29 8 -54 15 -77 23c-66 23 -105 55 -105 144s47 149 131 149c82 0 129 -60 129 -149v-17h63v17c0 114 -68 206 -192 206c-127 0 -193 -92 -193 -206
c0 -109 57 -177 149 -202c32 -8 60 -16 84 -25c75 -28 112 -68 112 -156c0 -91 -52 -159 -141 -159zM744 4l168 555h-64l-137 -458l-137 458h-64l167 -555h67z" />
    <glyph glyph-name="_665" unicode="&#x33c6;" 
d="M41 603c0 -125 36 -212 149 -212c89 0 140 60 145 155h-54c-5 -64 -35 -105 -91 -105c-74 0 -93 65 -93 162c0 96 20 162 93 162c55 0 86 -41 91 -105h54c-5 94 -56 155 -145 155c-114 0 -149 -91 -149 -212zM498 4v131h14l101 -131h64l-117 155l105 144h-63l-89 -120
h-15v225h-54v-404h54zM854 153c0 -68 -19 -108 -66 -108c-46 0 -65 40 -65 108c0 69 19 108 65 108c47 0 66 -39 66 -108zM682 -21c7 -62 47 -104 113 -104c77 0 113 52 113 124v304h-54v-26c-17 21 -39 33 -69 33c-76 0 -116 -55 -116 -157c0 -100 40 -155 116 -155
c30 0 54 11 69 33v-34c0 -46 -25 -72 -61 -72c-30 0 -52 19 -56 54h-55zM74 -4l605 758l-36 27l-604 -757z" />
    <glyph glyph-name="_666" unicode="&#xc6;" horiz-adv-x="958" 
d="M429 782l-437 -778h69l110 193h295v-193h446v57h-382v312h337v57h-337v295h377v57h-478zM202 254l264 468v-468h-264z" />
    <glyph glyph-name="_667" unicode="&#xd0;" horiz-adv-x="701" 
d="M10 368h76v-364h266c229 0 290 174 290 389c0 211 -61 389 -290 389h-266v-365h-76v-49zM347 725c178 0 230 -134 230 -332s-49 -332 -230 -332h-197v307h167v49h-167v308h197z" />
    <glyph glyph-name="_668" unicode="&#xaa;" horiz-adv-x="438" 
d="M197 364c58 0 107 20 124 59c0 -16 1 -37 8 -49h57c-5 13 -9 36 -9 56v223c0 79 -52 138 -156 138c-102 0 -151 -54 -155 -128h57c2 51 34 83 98 83c68 0 100 -35 100 -92v-92c-18 40 -66 60 -126 60c-89 0 -149 -44 -149 -129s60 -129 151 -129zM211 408
c-70 0 -109 31 -109 85c0 53 39 84 109 84c71 0 110 -31 110 -84c0 -54 -39 -85 -110 -85zM38 246h363v48h-363v-48z" />
    <glyph glyph-name="_669" unicode="&#x126;" horiz-adv-x="694" 
d="M683 650h-76v132h-65v-132h-391v132h-65v-132h-76v-49h76v-597h65v369h391v-369h65v597h76v49zM151 431v170h391v-170h-391z" />
    <glyph glyph-name="_670" unicode="&#x132;" horiz-adv-x="803" 
d="M147 782h-65v-778h65v778zM493 -9c151 0 232 94 232 250v541h-65v-535c0 -130 -58 -200 -166 -200c-107 0 -166 73 -166 197h-65c0 -159 79 -253 230 -253z" />
    <glyph glyph-name="_671" unicode="&#x13f;" horiz-adv-x="545" 
d="M82 3h447v57h-382v723h-65v-780zM387 461h-76v-77h76v77z" />
    <glyph glyph-name="_672" unicode="&#x141;" horiz-adv-x="549" 
d="M19 268l67 35v-300h447v57h-382v277l219 115v55l-219 -115v391h-65v-425l-67 -35v-55z" />
    <glyph glyph-name="_673" unicode="&#xd8;" horiz-adv-x="702" 
d="M136 -32l42 74c43 -34 100 -51 171 -51c220 0 293 162 293 402c0 133 -21 235 -81 315l63 110h-60l-42 -74c-44 34 -100 51 -173 51c-221 0 -291 -168 -291 -402c0 -136 23 -235 80 -315l-61 -110h59zM122 393c0 205 50 345 227 345c60 0 108 -16 143 -48l-320 -554
c-38 61 -50 148 -50 257zM578 393c0 -205 -49 -345 -229 -345c-58 0 -106 16 -141 45l319 555c37 -61 51 -149 51 -255z" />
    <glyph glyph-name="_674" unicode="&#x152;" horiz-adv-x="1030" 
d="M58 393c0 -211 61 -389 289 -389h637v57h-382v312h337v57h-337v295h377v57h-632c-228 0 -289 -178 -289 -389zM537 725v-664h-184c-180 0 -231 132 -231 332c0 198 53 332 231 332h184z" />
    <glyph glyph-name="_675" unicode="&#xba;" horiz-adv-x="439" 
d="M392 577c0 144 -61 215 -172 215c-112 0 -173 -71 -173 -215c0 -145 61 -215 173 -215c111 0 172 70 172 215zM336 577c0 -122 -39 -170 -116 -170c-79 0 -117 48 -117 170c0 120 38 169 117 169c77 0 116 -49 116 -169zM38 247h363v47h-363v-47z" />
    <glyph glyph-name="_676" unicode="&#xde;" horiz-adv-x="646" 
d="M147 4v151h221c159 0 243 92 243 238c0 145 -84 237 -243 237h-221v152h-65v-778h65zM147 212v361h216c121 0 183 -68 183 -180c0 -113 -62 -181 -183 -181h-216z" />
    <glyph glyph-name="_677" unicode="&#x166;" horiz-adv-x="569" 
d="M120 377h132v-374h64v374h133v49h-133v300h235v57h-534v-57h235v-300h-132v-49z" />
    <glyph glyph-name="_678" unicode="&#x14a;" horiz-adv-x="696" 
d="M613 782h-65v-665l-401 665h-65v-778h65v664l401 -665v-94c0 -64 -29 -90 -82 -90h-27v-55c9 -1 23 -2 34 -2c89 0 140 46 140 146v874z" />
    <glyph glyph-name="_679" unicode="&#x3260;" 
d="M29 393c0 -253 200 -449 451 -449s451 196 451 449s-200 449 -451 449s-451 -196 -451 -449zM75 393c0 228 179 406 405 406s405 -178 405 -406s-179 -406 -405 -406s-405 178 -405 406zM251 579v-53h388v-316h60v369h-448z" />
    <glyph glyph-name="_680" unicode="&#x3261;" 
d="M29 393c0 -253 200 -449 451 -449s451 196 451 449s-200 449 -451 449s-451 -196 -451 -449zM75 393c0 228 179 406 405 406s405 -178 405 -406s-179 -406 -405 -406s-405 178 -405 406zM707 210v54h-389v315h-60v-369h449z" />
    <glyph glyph-name="_681" unicode="&#x3262;" 
d="M29 393c0 -253 200 -449 451 -449s451 196 451 449s-200 449 -451 449s-451 -196 -451 -449zM75 393c0 228 179 406 405 406s405 -178 405 -406s-179 -406 -405 -406s-405 178 -405 406zM318 264v262h381v53h-441v-369h449v54h-389z" />
    <glyph glyph-name="_682" unicode="&#x3263;" 
d="M29 393c0 -253 200 -449 451 -449s451 196 451 449s-200 449 -451 449s-451 -196 -451 -449zM75 393c0 228 179 406 405 406s405 -178 405 -406s-179 -406 -405 -406s-405 178 -405 406zM322 255v113h373v218h-434v-54h373v-110h-373v-220h449v53h-388z" />
    <glyph glyph-name="_683" unicode="&#x3264;" 
d="M29 393c0 -253 200 -449 451 -449s451 196 451 449s-200 449 -451 449s-451 -196 -451 -449zM75 393c0 228 179 406 405 406s405 -178 405 -406s-179 -406 -405 -406s-405 178 -405 406zM258 579v-369h441v369h-441zM639 526v-262h-321v262h321z" />
    <glyph glyph-name="_684" unicode="&#x3265;" 
d="M29 393c0 -253 200 -449 451 -449s451 196 451 449s-200 449 -451 449s-451 -196 -451 -449zM75 393c0 228 179 406 405 406s405 -178 405 -406s-179 -406 -405 -406s-405 178 -405 406zM318 440v139h-60v-369h441v369h-60v-139h-321zM639 386v-122h-321v122h321z" />
    <glyph glyph-name="_685" unicode="&#x3266;" 
d="M29 393c0 -253 200 -449 451 -449s451 196 451 449s-200 449 -451 449s-451 -196 -451 -449zM75 393c0 228 179 406 405 406s405 -178 405 -406s-179 -406 -405 -406s-405 178 -405 406zM728 215v56c-123 24 -219 105 -219 239v88h-61v-88c0 -134 -95 -215 -217 -240v-55
c123 23 209 88 248 164c39 -78 129 -140 249 -164z" />
    <glyph glyph-name="_686" unicode="&#x3267;" 
d="M29 393c0 -253 200 -449 451 -449s451 196 451 449s-200 449 -451 449s-451 -196 -451 -449zM75 393c0 228 179 406 405 406s405 -178 405 -406s-179 -406 -405 -406s-405 178 -405 406zM304 395c0 40 16 73 43 98c30 28 77 44 132 44s101 -16 132 -44
c27 -25 43 -58 43 -98c0 -41 -16 -75 -43 -100c-31 -27 -77 -43 -132 -43s-101 16 -132 43c-27 25 -43 59 -43 100zM244 395c0 -59 26 -109 67 -144c41 -32 101 -52 168 -52s126 20 167 52c41 35 68 85 68 144c0 58 -25 108 -68 143c-41 32 -100 52 -167 52
s-127 -20 -168 -52c-42 -35 -67 -85 -67 -143z" />
    <glyph glyph-name="_687" unicode="&#x3268;" 
d="M28 393c0 -254 200 -449 452 -449c251 0 451 195 451 449c0 253 -200 449 -451 449c-252 0 -452 -196 -452 -449zM75 393c0 227 178 406 405 406c225 0 404 -179 404 -406c0 -228 -179 -406 -404 -406c-226 0 -405 178 -405 406zM717 259c-111 25 -209 102 -209 226v40
h202v53h-463v-53h200v-40c0 -124 -95 -202 -208 -227v-55c113 24 200 86 239 163c41 -76 128 -139 239 -163v56z" />
    <glyph glyph-name="_688" unicode="&#x3269;" 
d="M28 393c0 -254 200 -449 452 -449c251 0 451 195 451 449c0 253 -200 449 -451 449c-252 0 -452 -196 -452 -449zM75 393c0 227 178 406 405 406c225 0 404 -179 404 -406c0 -228 -179 -406 -404 -406c-226 0 -405 178 -405 406zM710 473v53h-202v104h-61v-104h-200v-53
h200v-1c0 -114 -95 -193 -208 -216v-56c112 22 198 83 239 158c40 -76 127 -136 239 -157v55c-111 23 -209 102 -209 216v1h202z" />
    <glyph glyph-name="_689" unicode="&#x326a;" 
d="M29 393c0 -253 200 -449 451 -449s451 196 451 449s-200 449 -451 449s-451 -196 -451 -449zM75 393c0 228 179 406 405 406s405 -178 405 -406s-179 -406 -405 -406s-405 178 -405 406zM258 579v-53h381v-115c-59 -8 -131 -12 -188 -12h-193v-53h193c61 0 131 4 188 13
v-149h60v369h-441z" />
    <glyph glyph-name="_690" unicode="&#x326b;" 
d="M29 393c0 -253 200 -449 451 -449s451 196 451 449s-200 449 -451 449s-451 -196 -451 -449zM75 393c0 228 179 406 405 406s405 -178 405 -406s-179 -406 -405 -406s-405 178 -405 406zM322 255v113h365v54h-365v110h373v54h-434v-384h449v53h-388z" />
    <glyph glyph-name="_691" unicode="&#x326c;" 
d="M29 393c0 -253 200 -449 451 -449s451 196 451 449s-200 449 -451 449s-451 -196 -451 -449zM75 393c0 228 179 406 405 406s405 -178 405 -406s-179 -406 -405 -406s-405 178 -405 406zM567 404c0 -49 -4 -104 -17 -140h-157v262h174v-122zM627 526h88v53h-472v-53h90
v-262h-105v-54h502v54h-120c12 38 17 93 17 145v117z" />
    <glyph glyph-name="_692" unicode="&#x326d;" 
d="M29 393c0 -253 200 -449 451 -449s451 196 451 449s-200 449 -451 449s-451 -196 -451 -449zM75 393c0 228 179 406 405 406s405 -178 405 -406s-179 -406 -405 -406s-405 178 -405 406zM233 544v-53h491v53h-215v93h-62v-93h-214zM479 230c-62 0 -114 12 -141 35
c-12 10 -19 25 -19 42c0 16 7 32 19 42c27 23 79 35 141 35s114 -12 141 -35c12 -10 19 -26 19 -42c0 -17 -7 -32 -19 -42c-27 -23 -79 -35 -141 -35zM479 177c78 0 144 18 182 49c24 22 39 49 39 81s-15 59 -39 80c-38 32 -104 50 -182 50s-144 -18 -182 -50
c-24 -21 -39 -48 -39 -80s15 -59 39 -81c38 -31 104 -49 182 -49z" />
    <glyph glyph-name="_693" unicode="&#x326e;" 
d="M28 393c0 -254 200 -449 452 -449c251 0 451 195 451 449c0 253 -200 449 -451 449c-252 0 -452 -196 -452 -449zM75 393c0 227 178 406 405 406c225 0 404 -179 404 -406c0 -228 -179 -406 -404 -406c-226 0 -405 178 -405 406zM465 547c0 -195 -80 -320 -237 -367v-52
c197 53 295 198 295 422v115h-291v-51h233v-67zM696 685h-57v-593h57v296h97v50h-97v247z" />
    <glyph glyph-name="_694" unicode="&#x326f;" 
d="M29 393c0 -253 200 -449 451 -449s451 196 451 449s-200 449 -451 449s-451 -196 -451 -449zM75 393c0 228 179 406 405 406s405 -178 405 -406s-179 -406 -405 -406s-405 178 -405 406zM479 134c65 0 124 18 161 46v-87h57v295h97v51h-97v247h-57v-452
c-35 -32 -92 -50 -155 -50h-195v485h-58v-535h247z" />
    <glyph glyph-name="_695" unicode="&#x3270;" 
d="M29 393c0 -253 200 -449 451 -449s451 196 451 449s-200 449 -451 449s-451 -196 -451 -449zM75 393c0 228 179 406 405 406s405 -178 405 -406s-179 -406 -405 -406s-405 178 -405 406zM488 134c62 0 117 16 152 41v-82h57v295h97v51h-97v247h-57v-457
c-32 -29 -86 -45 -146 -45h-204v431h228v50h-286v-531h256z" />
    <glyph glyph-name="_696" unicode="&#x3271;" 
d="M29 393c0 -253 200 -449 451 -449s451 196 451 449s-200 449 -451 449s-451 -196 -451 -449zM75 393c0 228 179 406 405 406s405 -178 405 -406s-179 -406 -405 -406s-405 178 -405 406zM488 134c62 0 117 17 152 41v-82h57v295h97v51h-97v247h-57v-457
c-32 -29 -86 -45 -146 -45h-204v193h221v288h-279v-50h222v-187h-222v-294h256z" />
    <glyph glyph-name="_697" unicode="&#x3272;" 
d="M28 393c0 -254 200 -449 452 -449c251 0 451 195 451 449c0 253 -200 449 -451 449c-252 0 -452 -196 -452 -449zM75 393c0 227 178 406 405 406c225 0 404 -179 404 -406c0 -228 -179 -406 -404 -406c-226 0 -405 178 -405 406zM523 134v531h-291v-531h291zM465 183
h-176v431h176v-431zM696 685h-57v-593h57v296h97v50h-97v247z" />
    <glyph glyph-name="_698" unicode="&#x3273;" 
d="M28 393c0 -254 200 -449 452 -449c251 0 451 195 451 449c0 253 -200 449 -451 449c-252 0 -452 -196 -452 -449zM75 393c0 227 178 406 405 406c225 0 404 -179 404 -406c0 -228 -179 -406 -404 -406c-226 0 -405 178 -405 406zM465 665v-213h-176v213h-57v-531h291v531
h-58zM289 183v219h176v-219h-176zM793 438h-97v247h-57v-593h57v296h97v50z" />
    <glyph glyph-name="_699" unicode="&#x3274;" 
d="M28 393c0 -254 200 -449 452 -449c251 0 451 195 451 449c0 253 -200 449 -451 449c-252 0 -452 -196 -452 -449zM75 393c0 227 178 406 405 406c225 0 404 -179 404 -406c0 -228 -179 -406 -404 -406c-226 0 -405 178 -405 406zM556 129v53c-74 37 -146 103 -146 257
v229h-59v-229c0 -154 -72 -223 -145 -257v-53c80 32 148 91 175 165c27 -73 95 -131 175 -165zM696 685h-57v-593h57v296h97v50h-97v247z" />
    <glyph glyph-name="_700" unicode="&#x3275;" 
d="M28 393c0 -254 200 -449 452 -449c251 0 451 195 451 449c0 253 -200 449 -451 449c-252 0 -452 -196 -452 -449zM75 393c0 227 178 406 405 406c225 0 404 -179 404 -406c0 -228 -179 -406 -404 -406c-226 0 -405 178 -405 406zM696 685h-57v-593h57v296h97v50h-97v247z
M282 400c0 89 10 170 48 206c13 12 30 19 50 19c18 0 34 -6 46 -16c41 -34 52 -117 52 -209c0 -94 -12 -178 -54 -211c-12 -10 -26 -15 -44 -15c-19 0 -34 6 -47 17c-40 35 -51 118 -51 209zM224 400c0 -115 21 -207 75 -249c21 -17 48 -26 81 -26c30 0 55 7 75 21
c59 40 81 134 81 254s-22 213 -80 253c-21 14 -46 22 -76 22c-31 0 -57 -9 -78 -24c-57 -41 -78 -134 -78 -251z" />
    <glyph glyph-name="_701" unicode="&#x3276;" 
d="M28 393c0 -254 200 -449 452 -449c251 0 451 195 451 449c0 253 -200 449 -451 449c-252 0 -452 -196 -452 -449zM75 393c0 227 178 406 405 406c225 0 404 -179 404 -406c0 -228 -179 -406 -404 -406c-226 0 -405 178 -405 406zM224 665v-51h134v-182
c0 -139 -73 -218 -140 -250v-53c75 32 140 95 169 164c27 -69 89 -130 168 -164v53c-68 34 -140 111 -140 250v182h134v51h-325zM696 685h-57v-593h57v296h97v50h-97v247z" />
    <glyph glyph-name="_702" unicode="&#x3277;" 
d="M28 393c0 -254 200 -449 452 -449c251 0 451 195 451 449c0 253 -200 449 -451 449c-252 0 -452 -196 -452 -449zM75 393c0 227 178 406 405 406c225 0 404 -179 404 -406c0 -228 -179 -406 -404 -406c-226 0 -405 178 -405 406zM415 593v100h-57v-100h-134v-49h134v-112
c0 -139 -73 -218 -140 -250v-53c75 32 140 95 169 164c27 -69 89 -130 168 -164v53c-68 34 -140 111 -140 250v112h134v49h-134zM696 685h-57v-593h57v296h97v50h-97v247z" />
    <glyph glyph-name="_703" unicode="&#x3278;" 
d="M28 393c0 -254 200 -449 452 -449c251 0 451 195 451 449c0 253 -200 449 -451 449c-252 0 -452 -196 -452 -449zM75 393c0 227 178 406 405 406c225 0 404 -179 404 -406c0 -228 -179 -406 -404 -406c-226 0 -405 178 -405 406zM335 399c41 0 84 5 115 14
c-28 -119 -103 -196 -222 -232v-52c197 52 295 197 295 421v115h-291v-51h233v-67c0 -29 -1 -57 -4 -83c-30 -9 -78 -15 -125 -15h-108v-50h107zM696 685h-57v-593h57v296h97v50h-97v247z" />
    <glyph glyph-name="_704" unicode="&#x3279;" 
d="M29 393c0 -253 200 -449 451 -449s451 196 451 449s-200 449 -451 449s-451 -196 -451 -449zM75 393c0 228 179 406 405 406s405 -178 405 -406s-179 -406 -405 -406s-405 178 -405 406zM290 615h233v50h-291v-530h256c61 0 117 16 152 40v-82h57v295h97v51h-97v247h-57
v-457c-35 -31 -98 -45 -166 -45h-184v193h221v51h-221v187z" />
    <glyph glyph-name="_705" unicode="&#x327a;" 
d="M28 393c0 -254 200 -449 452 -449c251 0 451 195 451 449c0 253 -200 449 -451 449c-252 0 -452 -196 -452 -449zM75 393c0 227 178 406 405 406c225 0 404 -179 404 -406c0 -228 -179 -406 -404 -406c-226 0 -405 178 -405 406zM451 342c0 -56 -4 -118 -13 -159h-93v431
h106v-272zM217 183v-49h281c56 0 108 12 141 36v-78h57v296h97v50h-97v247h-57v-461c-29 -27 -79 -41 -136 -41h-9c8 45 13 114 13 178v253h66v51h-349v-51h64v-431h-71z" />
    <glyph glyph-name="_706" unicode="&#x327b;" 
d="M28 393c0 -254 200 -449 452 -449c251 0 451 195 451 449c0 253 -200 449 -451 449c-252 0 -452 -196 -452 -449zM75 393c0 227 178 406 405 406c225 0 404 -179 404 -406c0 -228 -179 -406 -404 -406c-226 0 -405 178 -405 406zM206 550h350v51h-147v94h-57v-94h-146
v-51zM232 312c0 -72 19 -123 52 -154c25 -24 59 -35 98 -35c36 0 68 9 92 29c37 30 58 82 58 160c0 74 -19 125 -53 156c-25 23 -58 34 -97 34c-37 0 -69 -11 -94 -33c-35 -31 -56 -82 -56 -157zM289 312c0 56 12 94 34 116c15 15 35 23 59 23c25 0 46 -8 61 -25
c21 -22 32 -60 32 -114c0 -56 -12 -96 -35 -118c-15 -14 -34 -21 -58 -21s-44 7 -59 22c-22 22 -34 61 -34 117zM696 685h-57v-593h57v296h97v50h-97v247z" />
    <glyph glyph-name="_707" unicode="&#x24d0;" 
d="M29 393c0 -253 200 -449 451 -449s451 196 451 449s-200 449 -451 449s-451 -196 -451 -449zM75 393c0 228 179 406 405 406s405 -178 405 -406s-179 -406 -405 -406s-405 178 -405 406zM593 187h60c-7 18 -12 42 -12 61v207c0 92 -56 152 -163 152
c-103 0 -156 -54 -163 -136h60c5 51 37 85 103 85c68 0 104 -39 104 -100v-53c-23 25 -65 41 -121 41c-102 0 -162 -51 -162 -133c0 -84 60 -134 162 -134c58 0 99 16 122 42c1 -11 5 -23 10 -32zM582 311c0 -51 -37 -83 -112 -83s-111 32 -111 83c0 49 36 82 111 82
s112 -33 112 -82z" />
    <glyph glyph-name="_708" unicode="&#x24d1;" 
d="M28 393c0 -254 200 -449 452 -449c251 0 451 195 451 449c0 253 -200 449 -451 449c-252 0 -452 -196 -452 -449zM75 393c0 227 178 406 405 406c225 0 404 -179 404 -406c0 -228 -179 -406 -404 -406c-226 0 -405 178 -405 406zM686 331c0 140 -59 215 -170 215
c-56 0 -99 -23 -122 -60v210h-60v-570h60v50c23 -35 67 -60 122 -60c111 0 170 75 170 215zM627 331c0 -103 -34 -164 -116 -164c-84 0 -117 61 -117 164s33 164 117 164c82 0 116 -61 116 -164z" />
    <glyph glyph-name="_709" unicode="&#x24d2;" 
d="M29 393c0 -253 200 -449 451 -449s451 196 451 449s-200 449 -451 449s-451 -196 -451 -449zM75 393c0 228 179 406 405 406s405 -178 405 -406s-179 -406 -405 -406s-405 178 -405 406zM305 392c0 -135 56 -215 175 -215c99 0 159 55 170 150h-60
c-8 -62 -45 -99 -110 -99c-83 0 -116 60 -116 164c0 103 33 164 116 164c65 0 102 -37 110 -98h60c-11 94 -71 149 -170 149c-119 0 -175 -79 -175 -215z" />
    <glyph glyph-name="_710" unicode="&#x24d3;" 
d="M28 393c0 -254 200 -449 452 -449c251 0 451 195 451 449c0 253 -200 449 -451 449c-252 0 -452 -196 -452 -449zM75 393c0 227 178 406 405 406c225 0 404 -179 404 -406c0 -228 -179 -406 -404 -406c-226 0 -405 178 -405 406zM269 334c0 -140 58 -215 170 -215
c55 0 98 24 122 60v-51h59v570h-59v-210c-23 38 -66 60 -122 60c-112 0 -170 -74 -170 -214zM561 334c0 -104 -33 -164 -117 -164c-83 0 -116 60 -116 164c0 103 33 164 116 164c84 0 117 -61 117 -164z" />
    <glyph glyph-name="_711" unicode="&#x24d4;" 
d="M28 393c0 -254 200 -449 452 -449c251 0 451 195 451 449c0 253 -200 449 -451 449c-252 0 -452 -196 -452 -449zM75 393c0 227 178 406 405 406c225 0 404 -179 404 -406c0 -228 -179 -406 -404 -406c-226 0 -405 178 -405 406zM587 317c-10 -53 -51 -88 -107 -88
c-78 0 -114 53 -117 145h292c0 147 -49 233 -176 233c-119 0 -175 -79 -175 -214c0 -136 56 -215 176 -215c94 0 152 52 168 139h-61zM479 557c75 0 111 -50 116 -135h-232c5 86 41 135 116 135z" />
    <glyph glyph-name="_712" unicode="&#x24d5;" 
d="M29 393c0 -253 200 -449 451 -449s451 196 451 449s-200 449 -451 449s-451 -196 -451 -449zM75 393c0 228 179 406 405 406s405 -178 405 -406s-179 -406 -405 -406s-405 178 -405 406zM591 625v49c-17 2 -33 3 -47 3c-92 0 -126 -30 -126 -119v-46h-60v-51h60v-360h59
v360h114v51h-114v43c0 53 16 70 70 70h44z" />
    <glyph glyph-name="_713" unicode="&#x24d6;" 
d="M28 393c0 -254 200 -449 452 -449c251 0 451 195 451 449c0 253 -200 449 -451 449c-252 0 -452 -196 -452 -449zM75 393c0 227 178 406 405 406c225 0 404 -179 404 -406c0 -228 -179 -406 -404 -406c-226 0 -405 178 -405 406zM587 469c0 -103 -34 -164 -117 -164
s-116 61 -116 164s33 165 116 165s117 -62 117 -165zM317 211c10 -79 67 -131 163 -131c113 0 166 70 166 168v427h-59v-51c-23 37 -66 60 -122 60c-111 0 -170 -75 -170 -215c0 -139 59 -214 170 -214c57 0 98 22 122 59v-69c0 -72 -39 -115 -107 -115
c-58 0 -96 31 -103 81h-60z" />
    <glyph glyph-name="_714" unicode="&#x24d7;" 
d="M28 393c0 -254 200 -449 452 -449c251 0 451 195 451 449c0 253 -200 449 -451 449c-252 0 -452 -196 -452 -449zM75 393c0 227 178 406 405 406c225 0 404 -179 404 -406c0 -228 -179 -406 -404 -406c-226 0 -405 178 -405 406zM390 123v175c0 123 40 194 121 194
c63 0 96 -39 96 -126v-243h59v252c0 107 -52 168 -146 168c-61 0 -105 -26 -130 -70v220h-59v-570h59z" />
    <glyph glyph-name="_715" unicode="&#x24d8;" 
d="M29 393c0 -253 200 -449 451 -449s451 196 451 449s-200 449 -451 449s-451 -196 -451 -449zM75 393c0 228 179 406 405 406s405 -178 405 -406s-179 -406 -405 -406s-405 178 -405 406zM510 113v411h-60v-411h60zM510 596v87h-60v-87h60z" />
    <glyph glyph-name="_716" unicode="&#x24d9;" 
d="M29 393c0 -253 200 -449 451 -449s451 196 451 449s-200 449 -451 449s-451 -196 -451 -449zM75 393c0 228 179 406 405 406s405 -178 405 -406s-179 -406 -405 -406s-405 178 -405 406zM534 565h-59v-401c0 -41 -19 -57 -52 -57h-28v-49c7 -1 22 -2 31 -2
c72 0 108 35 108 110v399zM534 638v86h-59v-86h59z" />
    <glyph glyph-name="_717" unicode="&#x24da;" 
d="M29 393c0 -253 200 -449 451 -449s451 196 451 449s-200 449 -451 449s-451 -196 -451 -449zM75 393c0 228 179 406 405 406s405 -178 405 -406s-179 -406 -405 -406s-405 178 -405 406zM416 130v189h39l155 -189h72l-176 213l158 198h-69l-139 -171h-40v330h-60v-570h60
z" />
    <glyph glyph-name="_718" unicode="&#x24db;" 
d="M29 393c0 -253 200 -449 451 -449s451 196 451 449s-200 449 -451 449s-451 -196 -451 -449zM75 393c0 228 179 406 405 406s405 -178 405 -406s-179 -406 -405 -406s-405 178 -405 406zM513 108v570h-59v-570h59z" />
    <glyph glyph-name="_719" unicode="&#x24dc;" 
d="M28 393c0 -254 200 -449 452 -449c251 0 451 195 451 449c0 253 -200 449 -451 449c-252 0 -452 -196 -452 -449zM75 393c0 227 178 406 405 406c225 0 404 -179 404 -406c0 -228 -179 -406 -404 -406c-226 0 -405 178 -405 406zM705 186h59v270c0 94 -50 150 -135 150
c-61 0 -106 -33 -129 -82c-18 53 -63 82 -122 82c-53 0 -92 -24 -115 -68v59h-60v-411h60v206c0 107 47 164 106 164c54 0 85 -35 85 -101v-269h59v206c0 106 48 164 107 164c55 0 85 -35 85 -101v-269z" />
    <glyph glyph-name="_720" unicode="&#x24dd;" 
d="M28 393c0 -254 200 -449 452 -449c251 0 451 195 451 449c0 253 -200 449 -451 449c-252 0 -452 -196 -452 -449zM75 393c0 227 178 406 405 406c225 0 404 -179 404 -406c0 -228 -179 -406 -404 -406c-226 0 -405 178 -405 406zM376 186v210c0 101 54 159 121 159
c71 0 97 -46 97 -157v-212h58v252c0 107 -52 168 -145 168c-61 0 -106 -26 -131 -70v61h-59v-411h59z" />
    <glyph glyph-name="_721" unicode="&#x24de;" 
d="M29 393c0 -253 200 -449 451 -449s451 196 451 449s-200 449 -451 449s-451 -196 -451 -449zM75 393c0 228 179 406 405 406s405 -178 405 -406s-179 -406 -405 -406s-405 178 -405 406zM656 393c0 136 -56 215 -176 215c-119 0 -175 -79 -175 -215
c0 -134 56 -214 175 -214c120 0 176 80 176 214zM597 393c0 -103 -33 -164 -117 -164c-83 0 -116 61 -116 164s33 165 116 165c84 0 117 -62 117 -165z" />
    <glyph glyph-name="_722" unicode="&#x24df;" 
d="M28 393c0 -254 200 -449 452 -449c251 0 451 195 451 449c0 253 -200 449 -451 449c-252 0 -452 -196 -452 -449zM75 393c0 227 178 406 405 406c225 0 404 -179 404 -406c0 -228 -179 -406 -404 -406c-226 0 -405 178 -405 406zM688 457c0 140 -59 215 -171 215
c-55 0 -99 -23 -122 -60v51h-59v-584h59v223c24 -38 66 -60 122 -60c112 0 171 76 171 215zM628 457c0 -104 -34 -164 -116 -164c-84 0 -117 60 -117 164c0 103 33 164 117 164c82 0 116 -61 116 -164z" />
    <glyph glyph-name="_723" unicode="&#x24e0;" 
d="M28 393c0 -254 200 -449 452 -449c251 0 451 195 451 449c0 253 -200 449 -451 449c-252 0 -452 -196 -452 -449zM75 393c0 227 178 406 405 406c225 0 404 -179 404 -406c0 -228 -179 -406 -404 -406c-226 0 -405 178 -405 406zM274 457c0 -139 59 -215 170 -215
c57 0 98 22 122 60v-223h59v584h-59v-51c-23 37 -66 60 -122 60c-111 0 -170 -75 -170 -215zM566 457c0 -104 -34 -164 -117 -164s-116 60 -116 164c0 103 33 164 116 164s117 -61 117 -164z" />
    <glyph glyph-name="_724" unicode="&#x24e1;" 
d="M29 393c0 -253 200 -449 451 -449s451 196 451 449s-200 449 -451 449s-451 -196 -451 -449zM75 393c0 228 179 406 405 406s405 -178 405 -406s-179 -406 -405 -406s-405 178 -405 406zM564 545c12 0 25 0 37 -1l1 47c-13 6 -25 6 -37 6c-53 0 -91 -21 -111 -61v52h-60
v-411h60v208c0 110 43 160 110 160z" />
    <glyph glyph-name="_725" unicode="&#x24e2;" 
d="M29 393c0 -253 200 -449 451 -449s451 196 451 449s-200 449 -451 449s-451 -196 -451 -449zM75 393c0 228 179 406 405 406s405 -178 405 -406s-179 -406 -405 -406s-405 178 -405 406zM479 608c-95 0 -148 -51 -148 -116c0 -64 36 -98 124 -115c10 -1 43 -8 53 -10
c52 -11 77 -30 77 -68c0 -43 -41 -70 -99 -70c-57 0 -98 27 -98 71v21h-59v-21c0 -73 64 -122 157 -122c95 0 158 50 158 122c0 66 -37 102 -121 118c-10 2 -42 9 -52 11c-57 11 -81 29 -81 63c0 38 33 66 89 66c59 0 90 -28 90 -65v-20h60v19c0 66 -54 116 -150 116z" />
    <glyph glyph-name="_726" unicode="&#x24e3;" 
d="M29 393c0 -253 200 -449 451 -449s451 196 451 449s-200 449 -451 449s-451 -196 -451 -449zM75 393c0 228 179 406 405 406s405 -178 405 -406s-179 -406 -405 -406s-405 178 -405 406zM473 505h122v51h-122v112h-60v-112h-59v-51h59v-249c0 -89 41 -117 129 -117
c15 0 33 0 53 2v49h-47c-49 0 -75 13 -75 72v243z" />
    <glyph glyph-name="_727" unicode="&#x24e4;" 
d="M28 393c0 -254 200 -449 452 -449c251 0 451 195 451 449c0 253 -200 449 -451 449c-252 0 -452 -196 -452 -449zM75 393c0 227 178 406 405 406c225 0 404 -179 404 -406c0 -228 -179 -406 -404 -406c-226 0 -405 178 -405 406zM361 591h-59v-252
c0 -106 52 -168 146 -168c61 0 105 26 130 70v-61h59v411h-59v-210c0 -102 -54 -159 -121 -159c-63 0 -96 39 -96 126v243z" />
    <glyph glyph-name="_728" unicode="&#x24e5;" 
d="M28 393c0 -254 200 -449 452 -449c251 0 451 195 451 449c0 253 -200 449 -451 449c-252 0 -452 -196 -452 -449zM75 393c0 227 178 406 405 406c225 0 404 -179 404 -406c0 -228 -179 -406 -404 -406c-226 0 -405 178 -405 406zM443 166h61l162 411h-63l-129 -331
l-130 331h-63z" />
    <glyph glyph-name="_729" unicode="&#x24e6;" 
d="M29 393c0 -253 200 -449 451 -449s451 196 451 449s-200 449 -451 449s-451 -196 -451 -449zM75 393c0 228 179 406 405 406s405 -178 405 -406s-179 -406 -405 -406s-405 178 -405 406zM450 585l-110 -322l-108 322h-62l141 -411h59l108 323l110 -323h59l141 411h-63
l-108 -323l-109 323h-58z" />
    <glyph glyph-name="_730" unicode="&#x24e7;" 
d="M29 393c0 -253 200 -449 451 -449s451 196 451 449s-200 449 -451 449s-451 -196 -451 -449zM75 393c0 228 179 406 405 406s405 -178 405 -406s-179 -406 -405 -406s-405 178 -405 406zM602 182h67l-152 210l145 201h-68l-113 -156l-113 156h-67l145 -200l-153 -211h67
l121 167z" />
    <glyph glyph-name="_731" unicode="&#x24e8;" 
d="M29 393c0 -253 200 -449 451 -449s451 196 451 449s-200 449 -451 449s-451 -196 -451 -449zM75 393c0 228 179 406 405 406s405 -178 405 -406s-179 -406 -405 -406s-405 178 -405 406zM424 154c-15 -37 -31 -45 -60 -45h-24v-50c11 -1 17 -1 28 -1c52 0 84 16 109 79
l203 505h-63l-130 -330l-130 330h-63l163 -405z" />
    <glyph glyph-name="_732" unicode="&#x24e9;" 
d="M29 393c0 -253 200 -449 451 -449s451 196 451 449s-200 449 -451 449s-451 -196 -451 -449zM75 393c0 228 179 406 405 406s405 -178 405 -406s-179 -406 -405 -406s-405 178 -405 406zM624 598h-290v-50h215l-221 -318v-43h302v51h-228l222 318v42z" />
    <glyph glyph-name="_733" unicode="&#x2460;" 
d="M29 393c0 -253 200 -449 451 -449s451 196 451 449s-200 449 -451 449s-451 -196 -451 -449zM75 393c0 228 179 406 405 406s405 -178 405 -406s-179 -406 -405 -406s-405 178 -405 406zM532 117v560h-48l-153 -69v-59l142 62v-494h59z" />
    <glyph glyph-name="_734" unicode="&#x2461;" 
d="M29 393c0 -253 200 -449 451 -449s451 196 451 449s-200 449 -451 449s-451 -196 -451 -449zM75 393c0 228 179 406 405 406s405 -178 405 -406s-179 -406 -405 -406s-405 178 -405 406zM648 529c0 91 -59 167 -169 167c-109 0 -168 -76 -168 -167v-22h60v22
c0 65 39 115 108 115s109 -50 109 -115c0 -35 -13 -65 -43 -100l-225 -256v-46h335v53h-254l191 216c43 48 56 84 56 133z" />
    <glyph glyph-name="_735" unicode="&#x2462;" 
d="M28 393c0 -254 200 -449 452 -449c251 0 451 195 451 449c0 253 -200 449 -451 449c-252 0 -452 -196 -452 -449zM75 393c0 227 178 406 405 406c225 0 404 -179 404 -406c0 -228 -179 -406 -404 -406c-226 0 -405 178 -405 406zM600 277c0 -71 -48 -113 -116 -113
c-71 0 -118 48 -118 130h-59c0 -113 65 -183 177 -183c105 0 176 64 176 166c0 73 -37 121 -90 141c47 21 74 66 74 125c0 82 -61 146 -160 146c-101 0 -161 -64 -161 -146v-20h60v17c0 57 38 96 101 96c60 0 100 -39 100 -96c0 -52 -31 -97 -94 -97h-64v-52h62
c70 0 112 -45 112 -114z" />
    <glyph glyph-name="_736" unicode="&#x2463;" 
d="M29 393c0 -253 200 -449 451 -449s451 196 451 449s-200 449 -451 449s-451 -196 -451 -449zM75 393c0 228 179 406 405 406s405 -178 405 -406s-179 -406 -405 -406s-405 178 -405 406zM350 301l165 273v-273h-165zM651 301h-76v380h-61l-235 -385v-48h236v-126h60v126
h76v53z" />
    <glyph glyph-name="_737" unicode="&#x2464;" 
d="M29 393c0 -253 200 -449 451 -449s451 196 451 449s-200 449 -451 449s-451 -196 -451 -449zM75 393c0 228 179 406 405 406s405 -178 405 -406s-179 -406 -405 -406s-405 178 -405 406zM484 430c72 0 112 -50 112 -136c0 -88 -40 -137 -112 -137c-63 0 -104 39 -112 115
h-59c9 -104 71 -167 171 -167c106 0 172 68 172 187c0 124 -66 190 -165 190c-45 0 -76 -13 -98 -40l9 179h224v53h-280l-14 -313h56c19 45 54 69 96 69z" />
    <glyph glyph-name="_738" unicode="&#x2465;" 
d="M28 393c0 -254 200 -449 452 -449c251 0 451 195 451 449c0 253 -200 449 -451 449c-252 0 -452 -196 -452 -449zM75 393c0 227 178 406 405 406c225 0 404 -179 404 -406c0 -228 -179 -406 -404 -406c-226 0 -405 178 -405 406zM642 540c-12 97 -72 145 -160 145
c-125 0 -176 -76 -176 -330c0 -153 51 -247 175 -247c105 0 175 71 175 189c0 116 -67 187 -171 187c-53 0 -94 -22 -118 -56c4 148 37 205 113 205c54 0 92 -30 100 -93h62zM481 160c-68 0 -115 50 -115 137c0 85 47 135 115 135c70 0 115 -50 115 -135
c0 -87 -45 -137 -115 -137z" />
    <glyph glyph-name="_739" unicode="&#x2466;" 
d="M29 393c0 -253 200 -449 451 -449s451 196 451 449s-200 449 -451 449s-451 -196 -451 -449zM75 393c0 228 179 406 405 406s405 -178 405 -406s-179 -406 -405 -406s-405 178 -405 406zM314 598h271l-196 -507h63l197 517v42h-335v-52z" />
    <glyph glyph-name="_740" unicode="&#x2467;" 
d="M29 393c0 -253 200 -449 451 -449s451 196 451 449s-200 449 -451 449s-451 -196 -451 -449zM75 393c0 228 179 406 405 406s405 -178 405 -406s-179 -406 -405 -406s-405 178 -405 406zM481 107c110 0 185 61 185 163c0 71 -37 121 -96 143c49 22 79 68 79 125
c0 87 -64 147 -168 147c-103 0 -168 -60 -168 -147c0 -57 29 -104 78 -126c-60 -21 -94 -70 -94 -142c0 -102 74 -163 184 -163zM590 535c0 -60 -45 -97 -109 -97s-108 37 -108 97c0 59 44 98 108 98s109 -39 109 -98zM356 272c0 71 52 113 125 113s125 -42 125 -113
s-52 -112 -125 -112s-125 41 -125 112z" />
    <glyph glyph-name="_741" unicode="&#x2468;" 
d="M28 393c0 -254 200 -449 452 -449c251 0 451 195 451 449c0 253 -200 449 -451 449c-252 0 -452 -196 -452 -449zM75 393c0 227 178 406 405 406c225 0 404 -179 404 -406c0 -228 -179 -406 -404 -406c-226 0 -405 178 -405 406zM315 249c12 -97 72 -146 161 -146
c124 0 175 80 175 330c0 160 -52 248 -175 248c-104 0 -175 -71 -175 -189c0 -116 68 -188 171 -188c53 0 95 22 118 56c-6 -147 -36 -204 -113 -204c-53 0 -92 29 -100 93h-62zM476 628c68 0 115 -50 115 -136c0 -85 -47 -136 -115 -136c-70 0 -115 51 -115 136
c0 86 45 136 115 136z" />
    <glyph glyph-name="_742" unicode="&#x2469;" 
d="M29 393c0 -253 200 -449 451 -449s451 196 451 449s-200 449 -451 449s-451 -196 -451 -449zM75 393c0 228 179 406 405 406s405 -178 405 -406s-179 -406 -405 -406s-405 178 -405 406zM354 128v531h-47l-123 -66v-62l110 59v-462h60zM516 395c0 103 7 169 36 198
c12 15 31 24 53 24s40 -9 52 -24c29 -29 37 -95 37 -198s-8 -169 -37 -198c-12 -15 -30 -24 -52 -24s-41 9 -53 24c-29 29 -36 95 -36 198zM456 395c0 -128 17 -206 64 -243c21 -20 50 -31 85 -31s63 11 84 31c48 37 64 115 64 243s-16 206 -64 243c-21 20 -49 31 -84 31
s-64 -11 -85 -31c-47 -37 -64 -115 -64 -243z" />
    <glyph glyph-name="_743" unicode="&#x246a;" 
d="M29 393c0 -253 200 -449 451 -449s451 196 451 449s-200 449 -451 449s-451 -196 -451 -449zM75 393c0 228 179 406 405 406s405 -178 405 -406s-179 -406 -405 -406s-405 178 -405 406zM384 128v531h-47l-123 -66v-62l110 59v-462h60zM677 128v531h-47l-123 -66v-62
l111 59v-462h59z" />
    <glyph glyph-name="_744" unicode="&#x246b;" 
d="M29 393c0 -253 200 -449 451 -449s451 196 451 449s-200 449 -451 449s-451 -196 -451 -449zM75 393c0 228 179 406 405 406s405 -178 405 -406s-179 -406 -405 -406s-405 178 -405 406zM354 128v531h-47l-123 -66v-62l110 59v-462h60zM737 513c0 86 -49 159 -139 159
c-89 0 -138 -73 -138 -159v-23h60v23c0 60 28 106 78 106s80 -45 80 -106c0 -34 -10 -62 -33 -94l-178 -243v-44h276v53h-199l149 201c33 46 44 81 44 127z" />
    <glyph glyph-name="_745" unicode="&#x246c;" 
d="M28 393c0 -254 200 -449 452 -449c251 0 451 195 451 449c0 253 -200 449 -451 449c-252 0 -452 -196 -452 -449zM75 393c0 227 178 406 405 406c225 0 404 -179 404 -406c0 -228 -179 -406 -404 -406c-226 0 -405 178 -405 406zM353 128v531h-46
c-42 -22 -82 -45 -124 -67v-61c37 20 74 39 111 59v-462h59zM681 278c0 -65 -36 -106 -85 -106c-54 0 -86 45 -86 123h-59c0 -109 53 -175 145 -175c86 0 144 60 144 157c0 69 -30 115 -72 134c37 19 59 63 59 118c0 78 -49 139 -131 139c-83 0 -132 -61 -132 -139v-21h59
v18c0 52 28 89 73 89c43 0 72 -37 72 -89c0 -48 -22 -90 -67 -90h-56v-52h54c51 0 82 -41 82 -106z" />
    <glyph glyph-name="_746" unicode="&#x246d;" 
d="M29 393c0 -253 200 -449 451 -449s451 196 451 449s-200 449 -451 449s-451 -196 -451 -449zM75 393c0 228 179 406 405 406s405 -178 405 -406s-179 -406 -405 -406s-405 178 -405 406zM354 128v531h-47l-123 -66v-62l110 59v-462h60zM506 298l122 233v-233h-122z
M747 298h-60v359h-58l-190 -367v-45h189v-119h59v119h60v53z" />
    <glyph glyph-name="_747" unicode="&#x246e;" 
d="M29 393c0 -253 200 -449 451 -449s451 196 451 449s-200 449 -451 449s-451 -196 -451 -449zM75 393c0 228 179 406 405 406s405 -178 405 -406s-179 -406 -405 -406s-405 178 -405 406zM354 128v531h-47l-123 -66v-62l110 59v-462h60zM597 424c53 0 82 -45 82 -126
c0 -82 -29 -128 -82 -128c-46 0 -76 37 -82 109h-59c8 -101 58 -161 141 -161c87 0 141 66 141 179c0 117 -54 180 -135 180c-29 0 -54 -12 -71 -30l7 159h176v52h-233l-11 -299h56c14 43 40 65 70 65z" />
    <glyph glyph-name="_748" unicode="&#xbd;" 
d="M224 266v517h-49l-116 -55v-51l109 52v-463h56zM650 783h-56l-380 -780h55zM841 370c0 -37 -12 -61 -37 -89l-213 -235v-43h305v49h-230l176 193c39 43 55 76 55 126c0 94 -61 158 -159 158c-97 0 -158 -64 -158 -158v-15h57v14c0 60 36 108 101 108
c67 0 103 -48 103 -108z" />
    <glyph glyph-name="_749" unicode="&#x2153;" 
d="M838 389c0 -59 -41 -91 -95 -91h-48v-48h48c62 0 107 -38 107 -104c0 -59 -42 -104 -110 -104s-110 45 -110 105v22h-56v-22c0 -83 57 -153 166 -153c107 0 167 68 167 151c0 71 -38 114 -99 131c62 17 85 67 85 117c0 79 -60 136 -153 136c-94 0 -153 -59 -153 -137v-15
h55v11c0 56 39 93 98 93s98 -35 98 -92zM224 266v517h-49l-116 -55v-51l109 52v-463h56zM650 783h-56l-380 -780h55z" />
    <glyph glyph-name="_750" unicode="&#x2154;" 
d="M297 633c0 -37 -11 -61 -36 -89l-213 -235v-43h305v49h-230l176 193c39 43 55 75 55 126c0 94 -61 158 -158 158c-99 0 -159 -64 -159 -158v-16h57v15c0 60 36 108 102 108s101 -48 101 -108zM694 783h-56l-380 -780h55zM858 389c0 -59 -41 -91 -95 -91h-48v-48h48
c62 0 107 -38 107 -104c0 -59 -42 -104 -110 -104s-110 45 -110 105v22h-56v-22c0 -83 57 -153 166 -153c107 0 167 68 167 151c0 71 -38 114 -99 131c62 17 85 67 85 117c0 79 -60 136 -153 136c-94 0 -153 -59 -153 -137v-15h55v11c0 56 39 93 98 93s98 -35 98 -92z" />
    <glyph glyph-name="_751" unicode="&#xbc;" 
d="M612 161l184 276v-276h-184zM911 161h-60v359h-61l-239 -363v-44h245v-110h55v110h60v48zM224 266v517h-49l-116 -55v-51l109 52v-463h56zM660 783h-56l-380 -780h55z" />
    <glyph glyph-name="_752" unicode="&#xbe;" 
d="M292 651c0 -59 -41 -90 -95 -90h-47v-48h47c62 0 107 -37 107 -104c0 -60 -42 -104 -110 -104s-110 44 -110 105v22h-56v-22c0 -84 57 -153 166 -153c107 0 166 69 166 151c0 71 -37 114 -98 130c62 18 85 68 85 117c0 80 -60 137 -153 137c-94 0 -153 -59 -153 -137v-15
h55v11c0 56 38 92 98 92s98 -35 98 -92zM705 783h-55l-380 -780h55zM612 161l184 276v-276h-184zM911 161h-60v359h-61l-239 -363v-44h245v-110h55v110h60v48z" />
    <glyph glyph-name="_753" unicode="&#x215b;" 
d="M737 -7c107 0 172 62 172 152c0 66 -36 117 -100 134c56 16 86 62 86 115c0 78 -60 134 -158 134c-96 0 -157 -56 -157 -134c0 -53 31 -99 86 -115c-63 -17 -99 -68 -99 -134c0 -90 64 -152 170 -152zM737 254c68 0 116 -41 116 -107c0 -65 -48 -106 -116 -106
c-67 0 -114 41 -114 106c0 66 47 107 114 107zM737 302c-65 0 -101 38 -101 88c0 51 36 89 101 89c67 0 103 -38 103 -89c0 -50 -36 -88 -103 -88zM224 266v517h-49l-116 -55v-51l109 52v-463h56zM650 783h-56l-380 -780h55z" />
    <glyph glyph-name="_754" unicode="&#x215c;" 
d="M292 651c0 -59 -41 -90 -95 -90h-47v-48h47c62 0 107 -37 107 -104c0 -60 -42 -104 -110 -104s-110 44 -110 105v22h-56v-22c0 -84 57 -153 166 -153c107 0 166 69 166 151c0 71 -37 114 -98 130c62 18 85 68 85 117c0 80 -60 137 -153 137c-94 0 -153 -59 -153 -137v-15
h55v11c0 56 38 92 98 92s98 -35 98 -92zM690 783h-55l-380 -780h55zM757 -7c107 0 172 62 172 152c0 66 -36 117 -100 134c56 16 86 62 86 115c0 78 -60 134 -158 134c-96 0 -157 -56 -157 -134c0 -53 31 -99 86 -115c-63 -17 -99 -68 -99 -134c0 -90 64 -152 170 -152z
M757 254c68 0 116 -41 116 -107c0 -65 -48 -106 -116 -106c-67 0 -114 41 -114 106c0 66 47 107 114 107zM757 302c-65 0 -101 38 -101 88c0 51 36 89 101 89c67 0 103 -38 103 -89c0 -50 -36 -88 -103 -88z" />
    <glyph glyph-name="_755" unicode="&#x215d;" 
d="M34 411c6 -93 63 -153 160 -153c104 0 162 69 162 175c0 107 -50 177 -148 177c-48 0 -85 -20 -104 -52l9 176h217v49h-268l-13 -285h52c14 39 49 64 96 64c70 0 104 -49 104 -128c0 -80 -38 -126 -107 -127c-62 1 -99 39 -105 104h-55zM690 783h-55l-380 -780h55z
M757 -7c107 0 172 62 172 152c0 66 -36 117 -100 134c56 16 86 62 86 115c0 78 -60 134 -158 134c-96 0 -157 -56 -157 -134c0 -53 31 -99 86 -115c-63 -17 -99 -68 -99 -134c0 -90 64 -152 170 -152zM757 254c68 0 116 -41 116 -107c0 -65 -48 -106 -116 -106
c-67 0 -114 41 -114 106c0 66 47 107 114 107zM757 302c-65 0 -101 38 -101 88c0 51 36 89 101 89c67 0 103 -38 103 -89c0 -50 -36 -88 -103 -88z" />
    <glyph glyph-name="_756" unicode="&#x215e;" 
d="M34 734h261l-177 -468h59l177 474v43h-320v-49zM669 783h-56l-380 -780h55zM757 -7c107 0 172 62 172 152c0 66 -36 117 -100 134c56 16 86 62 86 115c0 78 -60 134 -158 134c-96 0 -157 -56 -157 -134c0 -53 31 -99 86 -115c-63 -17 -99 -68 -99 -134
c0 -90 64 -152 170 -152zM757 254c68 0 116 -41 116 -107c0 -65 -48 -106 -116 -106c-67 0 -114 41 -114 106c0 66 47 107 114 107zM757 302c-65 0 -101 38 -101 88c0 51 36 89 101 89c67 0 103 -38 103 -89c0 -50 -36 -88 -103 -88z" />
    <glyph glyph-name="_757" unicode="&#xe6;" horiz-adv-x="971" 
d="M445 167c0 -77 -56 -124 -167 -124s-166 47 -166 124c0 76 55 124 166 124s167 -48 167 -124zM681 520c114 0 167 -76 172 -207h-345c5 131 57 207 173 207zM288 572c-135 0 -207 -69 -215 -172h63c7 73 55 120 152 120c103 0 157 -59 157 -150v-104
c-24 48 -88 78 -181 78c-135 0 -214 -68 -214 -177c0 -108 78 -176 222 -176c114 0 185 42 213 114c32 -75 103 -114 197 -114c127 0 203 67 222 174h-63c-16 -77 -69 -122 -159 -122c-117 0 -175 80 -175 222h409v16c0 183 -75 291 -235 291c-96 0 -164 -41 -196 -122
c-25 78 -96 122 -197 122z" />
    <glyph glyph-name="_758" unicode="&#x111;" horiz-adv-x="595" 
d="M584 650v49h-65v83h-62v-83h-177v-49h177v-193c-25 72 -87 115 -181 115c-150 0 -227 -101 -227 -291c0 -189 77 -290 227 -290c94 0 156 44 181 114v-101h62v646h65zM457 281c0 -151 -50 -238 -173 -238c-124 0 -174 87 -174 238s50 239 174 239c123 0 173 -88 173 -239
z" />
    <glyph glyph-name="_759" unicode="&#xf0;" horiz-adv-x="569" 
d="M519 281c0 210 -37 342 -141 434l79 46l-22 36l-93 -56c-36 26 -81 47 -133 68l-38 -46c46 -17 84 -35 116 -55l-88 -51l22 -36l103 62c60 -44 97 -111 112 -191c-30 53 -87 80 -161 80c-148 0 -226 -101 -226 -291c0 -183 75 -290 235 -290c162 0 235 108 235 290z
M457 281c0 -151 -50 -238 -173 -238c-124 0 -174 87 -174 238s50 239 174 239c123 0 173 -88 173 -239z" />
    <glyph glyph-name="_760" unicode="&#x127;" horiz-adv-x="592" 
d="M136 4v284c2 147 78 232 180 232c94 0 145 -58 145 -187v-329h62v342c0 143 -68 226 -194 226c-100 0 -165 -51 -193 -131v209h178v49h-178v83h-61v-83h-65v-49h65v-646h61z" />
    <glyph glyph-name="_761" unicode="&#x131;" horiz-adv-x="214" 
d="M139 3v557h-63v-557h63z" />
    <glyph glyph-name="_762" unicode="&#x133;" horiz-adv-x="437" 
d="M139 3v557h-63v-557h63zM139 681v102h-63v-102h63zM361 560h-62v-658c0 -63 -29 -88 -82 -88h-30v-51c9 -1 24 -1 35 -1c93 0 139 45 139 144v654zM361 681v102h-62v-102h62z" />
    <glyph glyph-name="_763" unicode="&#x138;" horiz-adv-x="501" 
d="M133 3v265h71l217 -265h74l-238 291l213 266h-72l-194 -240h-71v240h-63v-557h63z" />
    <glyph glyph-name="_764" unicode="&#x140;" horiz-adv-x="297" 
d="M139 3v780h-63v-780h63zM287 461h-76v-77h76v77z" />
    <glyph glyph-name="_765" unicode="&#x142;" horiz-adv-x="287" 
d="M174 4v380l92 47v50l-92 -48v349h-62v-382l-92 -46v-50l92 46v-346h62z" />
    <glyph glyph-name="_766" unicode="&#xf8;" horiz-adv-x="569" 
d="M134 -39l32 57c32 -18 71 -27 118 -27c160 0 236 107 236 290c0 106 -26 187 -78 236l47 85h-55l-32 -57c-32 18 -71 27 -118 27c-160 0 -235 -108 -235 -291c0 -105 24 -186 77 -235l-47 -85h55zM111 281c0 151 49 239 173 239c37 0 67 -8 92 -23l-221 -397
c-30 41 -44 102 -44 181zM458 281c0 -151 -50 -238 -174 -238c-37 0 -67 8 -93 23l221 396c32 -40 46 -102 46 -181z" />
    <glyph glyph-name="_767" unicode="&#x153;" horiz-adv-x="989" 
d="M700 43c-120 0 -170 81 -176 222h409c1 5 1 11 1 16c0 183 -76 291 -235 291c-105 0 -176 -49 -206 -139c-30 90 -102 139 -206 139c-158 0 -233 -108 -233 -291s75 -290 233 -290c103 0 176 49 206 137c31 -88 101 -137 206 -137c127 0 203 67 223 174h-63
c-16 -77 -69 -122 -159 -122zM698 520c115 0 168 -76 173 -207h-346c5 131 57 207 173 207zM462 281c0 -151 -50 -238 -173 -238c-124 0 -174 87 -174 238s50 239 174 239c123 0 173 -88 173 -239z" />
    <glyph glyph-name="_768" unicode="&#xdf;" horiz-adv-x="630" 
d="M594 198c0 124 -93 187 -185 198c89 17 146 87 146 176c0 125 -88 224 -242 224c-156 0 -243 -98 -243 -230v-563h65v563c0 105 68 173 178 173c108 0 177 -69 177 -169c0 -75 -43 -146 -172 -146h-30v-56h24c134 0 218 -63 218 -168c0 -96 -65 -153 -173 -153
c-30 0 -68 4 -94 11v-57c28 -8 65 -11 97 -11c145 0 234 80 234 208z" />
    <glyph glyph-name="_769" unicode="&#xfe;" horiz-adv-x="590" 
d="M541 281c0 190 -79 291 -228 291c-94 0 -155 -43 -181 -115v325h-62v-1020h62v343c26 -70 87 -114 181 -114c149 0 228 101 228 290zM478 281c0 -151 -49 -238 -173 -238s-173 87 -173 238s49 239 173 239s173 -88 173 -239z" />
    <glyph glyph-name="_770" unicode="&#x167;" horiz-adv-x="380" 
d="M46 326v-49h64v-128c0 -116 54 -153 170 -153c19 0 42 0 63 2v50h-55c-77 0 -116 21 -116 108v121h144v49h-144v181h171v52h-171v158h-62v-158h-83v-52h83v-181h-64z" />
    <glyph glyph-name="_771" unicode="&#x14b;" horiz-adv-x="587" 
d="M132 4v284c0 147 78 232 179 232c96 0 145 -58 145 -187v-429c0 -64 -28 -90 -82 -90h-29v-49c9 -2 23 -3 34 -3c102 0 140 49 140 168v416c0 143 -69 226 -195 226c-99 0 -164 -51 -192 -131v118h-62v-555h62z" />
    <glyph glyph-name="_772" unicode="&#x149;" horiz-adv-x="602" 
d="M146 4v284c2 147 78 232 180 232c95 0 145 -58 145 -187v-329h62v342c0 143 -68 226 -194 226c-100 0 -164 -51 -193 -131v118h-62v-555h62zM32 674h27c0 -53 -17 -78 -49 -86v-39c58 14 89 46 89 120v113h-67v-108z" />
    <glyph glyph-name="_773" unicode="&#x3200;" 
d="M43 398c0 -151 56 -296 143 -418h49c-83 124 -138 272 -138 418c0 145 55 293 138 417h-49c-87 -122 -143 -267 -143 -417zM917 398c0 150 -56 295 -143 417h-49c83 -124 138 -272 138 -417c0 -146 -55 -294 -138 -418h49c87 122 143 267 143 418zM251 579v-53h388v-316
h60v369h-448z" />
    <glyph glyph-name="_774" unicode="&#x3201;" 
d="M707 210v54h-389v315h-60v-369h449zM43 398c0 -151 56 -296 143 -418h49c-83 124 -138 272 -138 418c0 145 55 293 138 417h-49c-87 -122 -143 -267 -143 -417zM917 398c0 150 -56 295 -143 417h-49c83 -124 138 -272 138 -417c0 -146 -55 -294 -138 -418h49
c87 122 143 267 143 418z" />
    <glyph glyph-name="_775" unicode="&#x3202;" 
d="M318 264v262h381v53h-441v-369h449v54h-389zM43 398c0 -151 56 -296 143 -418h49c-83 124 -138 272 -138 418c0 145 55 293 138 417h-49c-87 -122 -143 -267 -143 -417zM917 398c0 150 -56 295 -143 417h-49c83 -124 138 -272 138 -417c0 -146 -55 -294 -138 -418h49
c87 122 143 267 143 418z" />
    <glyph glyph-name="_776" unicode="&#x3203;" 
d="M322 255v113h373v218h-434v-54h373v-110h-373v-220h449v53h-388zM43 398c0 -151 56 -296 143 -418h49c-83 124 -138 272 -138 418c0 145 55 293 138 417h-49c-87 -122 -143 -267 -143 -417zM917 398c0 150 -56 295 -143 417h-49c83 -124 138 -272 138 -417
c0 -146 -55 -294 -138 -418h49c87 122 143 267 143 418z" />
    <glyph glyph-name="_777" unicode="&#x3204;" 
d="M258 579v-369h441v369h-441zM639 526v-262h-321v262h321zM43 398c0 -151 56 -296 143 -418h49c-83 124 -138 272 -138 418c0 145 55 293 138 417h-49c-87 -122 -143 -267 -143 -417zM917 398c0 150 -56 295 -143 417h-49c83 -124 138 -272 138 -417
c0 -146 -55 -294 -138 -418h49c87 122 143 267 143 418z" />
    <glyph glyph-name="_778" unicode="&#x3205;" 
d="M318 440v139h-60v-369h441v369h-60v-139h-321zM639 386v-122h-321v122h321zM43 398c0 -151 56 -296 143 -418h49c-83 124 -138 272 -138 418c0 145 55 293 138 417h-49c-87 -122 -143 -267 -143 -417zM917 398c0 150 -56 295 -143 417h-49c83 -124 138 -272 138 -417
c0 -146 -55 -294 -138 -418h49c87 122 143 267 143 418z" />
    <glyph glyph-name="_779" unicode="&#x3206;" 
d="M728 215v56c-123 24 -219 105 -219 239v88h-61v-88c0 -134 -95 -215 -217 -240v-55c123 23 209 88 248 164c39 -78 129 -140 249 -164zM43 398c0 -151 56 -296 143 -418h49c-83 124 -138 272 -138 418c0 145 55 293 138 417h-49c-87 -122 -143 -267 -143 -417zM917 398
c0 150 -56 295 -143 417h-49c83 -124 138 -272 138 -417c0 -146 -55 -294 -138 -418h49c87 122 143 267 143 418z" />
    <glyph glyph-name="_780" unicode="&#x3207;" 
d="M304 395c0 40 16 73 43 98c30 28 77 44 132 44s101 -16 132 -44c27 -25 43 -58 43 -98c0 -41 -16 -75 -43 -100c-31 -27 -77 -43 -132 -43s-101 16 -132 43c-27 25 -43 59 -43 100zM244 395c0 -59 26 -109 67 -144c41 -32 101 -52 168 -52s126 20 167 52
c41 35 68 85 68 144c0 58 -25 108 -68 143c-41 32 -100 52 -167 52s-127 -20 -168 -52c-42 -35 -67 -85 -67 -143zM43 398c0 -151 56 -296 143 -418h49c-83 124 -138 272 -138 418c0 145 55 293 138 417h-49c-87 -122 -143 -267 -143 -417zM917 398c0 150 -56 295 -143 417
h-49c83 -124 138 -272 138 -417c0 -146 -55 -294 -138 -418h49c87 122 143 267 143 418z" />
    <glyph glyph-name="_781" unicode="&#x3208;" 
d="M235 -19c-83 123 -138 270 -138 416c0 145 55 294 138 417h-49c-87 -121 -143 -267 -143 -417c0 -151 56 -295 143 -416h49zM773 -19c87 121 143 265 143 416c0 150 -56 296 -143 417h-49c83 -123 138 -272 138 -417c0 -146 -55 -293 -138 -416h49zM717 259
c-111 25 -209 102 -209 226v40h202v53h-463v-53h200v-40c0 -124 -95 -202 -208 -227v-55c113 24 200 86 239 163c41 -76 128 -139 239 -163v56z" />
    <glyph glyph-name="_782" unicode="&#x3209;" 
d="M247 473h200v-1c0 -114 -95 -193 -208 -216v-56c112 22 198 83 239 158c40 -76 127 -136 239 -157v55c-111 23 -209 102 -209 216v1h202v53h-202v104h-61v-104h-200v-53zM235 -19c-83 123 -138 270 -138 416c0 145 55 294 138 417h-49c-87 -121 -143 -267 -143 -417
c0 -151 56 -295 143 -416h49zM773 -19c87 121 143 265 143 416c0 150 -56 296 -143 417h-49c83 -123 138 -272 138 -417c0 -146 -55 -293 -138 -416h49z" />
    <glyph glyph-name="_783" unicode="&#x320a;" 
d="M258 579v-53h381v-115c-59 -8 -131 -12 -188 -12h-193v-53h193c61 0 131 4 188 13v-149h60v369h-441zM43 398c0 -151 56 -296 143 -418h49c-83 124 -138 272 -138 418c0 145 55 293 138 417h-49c-87 -122 -143 -267 -143 -417zM917 398c0 150 -56 295 -143 417h-49
c83 -124 138 -272 138 -417c0 -146 -55 -294 -138 -418h49c87 122 143 267 143 418z" />
    <glyph glyph-name="_784" unicode="&#x320b;" 
d="M322 255v113h365v54h-365v110h373v54h-434v-384h449v53h-388zM43 398c0 -151 56 -296 143 -418h49c-83 124 -138 272 -138 418c0 145 55 293 138 417h-49c-87 -122 -143 -267 -143 -417zM917 398c0 150 -56 295 -143 417h-49c83 -124 138 -272 138 -417
c0 -146 -55 -294 -138 -418h49c87 122 143 267 143 418z" />
    </font>
</defs>
</svg>
