<?xml version="1.0" standalone="no"?>
<!DOCTYPE svg PUBLIC "-//W3C//DTD SVG 1.1//EN" "http://www.w3.org/Graphics/SVG/1.1/DTD/svg11.dtd" >
<svg xmlns="http://www.w3.org/2000/svg" xmlns:xlink="http://www.w3.org/1999/xlink" version="1.1">
<metadata>
Created by FontForge 20190801 at Tue Feb 13 01:22:01 2018
 By Jimmy Wärting
Copyright (c) 2018 by S-Core Co., Ltd.. All rights reserved.
</metadata>
<defs>
<font id="S-CoreDream-2ExtraLight" horiz-adv-x="960" >
  <font-face 
    font-family="S-Core Dream 2 ExtraLight"
    font-weight="200"
    font-stretch="normal"
    units-per-em="1000"
    panose-1="2 11 2 3 3 3 2 2 2 4"
    ascent="800"
    descent="-200"
    x-height="559"
    cap-height="781"
    bbox="-29 -257 1136 1017"
    underline-thickness="50"
    underline-position="-100"
    stemh="37"
    stemv="41"
    unicode-range="U+0020-FFE6"
  />
<missing-glyph horiz-adv-x="289" 
 />
    <glyph glyph-name=".notdef" horiz-adv-x="289" 
 />
    <glyph glyph-name="_1" unicode=" " horiz-adv-x="289" 
 />
    <glyph glyph-name="_2" unicode="!" horiz-adv-x="296" 
d="M170 781v-89l-4 -458h-37l-3 458v89h44zM172 98v-94h-49v94h49z" />
    <glyph glyph-name="_3" unicode="&#x22;" horiz-adv-x="364" 
d="M140 559h-40v222h40v-222zM264 559h-39v222h39v-222z" />
    <glyph glyph-name="_4" unicode="#" horiz-adv-x="713" 
d="M552 781h39l-52 -238h132v-35h-139l-50 -232h151v-35h-158l-53 -237h-39l52 237h-223l-51 -237h-40l52 237h-132v35h139l51 232h-152v35h159l52 238h39l-52 -238h223zM493 508h-223l-51 -232h223z" />
    <glyph glyph-name="_5" unicode="$" horiz-adv-x="624" 
d="M326 878v-85c140 -9 215 -95 215 -200v-20h-42v20c0 91 -63 153 -173 162v-333c12 -2 23 -5 35 -8c147 -29 209 -101 209 -212c0 -114 -83 -207 -244 -211v-84h-37v85c-150 11 -226 100 -226 210v25h42v-25c0 -92 65 -162 184 -172v358c-146 31 -226 77 -226 205
c0 108 79 195 226 201v84h37zM326 30c130 3 202 76 202 172c0 90 -56 161 -202 179v-351zM105 593c0 -104 65 -138 184 -164v326c-118 -5 -184 -69 -184 -162z" />
    <glyph glyph-name="_6" unicode="%" horiz-adv-x="857" 
d="M287 4h-38l319 777h38zM368 585c0 -148 -57 -210 -149 -210c-93 0 -150 62 -150 210c0 146 57 209 150 209c92 0 149 -63 149 -209zM332 585c0 132 -46 177 -113 177s-113 -45 -113 -177c0 -134 46 -179 113 -179s113 45 113 179zM487 200c0 147 57 210 150 210
c92 0 149 -63 149 -210c0 -146 -57 -209 -149 -209c-93 0 -150 63 -150 209zM524 200c0 -132 45 -177 113 -177c67 0 112 45 112 177c0 133 -45 178 -112 178c-68 0 -113 -45 -113 -178z" />
    <glyph glyph-name="_7" unicode="&#x26;" horiz-adv-x="699" 
d="M632 389c-3 -98 -23 -186 -61 -252l133 -133h-55l-100 98c-53 -70 -134 -111 -244 -111c-146 0 -242 85 -242 218c0 101 46 179 142 237c-67 67 -84 114 -84 174c0 111 75 174 188 174s189 -63 189 -174v-22h-41v21c0 89 -59 138 -148 138s-147 -49 -147 -138
c0 -51 16 -90 84 -159l294 -293c31 59 48 135 51 222h41zM305 28c98 0 168 38 214 104l-289 288c-88 -53 -126 -123 -126 -209c0 -112 83 -183 201 -183z" />
    <glyph glyph-name="_8" unicode="'" horiz-adv-x="240" 
d="M140 559h-40v222h40v-222z" />
    <glyph glyph-name="_9" unicode="(" horiz-adv-x="344" 
d="M100 388c0 427 64 503 218 503v-35c-128 0 -177 -73 -177 -468s49 -468 177 -468v-35c-154 0 -218 76 -218 503z" />
    <glyph glyph-name="_10" unicode=")" horiz-adv-x="344" 
d="M243 388c0 -427 -63 -503 -217 -503v35c128 0 177 73 177 468s-49 468 -177 468v35c154 0 217 -76 217 -503z" />
    <glyph glyph-name="_11" unicode="*" horiz-adv-x="510" 
d="M64 499l174 -104l-3 203h39l-2 -203l174 104l20 -35l-177 -98l177 -100l-20 -34l-174 102l2 -201h-39l3 201l-174 -102l-21 34l176 100l-176 98z" />
    <glyph glyph-name="_12" unicode="+" horiz-adv-x="580" 
d="M64 348v36h206v215h40v-215h206v-36h-206v-215h-40v215h-206z" />
    <glyph glyph-name="_13" unicode="," horiz-adv-x="302" 
d="M101 -124v33c32 12 43 35 43 92h-19v100h52v-108c0 -67 -23 -101 -76 -117z" />
    <glyph glyph-name="_14" unicode="-" horiz-adv-x="438" 
d="M64 347v38h310v-38h-310z" />
    <glyph glyph-name="_15" unicode="." horiz-adv-x="302" 
d="M177 101v-97h-52v97h52z" />
    <glyph glyph-name="_16" unicode="/" horiz-adv-x="397" 
d="M399 873l-358 -972h-42l357 972h43z" />
    <glyph glyph-name="_17" unicode="0" horiz-adv-x="604" 
d="M544 393c0 -180 -21 -267 -70 -328c-37 -48 -94 -74 -173 -74c-78 0 -134 26 -172 74c-49 61 -70 148 -70 328c0 179 21 266 70 327c38 48 94 74 172 74c79 0 136 -26 173 -74c49 -61 70 -148 70 -327zM503 393c0 167 -19 251 -59 302c-31 38 -81 62 -143 62
s-111 -24 -141 -62c-40 -51 -60 -135 -60 -302c0 -168 20 -252 60 -303c30 -38 79 -62 141 -62s112 24 143 62c40 51 59 135 59 303z" />
    <glyph glyph-name="_18" unicode="1" horiz-adv-x="604" 
d="M388 4h-41v734l-209 -94v41l213 96h37v-777z" />
    <glyph glyph-name="_19" unicode="2" horiz-adv-x="604" 
d="M525 569c0 -68 -15 -117 -77 -185l-305 -343h394v-37h-448v35l327 369c49 56 69 104 69 160c0 106 -66 189 -183 189c-118 0 -183 -83 -183 -189v-21h-41v22c0 121 77 225 224 225s223 -104 223 -225z" />
    <glyph glyph-name="_20" unicode="3" horiz-adv-x="604" 
d="M495 213c0 110 -69 186 -187 186h-74v37h80c107 0 158 79 158 161c0 93 -66 160 -172 160c-107 0 -171 -67 -171 -160v-17h-41v19c0 109 81 195 212 195c132 0 213 -86 213 -195c0 -93 -47 -161 -130 -182c88 -16 153 -87 153 -203c0 -137 -94 -223 -236 -223
c-141 0 -236 90 -236 233v4h41v-3c0 -122 81 -197 195 -197s195 74 195 185z" />
    <glyph glyph-name="_21" unicode="4" horiz-adv-x="604" 
d="M109 228h296v483zM556 228v-37h-110v-187h-41v187h-342v37l340 553h43v-553h110z" />
    <glyph glyph-name="_22" unicode="5" horiz-adv-x="604" 
d="M306 471c-72 0 -132 -39 -161 -114h-41l20 424h369v-37h-329l-16 -324c30 54 87 88 163 88c139 0 224 -93 224 -260c0 -163 -85 -257 -229 -257c-134 0 -213 81 -227 214h41c13 -117 80 -177 186 -177c121 0 189 80 189 221c0 142 -68 222 -189 222z" />
    <glyph glyph-name="_23" unicode="6" horiz-adv-x="604" 
d="M518 607h-43c-13 106 -82 150 -170 150c-139 0 -188 -106 -191 -365c30 69 99 116 195 116c142 0 231 -99 231 -259s-91 -258 -233 -258c-74 0 -135 25 -176 77c-51 64 -59 141 -59 258v12c0 344 64 456 234 456c116 0 197 -62 212 -187zM307 28c115 0 193 81 193 221
s-78 222 -193 222s-193 -82 -193 -222s78 -221 193 -221z" />
    <glyph glyph-name="_24" unicode="7" horiz-adv-x="604" 
d="M78 744v37h446v-35l-285 -742h-44l286 740h-403z" />
    <glyph glyph-name="_25" unicode="8" horiz-adv-x="604" 
d="M301 -9c-148 0 -246 80 -246 218c0 105 59 182 158 205c-80 24 -135 89 -135 183c0 117 86 197 223 197c138 0 224 -80 224 -197c0 -94 -55 -159 -136 -183c100 -23 160 -100 160 -205c0 -138 -99 -218 -248 -218zM301 396c-119 0 -206 -67 -206 -184
c0 -118 87 -184 206 -184c121 0 207 66 207 184c0 117 -86 184 -207 184zM301 433c108 0 184 62 184 162s-76 162 -184 162c-107 0 -182 -62 -182 -162s75 -162 182 -162z" />
    <glyph glyph-name="_26" unicode="9" horiz-adv-x="604" 
d="M85 177h43c13 -104 81 -149 170 -149c138 0 189 103 191 365c-30 -70 -98 -116 -195 -116c-142 0 -232 99 -232 259s93 258 234 258c72 0 135 -25 177 -77c50 -63 58 -142 58 -259v-12c0 -347 -67 -455 -233 -455c-117 0 -198 62 -213 186zM296 757
c-114 0 -193 -82 -193 -221c0 -141 79 -223 193 -223c115 0 193 82 193 223c0 139 -78 221 -193 221z" />
    <glyph glyph-name="_27" unicode=":" horiz-adv-x="302" 
d="M177 101v-97h-52v97h52zM177 559v-97h-52v97h52z" />
    <glyph glyph-name="_28" unicode=";" horiz-adv-x="302" 
d="M177 559v-98h-52v98h52zM101 -124v33c32 12 43 35 43 92h-19v100h52v-108c0 -67 -23 -101 -76 -117z" />
    <glyph glyph-name="_29" unicode="&#x3c;" horiz-adv-x="578" 
d="M506 129l-435 219v36l435 217v-41l-389 -194l389 -195v-42z" />
    <glyph glyph-name="_30" unicode="=" horiz-adv-x="580" 
d="M64 448v36h452v-36h-452zM64 248v36h452v-36h-452z" />
    <glyph glyph-name="_31" unicode="&#x3e;" horiz-adv-x="578" 
d="M506 348l-435 -219v42l389 195l-389 194v41l435 -217v-36z" />
    <glyph glyph-name="_32" unicode="?" horiz-adv-x="570" 
d="M493 582c0 -83 -22 -130 -98 -194c-87 -73 -99 -102 -99 -161v-22h-41v24c0 73 18 105 108 182c68 58 90 101 90 170c0 103 -62 176 -172 176c-111 0 -172 -78 -172 -179h-41v4c0 118 72 212 213 212s212 -94 212 -212zM299 98v-94h-47v94h47z" />
    <glyph glyph-name="_33" unicode="@" horiz-adv-x="823" 
d="M518 48c116 0 179 76 179 221c0 144 -63 222 -179 222c-117 0 -181 -78 -181 -222c0 -145 64 -221 181 -221zM412 -172c50 0 104 13 144 37l14 -34c-46 -23 -101 -37 -158 -37c-228 0 -324 124 -324 500c0 364 86 500 324 500c237 0 323 -136 323 -500v-21
c0 -164 -75 -260 -219 -260c-143 0 -217 97 -217 256c0 161 75 257 215 257c92 0 152 -41 178 -103c-15 244 -93 337 -280 337c-217 0 -286 -121 -286 -466c0 -360 81 -466 286 -466z" />
    <glyph glyph-name="_34" unicode="A" horiz-adv-x="650" 
d="M58 4h-46l291 777h43l291 -777h-45l-75 203h-384zM146 245h356l-178 480z" />
    <glyph glyph-name="_35" unicode="B" horiz-adv-x="655" 
d="M130 421h225c129 0 186 58 186 161c0 102 -57 160 -186 160h-225v-321zM366 4h-278v777h274c149 0 222 -73 222 -197c0 -102 -49 -160 -126 -182c97 -18 148 -82 148 -191c0 -143 -83 -207 -240 -207zM563 212c0 108 -53 171 -205 171h-228v-340h228
c152 0 205 61 205 169z" />
    <glyph glyph-name="_36" unicode="C" horiz-adv-x="687" 
d="M350 -9c-91 0 -159 30 -206 85c-59 71 -81 181 -81 317c0 135 22 245 81 316c47 55 115 85 206 85c170 0 267 -102 278 -264h-43c-11 138 -88 226 -235 226c-74 0 -134 -25 -173 -72c-54 -66 -72 -164 -72 -291c0 -128 18 -226 72 -292c39 -47 99 -72 173 -72
c147 0 224 88 235 226h43c-11 -162 -108 -264 -278 -264z" />
    <glyph glyph-name="_37" unicode="D" horiz-adv-x="697" 
d="M344 742h-214v-699h214c196 0 246 154 246 350c0 193 -51 349 -246 349zM88 4v777h259c220 0 285 -172 285 -388c0 -221 -66 -389 -285 -389h-259z" />
    <glyph glyph-name="_38" unicode="E" horiz-adv-x="571" 
d="M88 4v777h431v-39h-389v-320h349v-39h-349v-340h394v-39h-436z" />
    <glyph glyph-name="_39" unicode="F" horiz-adv-x="552" 
d="M88 4v777h425v-39h-383v-332h349v-39h-349v-367h-42z" />
    <glyph glyph-name="_40" unicode="G" horiz-adv-x="710" 
d="M63 393c0 238 71 401 287 401c169 0 266 -103 278 -265h-44c-10 139 -88 226 -234 226c-188 0 -245 -147 -245 -362c0 -216 55 -363 245 -363c143 0 240 90 240 278v41h-235v39h275v-384h-34l-5 147c-23 -96 -117 -160 -241 -160c-215 0 -287 160 -287 402z" />
    <glyph glyph-name="_41" unicode="H" horiz-adv-x="685" 
d="M556 4v378h-426v-378h-42v777h42v-360h426v360h42v-777h-42z" />
    <glyph glyph-name="_42" unicode="I" horiz-adv-x="219" 
d="M130 781v-777h-42v777h42z" />
    <glyph glyph-name="_43" unicode="J" horiz-adv-x="562" 
d="M254 -9c-150 0 -224 95 -224 251l43 -1c0 -128 63 -211 181 -211c119 0 181 79 181 213v538h42v-539c0 -156 -75 -251 -223 -251z" />
    <glyph glyph-name="_44" unicode="K" horiz-adv-x="603" 
d="M570 781l-295 -380l330 -397h-52l-311 379h-112v-379h-42v777h42v-359h112l277 359h51z" />
    <glyph glyph-name="_45" unicode="L" horiz-adv-x="541" 
d="M88 4v777h42v-738h394v-39h-436z" />
    <glyph glyph-name="_46" unicode="M" horiz-adv-x="919" 
d="M483 4h-47l-306 683v-683h-42v777h45l327 -729l325 729h46v-777h-42v683z" />
    <glyph glyph-name="_47" unicode="N" horiz-adv-x="697" 
d="M609 4h-42l-437 700v-700h-42v777h42l437 -700v700h42v-777z" />
    <glyph glyph-name="_48" unicode="O" horiz-adv-x="702" 
d="M638 393c0 -136 -22 -246 -81 -317c-47 -55 -115 -85 -206 -85s-160 30 -206 85c-60 71 -81 181 -81 317c0 135 21 245 81 316c46 55 115 85 206 85s159 -30 206 -85c59 -71 81 -181 81 -316zM596 393c0 127 -18 225 -72 291c-39 47 -99 72 -173 72s-134 -25 -173 -72
c-54 -66 -72 -164 -72 -291c0 -128 18 -226 72 -292c39 -47 99 -72 173 -72s134 25 173 72c54 66 72 164 72 292z" />
    <glyph glyph-name="_49" unicode="P" horiz-adv-x="644" 
d="M366 312h-236v-308h-42v777h278c160 0 240 -92 240 -234c0 -143 -80 -235 -240 -235zM130 351h234c132 0 200 74 200 196c0 121 -68 195 -200 195h-234v-391z" />
    <glyph glyph-name="_50" unicode="Q" horiz-adv-x="699" 
d="M638 393c0 -122 -18 -223 -63 -294l105 -90l-28 -32l-104 89c-46 -50 -112 -75 -197 -75c-91 0 -160 30 -206 85c-60 71 -81 181 -81 317c0 135 21 245 81 316c46 55 115 85 206 85s159 -30 206 -85c59 -71 81 -181 81 -316zM384 207l28 31l130 -111c39 64 54 154 54 266
c0 127 -18 225 -72 291c-39 47 -99 72 -173 72s-134 -25 -173 -72c-54 -66 -72 -164 -72 -291c0 -128 18 -226 72 -292c39 -47 99 -72 173 -72c70 0 127 21 166 63z" />
    <glyph glyph-name="_51" unicode="R" horiz-adv-x="669" 
d="M612 4h-43c-7 17 -11 41 -13 70l-7 111c-7 101 -56 145 -184 145h-235v-326h-42v777h281c163 0 237 -88 237 -224c0 -107 -45 -181 -140 -208c79 -15 118 -61 125 -164l8 -110c2 -30 6 -53 13 -71zM130 369h238c130 0 196 67 196 186c0 120 -66 187 -196 187h-238v-373z
" />
    <glyph glyph-name="_52" unicode="S" horiz-adv-x="624" 
d="M317 29c136 0 211 75 211 173c0 90 -49 149 -178 175l-100 20c-121 24 -187 89 -187 196c0 111 85 201 239 201c156 0 240 -90 240 -201v-20h-43v20c0 98 -72 163 -197 163c-124 0 -197 -65 -197 -163c0 -88 55 -138 156 -158l100 -20c148 -30 210 -102 210 -213
c0 -116 -87 -211 -254 -211s-254 95 -254 211v25h42v-25c0 -98 77 -173 212 -173z" />
    <glyph glyph-name="_53" unicode="T" horiz-adv-x="561" 
d="M19 742v39h523v-39h-240v-738h-43v738h-240z" />
    <glyph glyph-name="_54" unicode="U" horiz-adv-x="708" 
d="M353 -9c-193 0 -271 121 -271 299v491h42v-486c0 -168 66 -266 229 -266c164 0 229 98 229 266v486h43v-491c0 -178 -79 -299 -272 -299z" />
    <glyph glyph-name="_55" unicode="V" horiz-adv-x="650" 
d="M12 781h46l266 -716l268 716h45l-291 -777h-43z" />
    <glyph glyph-name="_56" unicode="W" horiz-adv-x="1021" 
d="M488 781h43l220 -713l206 713h45l-226 -777h-46l-220 711l-220 -711h-46l-225 777h43l207 -713z" />
    <glyph glyph-name="_57" unicode="X" horiz-adv-x="640" 
d="M602 781l-255 -381l267 -396h-49l-246 364l-246 -364h-49l267 396l-254 381h48l234 -348l234 348h49z" />
    <glyph glyph-name="_58" unicode="Y" horiz-adv-x="640" 
d="M65 781l254 -433l254 433h47l-280 -471v-306h-42v306l-279 471h46z" />
    <glyph glyph-name="_59" unicode="Z" horiz-adv-x="578" 
d="M51 40l422 702h-411v39h459v-36l-422 -702h428v-39h-476v36z" />
    <glyph glyph-name="_60" unicode="[" horiz-adv-x="361" 
d="M100 -99v972h210v-35h-169v-902h169v-35h-210z" />
    <glyph glyph-name="_61" unicode="\" 
d="M458 781l-96 -364h-180l-90 364h-43l91 -364h-118v-33h127l95 -380h46l102 380h176l102 -380h46l96 380h126v33h-118l92 364h-45l-90 -364h-179l-97 364h-43zM607 384h162l-78 -316zM560 417h-160l80 298zM191 384h162l-84 -316z" />
    <glyph glyph-name="_62" unicode="]" horiz-adv-x="361" 
d="M260 873v-972h-209v35h168v902h-168v35h209z" />
    <glyph glyph-name="_63" unicode="^" horiz-adv-x="450" 
d="M380 523l-156 223l-155 -223h-43l180 258h37l181 -258h-44z" />
    <glyph glyph-name="_64" unicode="_" horiz-adv-x="555" 
d="M0 -163v31h555v-31h-555z" />
    <glyph glyph-name="_65" unicode="`" horiz-adv-x="360" 
d="M220 636l-123 178h47l119 -178h-43z" />
    <glyph glyph-name="_66" unicode="a" horiz-adv-x="564" 
d="M455 167c0 85 -60 139 -183 139c-124 0 -183 -54 -183 -139s59 -139 183 -139c123 0 183 54 183 139zM496 375v-294c0 -28 5 -56 14 -77h-42c-10 20 -13 45 -13 70c-26 -51 -90 -83 -190 -83c-140 0 -217 68 -217 176c0 107 77 177 217 177c100 0 164 -34 190 -84v117
c0 95 -59 158 -172 158c-110 0 -161 -54 -170 -133h-41c10 100 77 170 211 170c138 0 213 -76 213 -197z" />
    <glyph glyph-name="_67" unicode="b" horiz-adv-x="589" 
d="M536 281c0 -185 -76 -290 -228 -290c-102 0 -166 48 -192 121v-108h-41v777h41v-331c26 74 90 122 192 122c152 0 228 -106 228 -291zM495 281c0 164 -60 254 -189 254c-131 0 -190 -90 -190 -254s59 -253 190 -253c129 0 189 89 189 253z" />
    <glyph glyph-name="_68" unicode="c" horiz-adv-x="557" 
d="M53 281c0 182 73 291 230 291c130 0 206 -70 220 -187h-41c-13 95 -73 150 -179 150c-130 0 -189 -87 -189 -254c0 -166 59 -253 189 -253c106 0 166 55 179 150h41c-14 -117 -90 -187 -220 -187c-157 0 -230 109 -230 290z" />
    <glyph glyph-name="_69" unicode="d" horiz-adv-x="589" 
d="M52 281c0 185 76 291 229 291c102 0 166 -48 191 -122v331h41v-777h-41v108c-25 -73 -89 -121 -191 -121c-153 0 -229 105 -229 290zM472 281c0 164 -59 254 -189 254s-190 -90 -190 -254s60 -253 190 -253s189 89 189 253z" />
    <glyph glyph-name="_70" unicode="e" horiz-adv-x="567" 
d="M459 163h42c-21 -108 -94 -172 -218 -172c-157 0 -231 110 -231 290s74 291 231 291s230 -111 230 -291v-11h-420c2 -157 62 -242 190 -242c101 0 158 50 176 135zM283 535c-123 0 -183 -82 -189 -228h377c-6 146 -66 228 -188 228z" />
    <glyph glyph-name="_71" unicode="f" horiz-adv-x="357" 
d="M330 751h-49c-93 0 -118 -25 -118 -117v-75h167v-37h-167v-518h-41v518h-84v37h84v79c0 114 41 151 157 151c18 0 34 -1 51 -2v-36z" />
    <glyph glyph-name="_72" unicode="g" horiz-adv-x="589" 
d="M472 281c0 164 -59 254 -189 254s-190 -90 -190 -254s60 -253 190 -253s189 89 189 253zM87 -91h40c13 -77 76 -125 170 -125c108 0 175 67 175 183v145c-25 -73 -89 -121 -191 -121c-153 0 -229 105 -229 290s76 291 229 291c102 0 166 -48 191 -122v109h41v-590
c0 -135 -76 -223 -216 -223c-125 0 -197 67 -210 163z" />
    <glyph glyph-name="_73" unicode="h" horiz-adv-x="587" 
d="M116 4h-41v777h41v-350c29 85 99 141 202 141c126 0 195 -84 195 -227v-341h-40v330c0 135 -56 201 -161 201c-112 0 -193 -92 -196 -252v-279z" />
    <glyph glyph-name="_74" unicode="i" horiz-adv-x="203" 
d="M122 4h-41v555h41v-555zM122 686h-41v95h41v-95z" />
    <glyph glyph-name="_75" unicode="j" horiz-adv-x="205" 
d="M124 559v-668c0 -93 -44 -129 -125 -129c-10 0 -20 0 -28 1v36h26c57 0 86 27 86 93v667h41zM124 686h-41v95h41v-95z" />
    <glyph glyph-name="_76" unicode="k" horiz-adv-x="487" 
d="M116 4h-40v777h40v-469h80l209 247h50l-224 -265l250 -290h-52l-234 270h-79v-270z" />
    <glyph glyph-name="_77" unicode="l" horiz-adv-x="203" 
d="M122 4h-41v777h41v-777z" />
    <glyph glyph-name="_78" unicode="m" horiz-adv-x="913" 
d="M799 4v368c0 109 -53 163 -145 163c-100 0 -176 -91 -176 -260v-271h-41v368c0 109 -53 163 -145 163c-99 0 -176 -91 -176 -260v-271h-40v555h40v-127c26 88 89 140 181 140c94 0 159 -51 174 -146c28 87 89 146 188 146c114 0 181 -69 181 -196v-372h-41z" />
    <glyph glyph-name="_79" unicode="n" horiz-adv-x="588" 
d="M116 4h-41v555h41v-128c29 85 99 141 202 141c126 0 195 -84 195 -227v-341h-40v330c0 135 -56 201 -161 201c-112 0 -193 -92 -196 -252v-279z" />
    <glyph glyph-name="_80" unicode="o" horiz-adv-x="567" 
d="M513 281c0 -179 -72 -290 -230 -290c-157 0 -230 111 -230 290c0 180 73 291 230 291c158 0 230 -111 230 -291zM472 281c0 164 -58 254 -189 254c-130 0 -189 -90 -189 -254c0 -163 59 -253 189 -253c131 0 189 90 189 253z" />
    <glyph glyph-name="_81" unicode="p" horiz-adv-x="589" 
d="M536 281c0 -185 -76 -290 -228 -290c-102 0 -166 48 -192 121v-350h-41v797h41v-109c26 74 90 122 192 122c152 0 228 -106 228 -291zM495 281c0 164 -60 254 -189 254c-131 0 -190 -90 -190 -254s59 -253 190 -253c129 0 189 89 189 253z" />
    <glyph glyph-name="_82" unicode="q" horiz-adv-x="589" 
d="M52 281c0 185 76 291 229 291c102 0 166 -48 191 -122v109h41v-797h-41v350c-25 -73 -89 -121 -191 -121c-153 0 -229 105 -229 290zM472 281c0 164 -59 254 -189 254s-190 -90 -190 -254s60 -253 190 -253s189 89 189 253z" />
    <glyph glyph-name="_83" unicode="r" horiz-adv-x="346" 
d="M288 535c-107 0 -172 -82 -172 -254v-277h-40v555h40v-122c24 90 82 135 172 135c15 0 30 -1 39 -4l-1 -36c-9 2 -24 3 -38 3z" />
    <glyph glyph-name="_84" unicode="s" horiz-adv-x="510" 
d="M442 424v-20h-41v20c0 64 -55 111 -152 111s-151 -47 -151 -111c0 -62 38 -92 130 -111c167 -28 234 -64 234 -166c0 -93 -82 -156 -205 -156c-121 0 -205 62 -205 156v20h41v-20c0 -73 69 -119 164 -119s164 46 164 119c0 63 -36 98 -132 116c-168 35 -232 57 -232 161
c0 83 70 148 192 148c121 0 193 -64 193 -148z" />
    <glyph glyph-name="_85" unicode="t" horiz-adv-x="369" 
d="M155 522v-370c0 -95 43 -119 123 -119h54v-36c-21 -1 -40 -1 -57 -1c-109 0 -161 36 -161 151v375h-86v37h86v158h41v-158h177v-37h-177z" />
    <glyph glyph-name="_86" unicode="u" horiz-adv-x="588" 
d="M114 559v-331c0 -135 55 -200 160 -200c112 0 194 91 196 251v280h41v-555h-41v127c-29 -84 -99 -140 -201 -140c-127 0 -196 84 -196 226v342h41z" />
    <glyph glyph-name="_87" unicode="v" horiz-adv-x="543" 
d="M294 4h-45l-227 555h44l205 -504l205 504h44z" />
    <glyph glyph-name="_88" unicode="w" horiz-adv-x="865" 
d="M410 559h45l174 -502l174 502h43l-195 -555h-44l-174 501l-175 -501h-44l-195 555h44l174 -502z" />
    <glyph glyph-name="_89" unicode="x" horiz-adv-x="499" 
d="M440 4l-190 252l-191 -252h-49l214 284l-203 271h49l180 -239l179 239h49l-203 -271l214 -284h-49z" />
    <glyph glyph-name="_90" unicode="y" horiz-adv-x="543" 
d="M197 -130l53 133l-227 556h44l205 -505l204 505h45l-286 -700c-34 -81 -68 -97 -135 -97c-9 0 -13 0 -20 1v36h18c51 0 75 11 99 71z" />
    <glyph glyph-name="_91" unicode="z" horiz-adv-x="484" 
d="M430 559v-35l-335 -483h343v-37h-391v35l334 483h-325v37h374z" />
    <glyph glyph-name="_92" unicode="{" horiz-adv-x="369" 
d="M51 369v36h20c45 0 69 27 69 73v219c0 127 53 176 155 176h23v-35h-19c-80 0 -119 -36 -119 -143v-218c0 -49 -20 -79 -58 -90c38 -11 58 -41 58 -90v-219c0 -107 39 -142 119 -142h19v-35h-23c-102 0 -155 48 -155 176v218c0 47 -24 74 -69 74h-20z" />
    <glyph glyph-name="_93" unicode="|" horiz-adv-x="292" 
d="M126 -99v972h40v-972h-40z" />
    <glyph glyph-name="_94" unicode="}" horiz-adv-x="369" 
d="M318 405v-36h-20c-45 0 -69 -27 -69 -74v-218c0 -128 -53 -176 -156 -176h-22v35h19c80 0 118 35 118 142v219c0 49 21 79 59 90c-38 11 -59 41 -59 90v218c0 107 -38 143 -118 143h-19v35h22c103 0 156 -49 156 -176v-219c0 -46 24 -73 69 -73h20z" />
    <glyph glyph-name="_95" unicode="~" horiz-adv-x="578" 
d="M386 281c-120 0 -104 135 -194 135c-47 0 -75 -41 -76 -128h-38c0 107 42 163 113 163c121 0 105 -135 194 -135c48 0 75 41 77 129h38c0 -107 -42 -164 -114 -164z" />
    <glyph glyph-name="_101" unicode="&#x3000;" 
 />
    <glyph glyph-name="_101" unicode="&#x3164;" 
 />
    <glyph glyph-name="_106" unicode="&#x2026;" 
d="M505 473h-51v-98h51v98zM215 473h-51v-98h51v98zM795 473h-51v-98h51v98z" />
    <glyph glyph-name="_107" unicode="&#xa8;" horiz-adv-x="600" 
d="M215 781h-51v-98h51v98zM435 781h-51v-98h51v98z" />
    <glyph glyph-name="_108" unicode="&#x3003;" 
d="M411 655l-168 -465l29 -11l180 460zM675 640l-168 -465l29 -11l181 461z" />
    <glyph glyph-name="_112" unicode="&#xff3c;" 
d="M922 8l-859 802l-25 -27l857 -804z" />
    <glyph glyph-name="_114" unicode="&#x2018;" horiz-adv-x="291" 
d="M206 864c-60 -14 -84 -53 -84 -130v-95h51v102h-14c0 53 12 79 47 88v35z" />
    <glyph glyph-name="_115" unicode="&#x2019;" horiz-adv-x="291" 
d="M87 639c59 13 83 51 83 130v95h-51v-102h14c0 -56 -13 -79 -46 -89v-34z" />
    <glyph glyph-name="_116" unicode="&#x201c;" horiz-adv-x="425" 
d="M206 864c-60 -14 -84 -53 -84 -130v-95h51v102h-14c0 52 12 80 47 88v35zM333 864c-60 -15 -83 -53 -83 -130v-95h50v102h-14c0 53 13 78 47 88v35z" />
    <glyph glyph-name="_117" unicode="&#x201d;" horiz-adv-x="425" 
d="M90 639c60 13 83 51 83 130v95h-50v-102h14c0 -56 -13 -79 -47 -89v-34zM218 639c59 13 83 52 83 130v95h-51v-102h15c0 -55 -15 -79 -47 -89v-34z" />
    <glyph glyph-name="_130" unicode="&#xb1;" horiz-adv-x="580" 
d="M65 432h205v-214h39v214h206v35h-206v214h-39v-214h-205v-35zM65 56h450v35h-450v-35z" />
    <glyph glyph-name="_131" unicode="&#xd7;" horiz-adv-x="580" 
d="M462 167l26 27l-172 173l172 172l-26 26l-172 -172l-172 172l-26 -26l172 -172l-172 -173l26 -27l172 173z" />
    <glyph glyph-name="_132" unicode="&#xf7;" horiz-adv-x="580" 
d="M65 349h450v35h-450v-35zM312 598h-45v-96h45v96zM312 230h-45v-96h45v96z" />
    <glyph glyph-name="_133" unicode="&#x2260;" horiz-adv-x="580" 
d="M65 448h255l-97 -164h-158v-34h138l-93 -159h36l93 159h276v34h-255l96 164h159v35h-139l93 159h-36l-94 -159h-274v-35z" />
    <glyph glyph-name="_134" unicode="&#x2264;" horiz-adv-x="580" 
d="M506 255l-388 194l388 193v42l-433 -217v-36l433 -217v41zM64 56h451v35h-451v-35z" />
    <glyph glyph-name="_135" unicode="&#x2265;" horiz-adv-x="580" 
d="M506 467l-433 217v-42l388 -193l-388 -194v-41l433 217v36zM515 91h-451v-35h451v35z" />
    <glyph glyph-name="_136" unicode="&#x221e;" 
d="M844 372c0 103 -71 167 -174 167c-77 0 -148 -43 -190 -138c-42 95 -113 138 -191 138c-102 0 -173 -64 -173 -167s71 -167 173 -167c78 0 149 43 191 138c42 -95 113 -138 190 -138c103 0 174 64 174 167zM501 372c44 101 103 133 169 133c68 0 136 -42 136 -133
s-68 -133 -136 -133c-66 0 -125 32 -169 133zM154 372c0 91 68 133 136 133c66 0 124 -32 169 -133c-45 -101 -103 -133 -169 -133c-68 0 -136 42 -136 133z" />
    <glyph glyph-name="_137" unicode="&#x2234;" 
d="M505 683h-51v-98h51v98zM756 219h-50v-97h50v97zM253 219h-50v-97h50v97z" />
    <glyph glyph-name="_138" unicode="&#xb0;" horiz-adv-x="399" 
d="M346 640c0 86 -56 149 -147 149s-147 -63 -147 -149c0 -87 56 -149 147 -149s147 62 147 149zM312 640c0 -73 -49 -118 -113 -118c-62 0 -112 45 -112 118c0 72 50 117 112 117c64 0 113 -45 113 -117z" />
    <glyph glyph-name="_139" unicode="&#x2032;" horiz-adv-x="176" 
d="M73 534l67 246h-42l-63 -246h38z" />
    <glyph glyph-name="_140" unicode="&#x2033;" horiz-adv-x="311" 
d="M73 534l67 246h-42l-63 -246h38zM170 534h38l66 246h-41z" />
    <glyph glyph-name="_141" unicode="&#x2103;" 
d="M79 649c0 63 46 108 107 108c62 0 108 -45 108 -108s-46 -108 -108 -108c-61 0 -107 45 -107 108zM44 649c0 -78 59 -140 142 -140c84 0 142 62 142 140s-58 140 -142 140c-83 0 -142 -62 -142 -140zM362 393c0 -149 27 -276 109 -345c41 -35 97 -55 170 -55
c165 0 260 101 270 262h-42c-10 -136 -82 -224 -228 -224c-64 0 -112 18 -147 49c-69 62 -90 176 -90 313c0 130 19 243 84 307c36 35 85 55 153 55c146 0 218 -89 228 -225h42c-10 160 -105 263 -270 263c-78 0 -136 -23 -178 -63c-76 -71 -101 -195 -101 -337z" />
    <glyph glyph-name="_142" unicode="&#x212b;" 
d="M168 6h45l75 203h383l76 -203h45l-279 745c60 13 102 61 102 122c0 71 -57 124 -135 124s-135 -53 -135 -124c0 -61 42 -109 102 -122zM658 246h-357l179 481zM581 873c0 -57 -45 -93 -101 -93s-100 36 -100 93c0 56 44 92 100 92s101 -36 101 -92z" />
    <glyph glyph-name="_143" unicode="&#xffe0;" 
d="M254 282c0 -173 66 -279 209 -288v-86h36v86c120 4 190 73 205 184h-41c-13 -90 -68 -144 -164 -149v506c96 -4 151 -60 164 -150h41c-15 113 -85 181 -205 186v86h-36v-86c-143 -10 -209 -116 -209 -289zM295 282c0 153 51 244 168 253v-506c-117 9 -168 99 -168 253z
" />
    <glyph glyph-name="_144" unicode="&#xffe1;" 
d="M251 342h65c6 -28 11 -57 11 -91c0 -90 -25 -155 -73 -209v-36h453v37h-409c43 49 70 115 70 208c0 34 -6 63 -11 91h229v34h-237c-14 56 -31 112 -31 193c0 111 55 186 170 186c113 0 169 -75 169 -186v-11h41v12c0 122 -65 223 -210 223c-146 0 -212 -101 -212 -223
c0 -83 18 -138 32 -194h-57v-34z" />
    <glyph glyph-name="_145" unicode="&#xffe5;" 
d="M225 780h-46l251 -392h-154v-30h173l9 -14v-63h-182v-30h182v-245h42v245h183v30h-183v64l9 13h174v30h-155l251 392h-46l-254 -399z" />
    <glyph glyph-name="_146" unicode="&#x2642;" 
d="M212 510l31 -20l218 299v-378c-123 -8 -218 -112 -218 -236c0 -130 105 -238 237 -238c131 0 238 108 238 238c0 124 -96 228 -219 236v378l218 -299l31 20l-268 363zM281 175c0 111 88 200 199 200s201 -89 201 -200s-90 -200 -201 -200s-199 89 -199 200z" />
    <glyph glyph-name="_147" unicode="&#x2640;" 
d="M204 558c0 -145 114 -264 257 -273v-134h-150v-35h150v-165h38v165h150v35h-150v134c142 9 257 128 257 273c0 150 -124 273 -276 273s-276 -123 -276 -273zM242 558c0 130 106 236 237 236c129 0 235 -106 235 -236s-106 -236 -235 -236c-131 0 -237 106 -237 236z" />
    <glyph glyph-name="_148" unicode="&#x2220;" 
d="M756 727l-652 -635v-15h750v36h-675l604 588z" />
    <glyph glyph-name="_149" unicode="&#x22a5;" 
d="M501 108v643h-42v-643h-348v-36h737v36h-347z" />
    <glyph glyph-name="_150" unicode="&#x2312;" 
d="M53 628c114 112 256 181 427 181c172 0 314 -69 428 -181l20 27c-117 117 -261 192 -448 192c-186 0 -331 -74 -447 -192z" />
    <glyph glyph-name="_151" unicode="&#x2202;" 
d="M489 507c-149 0 -252 -113 -252 -290c0 -140 82 -224 211 -224c226 0 274 208 274 511c0 208 -73 289 -205 289c-115 0 -196 -69 -224 -185h43c28 98 91 148 178 148c108 0 167 -68 167 -250c0 -37 -3 -79 -6 -126c-21 76 -88 127 -186 127zM450 30
c-105 0 -172 67 -172 189c0 152 84 252 213 252c106 0 173 -70 173 -191c0 -156 -91 -250 -214 -250z" />
    <glyph glyph-name="_152" unicode="&#x2207;" 
d="M168 780l290 -774h43l290 774h-623zM733 742l-253 -683l-254 683h507z" />
    <glyph glyph-name="_153" unicode="&#x2261;" horiz-adv-x="580" 
d="M65 517h450v35h-450v-35zM65 181h450v35h-450v-35zM65 349h450v35h-450v-35z" />
    <glyph glyph-name="_154" unicode="&#x2252;" horiz-adv-x="580" 
d="M65 438h450v35h-450v-35zM65 260h450v34h-450v-34zM196 693h-49v-96h49v96zM434 135h-49v-96h49v96z" />
    <glyph glyph-name="_155" unicode="&#xa7;" 
d="M271 352c0 -107 52 -146 202 -186c6 -2 13 -3 20 -5c106 -25 142 -74 142 -142c0 -76 -59 -122 -151 -122c-90 0 -151 48 -151 122v10h-41v-11c0 -92 69 -157 192 -157s192 65 192 157c0 69 -28 115 -95 149c71 30 106 85 106 153c0 121 -74 150 -221 191
c-113 32 -143 75 -143 143c0 76 60 123 151 123s151 -49 151 -123v-10h41v11c0 92 -69 158 -192 158s-192 -66 -192 -158c0 -70 27 -117 95 -150c-70 -31 -106 -86 -106 -153zM447 480c145 -41 199 -67 199 -162c0 -58 -33 -107 -104 -135c-32 10 -68 20 -98 29
c-99 29 -132 66 -132 141c0 55 33 106 103 136c11 -3 22 -6 32 -9z" />
    <glyph glyph-name="_156" unicode="&#x203b;" 
d="M527 706c0 26 -20 48 -47 48s-47 -22 -47 -48s20 -47 47 -47s47 21 47 47zM171 443c-27 0 -47 -21 -47 -47s20 -47 47 -47s48 21 48 47s-21 47 -48 47zM789 349c27 0 47 21 47 47s-20 47 -47 47s-48 -21 -48 -47s21 -47 48 -47zM433 89c0 -26 20 -48 47 -48s47 22 47 48
c0 25 -20 47 -47 47s-47 -22 -47 -47zM827 723l-23 23l-325 -324l-322 324l-22 -24l321 -323l-324 -325l23 -22l324 323l326 -326l22 23l-325 326z" />
    <glyph glyph-name="_157" unicode="&#x2606;" 
d="M37 536l-3 -13l261 -201l-123 -346l12 -9l296 229l295 -229l9 9l-123 349l264 198l-2 13h-329l-109 322h-11l-109 -322h-328zM480 776l92 -273l281 4l-234 -169l112 -301l-251 198l-252 -194l107 293l-231 172l285 -4z" />
    <glyph glyph-name="_158" unicode="&#x2605;" 
d="M37 536l-2 -11l260 -203l-123 -348l10 -7l298 229l296 -229l8 7l-123 351l263 200l-1 11h-329l-110 322h-9l-110 -322h-328z" />
    <glyph glyph-name="_159" unicode="&#x25cb;" 
d="M910 391c0 239 -193 431 -430 431c-238 0 -431 -192 -431 -431c0 -240 190 -431 431 -431c239 0 430 191 430 431zM87 391c0 218 173 395 393 395c219 0 393 -177 393 -395c0 -219 -174 -395 -393 -395c-220 0 -393 176 -393 395z" />
    <glyph glyph-name="_160" unicode="&#x25cf;" 
d="M910 391c0 239 -193 431 -430 431c-238 0 -431 -192 -431 -431c0 -240 190 -431 431 -431c239 0 430 191 430 431z" />
    <glyph glyph-name="_161" unicode="&#x25ce;" 
d="M181 393c0 -169 132 -306 299 -306s299 137 299 306c0 170 -132 306 -299 306s-299 -136 -299 -306zM744 393c0 -150 -114 -274 -264 -274s-264 124 -264 274c0 151 114 274 264 274s264 -123 264 -274zM910 391c0 239 -192 431 -430 431c-239 0 -431 -191 -431 -431
s190 -431 431 -431c239 0 430 191 430 431zM84 391c0 221 174 398 396 398s396 -177 396 -398c0 -222 -174 -399 -396 -399s-396 177 -396 399z" />
    <glyph glyph-name="_162" unicode="&#x25c7;" 
d="M480 863l-459 -471l459 -471l459 471zM480 812l407 -420l-407 -419l-408 419z" />
    <glyph glyph-name="_163" unicode="&#x25c6;" 
d="M480 863l-459 -471l459 -471l459 471z" />
    <glyph glyph-name="_164" unicode="&#x25a1;" 
d="M851 25v735h-743v-735h743zM147 60v665h666v-665h-666z" />
    <glyph glyph-name="_165" unicode="&#x25a0;" 
d="M851 25v735h-743v-735h743z" />
    <glyph glyph-name="_166" unicode="&#x25b3;" 
d="M480 805l-445 -768h890zM480 735l382 -663h-765z" />
    <glyph glyph-name="_167" unicode="&#x25b2;" 
d="M480 805l-445 -768h890z" />
    <glyph glyph-name="_168" unicode="&#x25bd;" 
d="M925 760h-890l445 -768zM97 726h765l-382 -663z" />
    <glyph glyph-name="_169" unicode="&#x25bc;" 
d="M925 760h-890l445 -768z" />
    <glyph glyph-name="_170" unicode="&#x2192;" 
d="M44 355h736v-81l135 99l-135 99v-81h-736v-36z" />
    <glyph glyph-name="_171" unicode="&#x2190;" 
d="M915 391h-736v81l-135 -99l135 -99v81h736v36z" />
    <glyph glyph-name="_172" unicode="&#x2191;" 
d="M498 -36v736h80l-98 135l-99 -135h81v-736h36z" />
    <glyph glyph-name="_173" unicode="&#x2193;" 
d="M462 835v-736h-81l99 -135l98 135h-80v736h-36z" />
    <glyph glyph-name="_174" unicode="&#x2194;" 
d="M179 471l-135 -98l135 -99v80h601v-80l135 99l-135 98v-80h-601v80z" />
    <glyph glyph-name="_178" unicode="&#x221a;" 
d="M606 799h291v36h-323l-284 -900l-194 363h-44l221 -414h44z" />
    <glyph glyph-name="_179" unicode="&#x223d;" 
d="M464 383c-45 -90 -109 -144 -174 -144c-68 0 -136 42 -136 133s68 133 136 133c28 0 54 -5 78 -20l15 29c-28 17 -60 25 -94 25c-102 0 -173 -64 -173 -167s71 -167 173 -167c81 0 156 57 207 159c43 88 107 141 174 141c68 0 136 -42 136 -133s-68 -133 -136 -133
c-32 0 -62 7 -89 27l-17 -29c32 -21 68 -32 106 -32c103 0 174 64 174 167s-71 167 -174 167c-81 0 -156 -56 -206 -156z" />
    <glyph glyph-name="_180" unicode="&#x221d;" 
d="M759 267c-25 -20 -58 -28 -89 -28c-66 0 -125 32 -169 133c44 101 103 133 169 133c28 0 57 -7 80 -22l17 31c-27 16 -59 25 -97 25c-77 0 -148 -43 -190 -138c-42 95 -113 138 -191 138c-102 0 -173 -64 -173 -167s71 -167 173 -167c78 0 149 43 191 138
c42 -95 113 -138 190 -138c43 0 80 12 109 32zM154 372c0 91 68 133 136 133c66 0 124 -32 169 -133c-45 -101 -103 -133 -169 -133c-68 0 -136 42 -136 133z" />
    <glyph glyph-name="_181" unicode="&#x2235;" 
d="M505 219h-51v-97h51v97zM756 683h-50v-98h50v98zM253 683h-50v-98h50v98z" />
    <glyph glyph-name="_182" unicode="&#x222b;" 
d="M293 -80v-32c17 -1 33 -2 51 -2c116 0 156 36 156 149v678c0 91 25 120 118 120h48v33c-16 1 -33 2 -50 2c-116 0 -157 -37 -157 -150v-678c0 -92 -25 -120 -118 -120h-48z" />
    <glyph glyph-name="_183" unicode="&#x222c;" 
d="M141 -80v-32c17 -1 34 -2 51 -2c116 0 156 36 156 149v678c0 91 26 120 119 120h48v33c-17 1 -34 2 -51 2c-116 0 -157 -37 -157 -150v-678c0 -92 -25 -120 -117 -120h-49zM444 -80v-32c17 -1 34 -2 51 -2c116 0 156 36 156 149v678c0 91 26 120 119 120h48v33
c-17 1 -34 2 -51 2c-116 0 -156 -37 -156 -150v-678c0 -92 -26 -120 -118 -120h-49z" />
    <glyph glyph-name="_184" unicode="&#x2208;" 
d="M106 388c0 -199 145 -297 388 -297h338v36h-339c-223 0 -338 88 -346 242h685v36h-685c7 155 123 243 346 243h339v37h-338c-243 0 -388 -99 -388 -297z" />
    <glyph glyph-name="_185" unicode="&#x220b;" 
d="M852 388c0 198 -145 297 -388 297h-338v-37h339c223 0 339 -88 346 -243h-685v-36h685c-8 -154 -123 -242 -346 -242h-339v-36h338c243 0 388 98 388 297z" />
    <glyph glyph-name="_186" unicode="&#x2286;" 
d="M127 40v-35h708v35h-708zM104 498c0 -174 123 -254 351 -254h375v37h-376c-211 0 -310 70 -310 217s99 218 310 218h376v36h-375c-228 0 -351 -80 -351 -254z" />
    <glyph glyph-name="_187" unicode="&#x2287;" 
d="M124 40v-35h708v35h-708zM855 498c0 174 -123 254 -351 254h-374v-36h376c210 0 309 -71 309 -218s-99 -217 -309 -217h-376v-37h374c228 0 351 80 351 254z" />
    <glyph glyph-name="_188" unicode="&#x2282;" 
d="M107 388c0 -198 145 -297 387 -297h338v36h-339c-231 0 -346 96 -346 261s115 261 346 261h339v36h-338c-242 0 -387 -98 -387 -297z" />
    <glyph glyph-name="_189" unicode="&#x2283;" 
d="M852 388c0 199 -145 297 -387 297h-338v-36h339c231 0 346 -96 346 -261s-115 -261 -346 -261h-339v-36h338c242 0 387 99 387 297z" />
    <glyph glyph-name="_190" unicode="&#x222a;" 
d="M480 6c199 0 297 145 297 388v338h-41v-339c0 -234 -95 -352 -256 -352s-256 118 -256 352v339h-41v-338c0 -243 98 -388 297 -388z" />
    <glyph glyph-name="_191" unicode="&#x2229;" 
d="M480 751c-199 0 -297 -145 -297 -388v-338h41v339c0 234 95 352 256 352s256 -118 256 -352v-339h41v338c0 243 -98 388 -297 388z" />
    <glyph glyph-name="_192" unicode="&#x2227;" 
d="M153 7l326 682l328 -682l34 20l-357 735h-10l-356 -735z" />
    <glyph glyph-name="_193" unicode="&#x2228;" 
d="M484 -3l357 735l-34 20l-328 -682l-326 682l-35 -20l356 -735h10z" />
    <glyph glyph-name="_194" unicode="&#xffe2;" 
d="M150 469h610v-272h42v309h-652v-37z" />
    <glyph glyph-name="_195" unicode="&#x21d2;" 
d="M909 376l-343 270l-22 -28l160 -125h-654v-34h698l106 -83l-109 -87h-695v-34h652l-158 -129l23 -29z" />
    <glyph glyph-name="_196" unicode="&#x21d4;" 
d="M933 376l-319 270l-22 -27l148 -126h-523l149 126l-22 27l-319 -270l318 -279l24 28l-149 130h521l-148 -130l24 -28zM179 289l-100 87l97 83h605l98 -83l-101 -87h-599z" />
    <glyph glyph-name="_197" unicode="&#x2200;" 
d="M168 780l290 -774h43l290 774h-44l-76 -204h-383l-76 204h-44zM480 59l-180 480h357z" />
    <glyph glyph-name="_198" unicode="&#x2203;" 
d="M687 780h-435v-37h393v-341h-348v-38h348v-321h-388v-37h430v774z" />
    <glyph glyph-name="_199" unicode="&#xb4;" horiz-adv-x="358" 
d="M262 813h-47l-118 -178h41z" />
    <glyph glyph-name="_201" unicode="&#x2c7;" horiz-adv-x="363" 
d="M199 635l141 178h-42l-117 -144l-118 144h-41l141 -178h36z" />
    <glyph glyph-name="_202" unicode="&#x2d8;" horiz-adv-x="362" 
d="M181 640c98 0 149 60 154 163h-39c-4 -88 -44 -130 -115 -130s-111 42 -116 130h-39c6 -103 58 -163 155 -163z" />
    <glyph glyph-name="_203" unicode="&#x2dd;" horiz-adv-x="363" 
d="M190 813h-44l-115 -178h38zM331 813h-43l-120 -178h38z" />
    <glyph glyph-name="_204" unicode="&#x2da;" horiz-adv-x="360" 
d="M294 724c0 70 -48 114 -114 114s-115 -44 -115 -114c0 -71 49 -116 115 -116s114 45 114 116zM259 724c0 -53 -33 -85 -79 -85c-47 0 -80 32 -80 85c0 52 33 84 80 84c46 0 79 -32 79 -84z" />
    <glyph glyph-name="_205" unicode="&#x2d9;" horiz-adv-x="355" 
d="M206 751h-57v-58h57v58z" />
    <glyph glyph-name="_206" unicode="&#xb8;" horiz-adv-x="360" 
d="M66 -223c27 -21 67 -34 107 -34c77 0 120 41 120 98c0 59 -44 100 -113 100c-11 0 -24 -2 -32 -6l36 71h-35l-43 -86l14 -14c12 5 30 9 46 9c55 0 90 -23 90 -73c0 -41 -29 -67 -85 -67c-32 0 -64 9 -88 30z" />
    <glyph glyph-name="_207" unicode="&#x2db;" horiz-adv-x="360" 
d="M161 6c-59 -28 -96 -80 -96 -133v-5c0 -63 45 -104 121 -104c40 0 79 11 108 36l-18 27c-23 -21 -56 -31 -88 -31c-54 0 -87 26 -87 74v6c0 45 30 95 108 130h-48z" />
    <glyph glyph-name="_208" unicode="&#xa1;" horiz-adv-x="294" 
d="M129 328l-5 -427v-116h45v116l-4 427h-36zM171 558h-48v-94h48v94z" />
    <glyph glyph-name="_209" unicode="&#xbf;" horiz-adv-x="567" 
d="M74 -17c0 -118 72 -211 213 -211c140 0 211 93 211 211v11h-40c0 -106 -56 -185 -171 -185c-110 0 -172 72 -172 175c0 68 22 110 90 168c90 76 107 109 107 182v24h-41v-22c0 -59 -12 -89 -98 -161c-76 -64 -99 -110 -99 -192zM269 464h45v94h-45v-94z" />
    <glyph glyph-name="_211" unicode="&#x222e;" 
d="M297 379c0 -96 69 -170 161 -179v-160c0 -92 -25 -120 -117 -120h-49v-33c17 -1 34 -2 51 -2c116 0 156 37 156 150v165c93 9 163 82 163 179c0 95 -70 169 -163 178v156c0 91 26 120 119 120h48v33c-17 1 -34 2 -51 2c-116 0 -157 -37 -157 -150v-161
c-92 -9 -161 -83 -161 -178zM624 379c0 -76 -53 -134 -125 -142v283c72 -8 125 -66 125 -141zM335 379c0 74 52 133 123 141v-283c-71 9 -123 67 -123 142z" />
    <glyph glyph-name="_212" unicode="&#x2211;" 
d="M240 -31v-36h479v37h-433l174 373v18l-175 382h434v37h-479v-37l180 -391z" />
    <glyph glyph-name="_213" unicode="&#x220f;" 
d="M692 -67h42v847h-508v-847h42v810h424v-810z" />
    <glyph glyph-name="_214" unicode="&#xa4;" horiz-adv-x="697" 
d="M592 367c0 66 -24 121 -63 161l112 112l-28 28l-112 -114c-43 33 -96 51 -151 51c-57 0 -111 -18 -154 -51l-112 114l-28 -28l112 -112c-39 -40 -62 -95 -62 -161c0 -68 23 -123 62 -163l-112 -111l28 -27l112 111c43 -32 97 -50 154 -50c55 0 108 18 151 50l112 -111
l28 27l-112 111c39 40 63 95 63 163zM553 367c0 -129 -94 -205 -204 -205s-205 76 -205 205c0 127 95 204 205 204s204 -77 204 -204z" />
    <glyph glyph-name="_215" unicode="&#x2109;" 
d="M329 650c0 77 -59 139 -142 139c-84 0 -142 -62 -142 -139c0 -78 58 -140 142 -140c83 0 142 62 142 140zM294 650c0 -63 -46 -108 -107 -108c-62 0 -108 45 -108 108c0 62 46 107 108 107c61 0 107 -45 107 -107zM420 6h42v366h348v38h-348v333h382v37h-424v-774z" />
    <glyph glyph-name="_216" unicode="&#x2030;" horiz-adv-x="1206" 
d="M287 4l319 777h-38l-319 -777h38zM368 585c0 146 -57 209 -149 209c-93 0 -150 -63 -150 -209c0 -148 57 -210 150 -210c92 0 149 62 149 210zM332 585c0 -134 -46 -179 -113 -179s-113 45 -113 179c0 132 46 177 113 177s113 -45 113 -177zM487 200
c0 -146 57 -209 150 -209c92 0 149 63 149 209c0 147 -57 210 -149 210c-93 0 -150 -63 -150 -210zM524 200c0 133 45 178 113 178c67 0 112 -45 112 -178c0 -132 -45 -177 -112 -177c-68 0 -113 45 -113 177zM837 200c0 -146 56 -209 150 -209c92 0 149 63 149 209
c0 147 -57 210 -149 210c-94 0 -150 -63 -150 -210zM873 200c0 133 45 178 114 178c67 0 112 -45 112 -178c0 -132 -45 -177 -112 -177c-69 0 -114 45 -114 177z" />
    <glyph glyph-name="_217" unicode="&#x25c1;" 
d="M66 394l768 -444v889zM135 394l661 382v-764z" />
    <glyph glyph-name="_218" unicode="&#x25c0;" 
d="M66 394l768 -444v889z" />
    <glyph glyph-name="_219" unicode="&#x25b7;" 
d="M126 839v-889l768 444zM164 12v764l661 -382z" />
    <glyph glyph-name="_220" unicode="&#x25b6;" 
d="M126 839v-889l768 444z" />
    <glyph glyph-name="_221" unicode="&#x2664;" 
d="M468 401c-13 -84 -126 -159 -212 -159c-111 0 -156 64 -156 154c0 149 212 286 380 382c169 -97 379 -232 379 -382c0 -88 -48 -154 -157 -154c-98 0 -198 74 -212 159h-22zM650 38h-343v2c111 52 164 207 170 313h2c4 -106 60 -262 171 -313v-2zM62 392
c0 -117 70 -182 192 -182c76 0 149 44 193 102c-22 -120 -93 -247 -196 -266v-36h455v36c-103 26 -177 144 -197 267c43 -61 116 -103 198 -103c114 0 190 65 190 182c0 179 -228 314 -417 421c-201 -118 -418 -249 -418 -421z" />
    <glyph glyph-name="_222" unicode="&#x2660;" 
d="M62 391c0 -127 82 -185 194 -185c72 0 154 53 200 115c-25 -127 -101 -256 -205 -279v-32h455v32c-108 27 -183 155 -206 281c45 -68 126 -117 207 -117c106 0 190 62 190 185c0 177 -234 316 -417 421c-192 -115 -418 -247 -418 -421z" />
    <glyph glyph-name="_223" unicode="&#x2661;" 
d="M897 522c0 71 -18 123 -52 158c-34 34 -85 51 -137 51s-100 -18 -140 -50s-72 -79 -88 -134c-17 55 -50 102 -90 134s-88 50 -137 50c-51 0 -100 -15 -136 -50c-37 -35 -54 -88 -54 -159c0 -104 46 -206 126 -301c79 -93 183 -171 291 -229c107 59 210 138 289 231
c80 93 128 195 128 299zM497 497c9 59 49 118 86 153c32 29 75 46 122 47c98 -1 153 -57 153 -181c0 -88 -45 -185 -118 -272s-171 -163 -260 -212c-93 50 -190 126 -262 211c-74 88 -116 185 -116 273c0 118 51 180 154 181c45 -1 86 -20 119 -48c39 -35 78 -93 87 -152h35
z" />
    <glyph glyph-name="_224" unicode="&#x2665;" 
d="M897 522c0 71 -17 124 -52 159c-34 34 -85 50 -137 50s-101 -18 -141 -50s-72 -79 -87 -134c-16 55 -49 102 -89 134s-88 49 -138 50c-51 0 -100 -15 -136 -50c-37 -35 -54 -88 -54 -159c0 -104 46 -206 126 -301c79 -93 183 -171 291 -229c106 59 210 138 289 231
c80 93 128 195 128 299z" />
    <glyph glyph-name="_225" unicode="&#x2667;" 
d="M654 637c0 96 -79 176 -175 176c-100 0 -175 -81 -175 -176c0 -97 77 -175 175 -175c96 0 175 78 175 175zM709 43c-57 19 -108 63 -139 104c-37 49 -72 119 -77 191h-28c-6 -73 -42 -140 -78 -190c-32 -44 -82 -86 -139 -105v-33h461v33zM646 40h-334v5
c75 33 147 139 166 226h2c14 -83 85 -187 166 -226v-5zM621 637c0 -81 -64 -144 -142 -144c-80 0 -143 64 -143 144c0 78 62 145 143 145c77 0 142 -65 142 -145zM410 341c0 92 -79 176 -176 176c-98 0 -175 -81 -175 -176c0 -97 76 -175 175 -175c97 0 176 77 176 175z
M376 341c0 -79 -61 -145 -142 -145c-80 0 -142 64 -142 145c0 79 64 145 142 145c79 0 142 -67 142 -145zM900 341c0 91 -77 176 -176 176c-96 0 -175 -80 -175 -176c0 -97 77 -175 175 -175s176 78 176 175zM866 341c0 -81 -61 -145 -142 -145s-142 65 -142 145
c0 78 64 145 142 145c81 0 142 -68 142 -145z" />
    <glyph glyph-name="_226" unicode="&#x2663;" 
d="M655 638c0 47 -21 92 -53 124c-31 32 -75 52 -123 52s-92 -20 -124 -52s-51 -77 -51 -124c0 -48 19 -93 51 -125s76 -50 124 -50s92 18 123 50c32 32 53 77 53 125zM410 341c0 48 -20 92 -52 124s-76 52 -123 52c-49 0 -93 -20 -124 -52c-32 -32 -52 -76 -52 -124
s20 -92 52 -125c31 -32 75 -50 124 -50c47 0 91 18 123 50c32 33 52 77 52 125zM900 341c0 48 -20 92 -52 124c-31 32 -76 52 -123 52c-48 0 -93 -20 -124 -52c-32 -32 -51 -76 -51 -124s19 -92 51 -125c31 -32 76 -50 124 -50c47 0 92 18 123 50c32 33 52 77 52 125z
M710 40c-59 19 -114 67 -147 114c-35 50 -69 118 -73 185h-21c-4 -67 -39 -134 -74 -185c-34 -48 -88 -94 -146 -114v-29h461v29z" />
    <glyph glyph-name="_228" unicode="&#x25c8;" 
d="M314 391l166 -169l165 169l-165 169zM480 863l-459 -471l459 -471l459 471zM480 812l407 -420l-407 -419l-408 419z" />
    <glyph glyph-name="_229" unicode="&#x25a3;" 
d="M604 268v249h-249v-249h249zM851 25v735h-743v-735h743zM147 60v665h666v-665h-666z" />
    <glyph glyph-name="_230" unicode="&#x25d0;" 
d="M910 391c0 239 -193 431 -430 431c-238 0 -431 -192 -431 -431c0 -240 190 -431 431 -431c239 0 430 191 430 431zM480 786c219 0 393 -177 393 -395c0 -219 -174 -395 -393 -395v790z" />
    <glyph glyph-name="_231" unicode="&#x25d1;" 
d="M910 391c0 238 -193 430 -431 430s-430 -191 -430 -430c0 -240 190 -431 430 -431c239 0 431 191 431 431zM86 391c0 218 173 394 393 394v-789c-220 0 -393 175 -393 395z" />
    <glyph glyph-name="_232" unicode="&#x2592;" 
d="M462 84h32v34h-32v-34zM657 118v-34h31v34h-31zM592 84v34h-33v-34h33zM300 84v34h-32v-34h32zM202 84v34h-31v-34h31zM396 84v34h-32v-34h32zM754 118v-34h31v34h-31zM462 184h32v32h-32v-32zM657 216v-32h31v32h-31zM592 184v32h-33v-32h33zM300 184v32h-32v-32h32z
M202 184v32h-31v-32h31zM396 184v32h-32v-32h32zM754 216v-32h31v32h-31zM462 282h32v33h-32v-33zM657 315v-33h31v33h-31zM592 282v33h-33v-33h33zM300 282v33h-32v-33h32zM202 282v33h-31v-33h31zM396 282v33h-32v-33h32zM754 315v-33h31v33h-31zM462 380h32v34h-32v-34z
M657 414v-34h31v34h-31zM592 380v34h-33v-34h33zM300 380v34h-32v-34h32zM202 380v34h-31v-34h31zM396 380v34h-32v-34h32zM754 414v-34h31v34h-31zM462 480h32v33h-32v-33zM657 513v-33h31v33h-31zM592 480v33h-33v-33h33zM300 480v33h-32v-33h32zM202 480v33h-31v-33h31z
M396 480v33h-32v-33h32zM754 513v-33h31v33h-31zM462 578h32v32h-32v-32zM657 610v-32h31v32h-31zM592 578v32h-33v-32h33zM300 578v32h-32v-32h32zM202 578v32h-31v-32h31zM396 578v32h-32v-32h32zM754 610v-32h31v32h-31zM462 676h32v34h-32v-34zM657 710v-34h31v34h-31z
M592 676v34h-33v-34h33zM300 676v34h-32v-34h32zM202 676v34h-31v-34h31zM396 676v34h-32v-34h32zM754 710v-34h31v34h-31zM868 14v769h-776v-769h776zM122 39v717h715v-717h-715z" />
    <glyph glyph-name="_233" unicode="&#x25a4;" 
d="M868 14v769h-776v-769h776zM837 120v-81h-715v81h715zM837 225v-82h-715v82h715zM837 330v-82h-715v82h715zM837 439v-86h-715v86h715zM837 545v-83h-715v83h715zM837 654v-86h-715v86h715zM837 756v-79h-715v79h715z" />
    <glyph glyph-name="_234" unicode="&#x25a5;" 
d="M868 783h-776v-769h776v769zM758 754h81v-713h-81v713zM651 754h83v-713h-83v713zM545 754h82v-713h-82v713zM440 754h81v-713h-81v713zM333 754h83v-713h-83v713zM222 754h87v-713h-87v713zM119 754h79v-713h-79v713z" />
    <glyph glyph-name="_235" unicode="&#x25a8;" 
d="M868 783h-776v-769h776v769zM120 163l594 592h106l-700 -699v107zM139 40l698 698v-101l-597 -597h-101zM120 304l452 451h107l-559 -557v106zM276 40l561 561v-106l-457 -455h-104zM416 40l421 420v-110l-311 -310h-110zM121 448l308 307h109l-417 -417v110zM560 40
l277 276v-110l-166 -166h-111zM121 593l163 162h110l-273 -272v110zM707 40l130 130v-130h-130zM121 755h128l-128 -127v127z" />
    <glyph glyph-name="_236" unicode="&#x25a7;" 
d="M92 14h776v769h-776v-769zM838 56l-700 699h106l594 -592v-107zM718 40l-597 597v101l699 -698h-102zM838 198l-559 557h107l452 -451v-106zM578 40l-457 455v106l562 -561h-105zM432 40l-311 310v110l421 -420h-110zM837 338l-417 417h110l307 -307v-110zM288 40
l-167 166v110l277 -276h-110zM837 483l-272 272h109l163 -162v-110zM121 40v130l131 -130h-131zM837 628l-127 127h127v-127z" />
    <glyph glyph-name="_237" unicode="&#x25a6;" 
d="M868 14v769h-776v-769h776zM222 440h87v-87h-87v87zM222 654h87v-86h-87v86zM222 545h87v-83h-87v83zM332 440h84v-87h-84v87zM332 654h84v-86h-84v86zM222 225h87v-82h-87v82zM545 440h83v-87h-83v87zM222 330h87v-82h-87v82zM545 654h83v-86h-83v86zM652 440h83v-87
h-83v87zM652 654h83v-86h-83v86zM222 120h87v-81h-87v81zM759 353v87h81v-87h-81zM759 568v86h81v-86h-81zM440 440h81v-87h-81v87zM440 654h81v-86h-81v86zM332 545h84v-83h-84v83zM309 677h-87v79h87v-79zM545 545h83v-83h-83v83zM652 545h83v-83h-83v83zM332 225h84v-82
h-84v82zM332 330h84v-82h-84v82zM198 440v-87h-80v87h80zM198 654v-86h-80v86h80zM545 225h83v-82h-83v82zM545 330h83v-82h-83v82zM652 225h83v-82h-83v82zM652 330h83v-82h-83v82zM332 120h84v-81h-84v81zM759 462v83h81v-83h-81zM440 545h81v-83h-81v83zM545 120h83v-81
h-83v81zM759 143v82h81v-82h-81zM759 248v82h81v-82h-81zM652 120h83v-81h-83v81zM440 225h81v-82h-81v82zM440 330h81v-82h-81v82zM416 677h-84v79h84v-79zM440 120h81v-81h-81v81zM759 120h81v-81h-81v81zM628 677h-83v79h83v-79zM735 677h-83v79h83v-79zM198 545v-83h-80
v83h80zM198 330v-82h-80v82h80zM198 225v-82h-80v82h80zM521 677h-81v79h81v-79zM840 756v-79h-81v79h81zM198 120v-81h-80v81h80zM198 756v-79h-80v79h80z" />
    <glyph glyph-name="_238" unicode="&#x25a9;" 
d="M868 783h-776v-769h776v769zM761 240l56 -55l-54 -54l-55 56zM215 257l55 55l53 -54l-55 -55zM143 185l55 55l53 -54l-55 -55zM337 663l55 -55l-53 -53l-55 55zM567 608l55 55l54 -53l-55 -55zM760 382l55 -55l-53 -53l-55 55zM690 312l54 -55l-53 -53l-55 54zM265 735
l55 -55l-54 -53l-55 55zM706 469l55 55l53 -53l-55 -55zM198 524l55 -55l-53 -53l-55 55zM144 327l55 55l53 -53l-55 -55zM497 679l54 54l54 -53l-55 -54zM640 680l55 55l53 -53l-55 -55zM408 733l55 -54l-53 -53l-55 54zM354 117l55 55l53 -52l-55 -54zM426 468l54 53
l53 -53l-53 -53zM550 172l55 -54l-52 -52l-55 54zM550 591l54 -53l-53 -53l-54 53zM356 538l53 53l53 -52l-54 -54zM427 609l53 53l53 -53l-53 -53zM566 329l53 53l53 -52l-54 -54zM340 382l54 -53l-53 -53l-53 54zM690 169l56 -55l-51 -51l-55 56zM689 452l53 -52l-53 -53
l-53 52zM267 593l55 -55l-51 -51l-55 55zM214 114l55 55l50 -51l-55 -55zM286 186l55 55l50 -51l-55 -55zM638 538l55 55l50 -51l-55 -55zM194 665l55 -55l-50 -50l-55 55zM217 400l53 52l53 -52l-53 -53zM710 610l55 55l51 -50l-55 -55zM619 241l54 -55l-50 -50l-55 54z
M427 190l53 53l52 -53l-52 -52zM497 397l54 54l50 -51l-53 -53zM409 451l53 -54l-50 -50l-54 53zM568 468l53 53l50 -51l-53 -53zM548 311l53 -52l-51 -51l-52 53zM339 521l52 -53l-50 -50l-53 52zM359 259l52 52l51 -50l-53 -53zM429 329l51 51l50 -51l-50 -50zM433 40
l-8 8l55 54l55 -54l-8 -8h-94zM122 448l6 6l55 -55l-55 -55l-6 6v98zM832 344l-55 55l55 55l6 -6v-98zM579 40l-9 9l52 52l55 -56l-5 -5h-93zM288 40l-6 5l55 55l53 -51l-9 -9h-93zM430 755h100l4 -5l-54 -54l-55 54zM122 593l4 4l55 -55l-53 -53l-6 6v98zM832 489l-53 53
l55 55l4 -4v-98zM834 202l-55 55l53 53l6 -5v-99zM122 206v99l5 5l53 -53l-55 -55zM573 755h102l2 -3l-55 -54l-53 53zM285 755h102l4 -4l-54 -53l-55 54zM122 164l3 3l53 -54l-56 -56v107zM835 167l3 -3v-107l-57 56zM719 40l-6 5l51 51l56 -56h-101zM140 40l56 56l50 -51
l-5 -5h-101zM715 755h106l-55 -55l-54 52zM245 755l2 -3l-53 -52l-55 55h106zM838 738v-101l-5 -5l-50 51zM122 738l55 -55l-51 -51l-4 5v101z" />
    <glyph glyph-name="_239" unicode="&#x2668;" 
d="M530 362c0 38 -15 85 -29 129s-28 89 -27 136c1 52 21 108 59 160c7 10 -6 20 -15 12c-28 -24 -59 -62 -79 -97c-19 -31 -27 -63 -28 -94c-1 -42 13 -89 27 -131c15 -45 31 -93 30 -135c-1 -56 -14 -113 -44 -158c-7 -10 6 -18 15 -10c58 47 91 122 91 188zM370 362
c0 31 -14 63 -28 94c-15 31 -27 73 -28 112c-1 56 10 112 50 165c10 14 -5 24 -19 11c-53 -49 -98 -119 -94 -195c2 -36 14 -73 27 -103c16 -35 29 -70 31 -103c3 -54 -18 -115 -47 -158c-7 -11 6 -20 18 -8c43 42 90 112 90 185zM245 319c-113 -12 -171 -66 -172 -132
c-2 -111 217 -165 408 -165c192 0 407 59 407 170c0 55 -58 109 -156 118c-7 0 -10 -10 -1 -11c53 -12 100 -44 100 -90c0 -77 -186 -118 -350 -118s-351 36 -351 113c0 53 49 88 117 104c8 1 6 12 -2 11zM690 362c0 31 -14 63 -28 94c-15 31 -27 73 -28 112
c-1 56 10 112 50 165c10 14 -5 24 -19 11c-53 -49 -98 -119 -94 -195c2 -36 14 -73 27 -103c16 -35 29 -70 31 -103c3 -54 -18 -115 -47 -158c-7 -11 6 -20 18 -8c43 42 90 112 90 185z" />
    <glyph glyph-name="_240" unicode="&#x260f;" 
d="M653 625c24 0 33 -12 35 -31c2 -22 2 -56 2 -82c0 -12 5 -19 18 -20c57 -6 115 -11 173 -17h3c8 0 14 3 14 14c-2 95 -47 218 -190 220h-457c-144 -2 -190 -129 -190 -218c0 -13 6 -17 18 -16l175 17c11 1 16 8 16 19c0 15 -1 33 -1 53c0 51 6 61 37 61h25v-120
c-38 -14 -199 -173 -199 -296c1 -34 5 -71 8 -100c1 -13 6 -16 19 -16h646c10 0 16 4 17 17c3 32 7 67 8 101c0 115 -156 276 -199 294v120h22zM529 503h-97v122h97v-122zM625 300c0 76 -65 139 -142 139c-78 0 -143 -60 -143 -139c0 -81 63 -140 143 -140
c78 0 142 62 142 140zM603 493c33 -16 68 -50 105 -91c45 -50 94 -135 94 -199c-2 -28 -5 -60 -8 -85h-627c-3 24 -6 60 -7 88c0 111 128 249 198 287v132h46v-145h152v145h47v-132zM597 300c0 -65 -48 -116 -114 -116c-69 0 -116 51 -116 116c0 64 48 114 116 114
c65 0 114 -53 114 -114zM300 646c-47 0 -58 -22 -58 -81c0 -15 0 -34 1 -49l-151 -15c0 78 40 185 158 185h459c116 0 157 -106 157 -186l-149 15l-1 59c0 41 -12 72 -57 72h-359z" />
    <glyph glyph-name="_241" unicode="&#x260e;" 
d="M877 475c13 -1 22 4 21 20c-2 39 -13 88 -36 128c-28 47 -73 85 -146 86h-470c-76 -1 -122 -37 -150 -84c-23 -40 -33 -89 -35 -130c-1 -16 8 -22 23 -20l163 17c13 1 19 11 18 21c-1 19 -1 41 3 62c5 27 15 50 38 50h40v-120c-32 -6 -77 -44 -125 -104
c-47 -59 -89 -134 -89 -198l8 -89c1 -13 9 -21 23 -21h636c12 0 22 6 23 20l8 95c0 61 -43 135 -91 194s-98 100 -123 103v120h40c20 0 32 -20 36 -51c3 -21 4 -45 4 -64c0 -10 5 -16 20 -18zM544 625v-120h-126v120h126zM622 300c0 -78 -60 -140 -139 -140
c-81 0 -140 59 -140 140c0 79 60 139 140 139c77 0 139 -62 139 -139z" />
    <glyph glyph-name="_242" unicode="&#x261c;" 
d="M938 161v360h-130v-13h-46c-8 0 -12 -6 -12 -14v-38c-5 -1 -10 -1 -15 -1c-51 0 -87 32 -125 67c-41 31 -94 31 -142 31c-50 0 -100 -1 -102 -49h-291c-35 0 -53 -27 -53 -54s18 -53 50 -53h215c-2 -4 -3 -8 -3 -13c0 -17 10 -46 26 -50c-8 -6 -11 -15 -11 -25
c0 -19 12 -43 29 -48c-4 -5 -6 -12 -6 -18c0 -20 20 -55 48 -55c16 -23 49 -28 87 -29h59c44 0 69 4 98 18c12 6 26 14 40 23c13 8 26 15 38 23c17 11 34 13 58 12v-46c0 -8 5 -13 12 -13h46v-15h130zM366 441c12 19 21 40 21 56c0 24 11 34 58 34h39c40 0 83 -5 111 -24
c41 -35 77 -74 143 -74h12v-177c-21 1 -41 -2 -60 -10c-31 -13 -63 -36 -96 -55c-32 -18 -82 -13 -135 -13c-25 0 -55 5 -60 13c21 0 44 2 62 4c29 4 42 18 42 55c0 34 -8 75 -15 101c7 -5 42 -31 62 -31c6 0 9 4 9 8s-2 7 -7 10c-54 28 -81 67 -84 127c0 7 -3 11 -8 11
s-8 -3 -10 -11c-9 -33 -37 -42 -76 -42c-8 0 -11 6 -10 12c0 2 1 4 2 6zM362 481c-3 -13 -14 -32 -19 -44c-2 -4 -4 -9 -3 -13c0 -2 2 -5 4 -6h-270c-18 0 -29 13 -29 31c0 22 9 32 33 32h284zM773 197v289h35v-289h-35zM442 332c20 0 28 -10 28 -23c0 -14 -13 -21 -31 -24
c-21 -3 -55 -4 -78 -4c-27 0 -38 5 -38 26c0 10 5 21 19 21h22c25 0 54 1 78 4zM423 400c19 0 28 -9 28 -22c0 -17 -14 -26 -36 -27c-19 -1 -47 -2 -73 -2c-24 0 -35 11 -35 30c0 10 5 19 19 19c25 0 70 1 97 2zM454 263c19 0 26 -10 26 -23c0 -12 -5 -22 -15 -23
c-24 -4 -60 -6 -85 -6c-23 0 -34 9 -34 29c0 10 5 19 16 19h21c23 0 50 1 71 4z" />
    <glyph glyph-name="_243" unicode="&#x261e;" 
d="M152 161v15h46c7 0 12 5 12 13v46c24 1 41 -1 58 -12c12 -8 25 -15 38 -23c14 -9 28 -17 40 -23c29 -14 54 -18 98 -18h59c38 1 71 6 87 29c28 0 48 35 48 55c0 6 -2 13 -6 18c17 5 29 29 29 48c0 10 -3 19 -11 25c16 4 26 33 26 50c0 5 -1 9 -3 13h215c32 0 50 26 50 53
s-18 54 -53 54h-291c-2 48 -52 49 -102 49c-48 0 -101 0 -142 -31c-38 -35 -74 -67 -125 -67c-5 0 -10 0 -15 1v38c0 8 -4 14 -12 14h-46v13h-130v-360h130zM594 441c1 -2 2 -4 2 -6c1 -6 -2 -12 -10 -12c-39 0 -67 9 -76 42c-2 8 -5 11 -10 11s-8 -4 -8 -11
c-3 -60 -30 -99 -84 -127c-5 -3 -7 -6 -7 -10s3 -8 9 -8c20 0 55 26 62 31c-7 -26 -15 -67 -15 -101c0 -37 13 -51 42 -55c18 -2 41 -4 62 -4c-5 -8 -35 -13 -60 -13c-53 0 -103 -5 -135 13c-33 19 -65 42 -96 55c-19 8 -39 11 -60 10v177h12c66 0 102 39 143 74
c28 19 71 24 111 24h39c47 0 58 -10 58 -34c0 -16 9 -37 21 -56zM882 481c24 0 33 -10 33 -32c0 -18 -11 -31 -29 -31h-270c2 1 4 4 4 6c1 4 -1 9 -3 13c-5 12 -16 31 -19 44h284zM152 197v289h35v-289h-35zM518 332c24 -3 53 -4 78 -4h22c14 0 19 -11 19 -21
c0 -21 -11 -26 -38 -26c-23 0 -57 1 -78 4c-18 3 -31 10 -31 24c0 13 8 23 28 23zM537 400c27 -1 72 -2 97 -2c14 0 19 -9 19 -19c0 -19 -11 -30 -35 -30c-26 0 -54 1 -73 2c-22 1 -36 10 -36 27c0 13 9 22 28 22zM506 263c21 -3 48 -4 71 -4h21c11 0 16 -9 16 -19
c0 -20 -11 -29 -34 -29c-25 0 -61 2 -85 6c-10 1 -15 11 -15 23c0 13 7 23 26 23z" />
    <glyph glyph-name="_244" unicode="&#xb6;" 
d="M501 780c-140 0 -225 -86 -225 -234v-8c0 -149 101 -237 238 -237h30v-440h35v887h51v-887h34v919h-163z" />
    <glyph glyph-name="_245" unicode="&#x2020;" 
d="M703 648h-203v185h-39v-185h-204v-36h204v-751h39v751h203v36z" />
    <glyph glyph-name="_246" unicode="&#x2021;" 
d="M257 47h204v-186h39v186h203v35h-203v530h203v36h-203v185h-39v-185h-204v-36h204v-530h-204v-35z" />
    <glyph glyph-name="_247" unicode="&#x2195;" 
d="M381 99l99 -135l99 135h-81v601h81l-99 135l-99 -135h81v-601h-81z" />
    <glyph glyph-name="_248" unicode="&#x2197;" 
d="M191 52l521 521l56 -57l26 165l-166 -25l58 -58l-521 -520z" />
    <glyph glyph-name="_249" unicode="&#x2199;" 
d="M768 681l-521 -521l-56 57l-26 -165l166 25l-57 58l520 520z" />
    <glyph glyph-name="_250" unicode="&#x2196;" 
d="M794 78l-520 520l57 58l-166 25l26 -165l56 57l521 -521z" />
    <glyph glyph-name="_251" unicode="&#x2198;" 
d="M165 655l521 -520l-58 -58l166 -25l-26 165l-56 -57l-521 521z" />
    <glyph glyph-name="_252" unicode="&#x266d;" 
d="M365 838h-34v-848c178 -2 338 127 338 287c0 99 -56 166 -141 166c-75 0 -137 -51 -163 -105v500zM365 228c0 109 82 181 148 181c64 0 101 -49 101 -137c0 -127 -123 -243 -249 -250v206z" />
    <glyph glyph-name="_253" unicode="&#x2669;" 
d="M539 131c-17 7 -46 12 -71 12c-92 0 -181 -62 -181 -145c0 -48 38 -77 91 -77c118 0 196 74 196 185v733h-35v-708z" />
    <glyph glyph-name="_254" unicode="&#x266a;" 
d="M506 639c120 -38 215 -148 215 -263c0 -80 -30 -168 -71 -235h22c48 69 87 156 87 257c0 110 -60 192 -130 242c-78 55 -133 99 -132 199h-25v-709c-17 8 -47 13 -71 13c-92 0 -181 -62 -181 -144c0 -49 38 -77 91 -77c118 0 195 74 195 184v533z" />
    <glyph glyph-name="_255" unicode="&#x266c;" 
d="M815 671l-499 -116v109l499 116v-109zM815 246c-18 7 -46 12 -71 12c-92 0 -181 -62 -181 -145c0 -48 38 -77 91 -77c118 0 195 74 195 185v634l-567 -132v-593c-18 8 -47 13 -71 13c-92 0 -181 -62 -181 -144c0 -49 38 -77 91 -77c118 0 195 74 195 184v383l499 112
v-355z" />
    <glyph glyph-name="_256" unicode="&#x327f;" 
d="M901 459c-25 209 -205 364 -422 364c-246 0 -427 -187 -423 -440h201v30h-164c6 211 161 378 386 378c201 0 362 -143 387 -332h35zM58 328c25 -209 205 -364 422 -364c246 0 427 187 423 440h-201v-30h164c-6 -211 -161 -377 -386 -377c-201 0 -363 142 -387 331h-35z
M665 662h-47l-182 -241h-65v241h-40v-532h40v255h65l204 -255h49l-220 273z" />
    <glyph glyph-name="_257" unicode="&#x321c;" 
d="M221 -19c-82 121 -138 266 -138 413s56 292 138 414h-34c-85 -120 -141 -264 -141 -414s56 -294 141 -413h34zM772 -19c85 119 141 263 141 413s-56 294 -141 414h-34c82 -122 138 -267 138 -414s-56 -292 -138 -413h34zM228 660h231v-35c0 -119 -126 -194 -239 -212v-34
c118 21 223 82 259 169c37 -87 136 -148 258 -169v34c-117 19 -239 93 -239 212v35h233v34h-503v-34zM192 247h267v-198h39v198h269v34h-575v-34z" />
    <glyph glyph-name="_258" unicode="&#x2116;" horiz-adv-x="952" 
d="M457 4h41v777h-41v-687l-328 687h-41v-777h41v687zM564 4h336v33h-336v-33zM905 367c0 144 -49 226 -173 226s-173 -82 -173 -226s49 -226 173 -226s173 82 173 226zM866 367c0 -128 -38 -191 -134 -191s-134 63 -134 191s38 191 134 191s134 -63 134 -191z" />
    <glyph glyph-name="_259" unicode="&#x33c7;" 
d="M246 -7c125 0 196 101 204 264h-41c-8 -139 -63 -227 -163 -227c-140 0 -169 175 -169 365c0 188 23 366 169 366c101 0 155 -88 163 -227h41c-9 162 -79 264 -204 264c-171 0 -209 -184 -209 -403c0 -211 38 -402 209 -402zM839 284c0 185 -55 291 -171 291
s-170 -106 -170 -291s54 -291 170 -291s171 106 171 291zM798 284c0 -164 -41 -256 -130 -256s-130 92 -130 256s41 256 130 256s130 -92 130 -256zM913 103h-46v-97h46v97z" />
    <glyph glyph-name="_260" unicode="&#x2122;" horiz-adv-x="717" 
d="M20 750h111v-339h35v339h112v30h-258v-30zM501 411l129 290v-290h34v369h-33l-144 -326l-144 326h-33v-369h34v290l129 -290h28z" />
    <glyph glyph-name="_261" unicode="&#x33c2;" 
d="M272 168c0 -78 -31 -139 -106 -139s-105 54 -105 139s30 141 105 141s106 -63 106 -141zM310 377c0 120 -42 194 -135 194c-89 0 -129 -67 -134 -168h39c4 83 28 133 95 133c69 0 97 -59 97 -156v-111c-18 42 -48 75 -111 75c-90 0 -138 -69 -138 -176s48 -175 138 -175
c60 0 93 34 111 78c0 -20 3 -48 11 -65h39c-7 21 -12 48 -12 77v294zM819 6h39v393c0 127 -31 172 -95 172c-46 0 -79 -34 -96 -119c-8 86 -38 119 -88 119c-41 0 -76 -38 -89 -112v99h-39v-552h39v274c0 181 37 256 84 256c34 0 61 -30 61 -139v-391h39v300
c0 151 36 230 84 230c36 0 61 -31 61 -160v-370zM402 103h-42v-97h42v97zM936 103h-41v-97h41v97z" />
    <glyph glyph-name="_262" unicode="&#x33d8;" 
d="M332 282c0 191 -42 289 -141 289c-55 0 -92 -44 -107 -107v94h-39v-793h39v331c18 -59 53 -103 107 -103c99 0 141 98 141 289zM293 282c0 -166 -31 -253 -104 -253c-74 0 -105 90 -105 253c0 162 31 254 105 254c73 0 104 -89 104 -254zM819 6h39v393
c0 127 -31 172 -95 172c-46 0 -79 -34 -96 -119c-8 86 -38 119 -88 119c-41 0 -76 -38 -89 -112v99h-39v-552h39v274c0 181 37 256 84 256c34 0 61 -30 61 -139v-391h39v300c0 151 36 230 84 230c36 0 61 -31 61 -160v-370zM402 103h-42v-97h42v97zM936 103h-41v-97h41v97z
" />
    <glyph glyph-name="_263" unicode="&#x2121;" 
d="M749 297c-4 190 -76 275 -206 275c-134 0 -206 -89 -206 -290c0 -200 73 -289 206 -289c109 0 174 58 196 173h-42c-19 -93 -72 -138 -154 -138c-104 0 -164 71 -165 246h371v23zM543 537c101 0 160 -67 164 -230h-328c3 163 63 230 164 230zM19 743h181v-737h42v737h181
v37h-404v-37zM877 6v774h-41v-774h41z" />
    <glyph glyph-name="_265" unicode="&#xff02;" 
d="M438 559v222h-40v-222h40zM562 559v222h-39v-222h39z" />
    <glyph glyph-name="_266" unicode="&#xff03;" 
d="M676 781l-52 -238h-223l52 238h-39l-52 -238h-159v-35h152l-51 -232h-139v-35h132l-52 -237h40l51 237h223l-52 -237h39l53 237h158v35h-151l50 232h139v35h-132l52 238h-39zM617 508l-51 -232h-223l51 232h223z" />
    <glyph glyph-name="_267" unicode="&#xff04;" 
d="M489 878h-37v-84c-147 -6 -226 -93 -226 -201c0 -128 80 -174 226 -205v-358c-119 10 -184 80 -184 172v25h-42v-25c0 -110 76 -199 226 -210v-85h37v84c161 4 244 97 244 211c0 123 -85 196 -244 220v333c110 -9 173 -71 173 -162v-20h42v20c0 105 -75 191 -215 200v85z
M489 30v353c147 -20 202 -91 202 -181c0 -96 -72 -169 -202 -172zM268 593c0 93 66 157 184 162v-326c-119 26 -184 60 -184 164z" />
    <glyph glyph-name="_268" unicode="&#xff05;" 
d="M339 4l319 777h-38l-319 -777h38zM420 585c0 146 -57 209 -149 209c-93 0 -150 -63 -150 -209c0 -148 57 -210 150 -210c92 0 149 62 149 210zM384 585c0 -134 -46 -179 -113 -179s-113 45 -113 179c0 132 46 177 113 177s113 -45 113 -177zM539 200
c0 -146 57 -209 150 -209c92 0 149 63 149 209c0 147 -57 210 -149 210c-93 0 -150 -63 -150 -210zM576 200c0 133 45 178 113 178c67 0 112 -45 112 -178c0 -132 -45 -177 -112 -177c-68 0 -113 45 -113 177z" />
    <glyph glyph-name="_269" unicode="&#xff06;" 
d="M748 389h-41c-3 -87 -20 -163 -51 -222l-294 293c-68 69 -84 108 -84 159c0 89 58 138 147 138s148 -49 148 -138v-21h41v22c0 111 -76 174 -189 174s-188 -63 -188 -174c0 -60 17 -107 84 -174c-96 -58 -142 -136 -142 -237c0 -133 96 -218 242 -218
c110 0 191 41 244 111l100 -98h55l-133 133c38 66 58 154 61 252zM421 28c-118 0 -201 71 -201 183c0 86 38 156 126 209l289 -288c-46 -66 -116 -104 -214 -104z" />
    <glyph glyph-name="_270" unicode="&#xff07;" 
d="M500 559v222h-40v-222h40z" />
    <glyph glyph-name="_273" unicode="&#xff0a;" 
d="M289 499l-21 -35l176 -98l-176 -100l21 -34l174 102l-3 -201h39l-2 201l174 -102l20 34l-177 100l177 98l-20 35l-174 -104l2 203h-39l3 -203z" />
    <glyph glyph-name="_274" unicode="&#xff0b;" 
d="M254 348h206v-215h40v215h206v36h-206v215h-40v-215h-206v-36z" />
    <glyph glyph-name="_276" unicode="&#xff0d;" 
d="M325 347h310v38h-310v-38z" />
    <glyph glyph-name="_278" unicode="&#xff0f;" 
d="M57 -2l27 -27l817 813l-27 26z" />
    <glyph glyph-name="_279" unicode="&#xff10;" 
d="M722 393c0 179 -21 266 -70 327c-37 48 -94 74 -173 74c-78 0 -134 -26 -172 -74c-49 -61 -70 -148 -70 -327c0 -180 21 -267 70 -328c38 -48 94 -74 172 -74c79 0 136 26 173 74c49 61 70 148 70 328zM681 393c0 -168 -19 -252 -59 -303c-31 -38 -81 -62 -143 -62
s-111 24 -141 62c-40 51 -60 135 -60 303c0 167 20 251 60 302c30 38 79 62 141 62s112 -24 143 -62c40 -51 59 -135 59 -302z" />
    <glyph glyph-name="_280" unicode="&#xff11;" 
d="M555 4v777h-37l-213 -96v-41l209 94v-734h41z" />
    <glyph glyph-name="_281" unicode="&#xff12;" 
d="M697 569c0 121 -76 225 -223 225s-224 -104 -224 -225v-22h41v21c0 106 65 189 183 189c117 0 183 -83 183 -189c0 -56 -20 -104 -69 -160l-327 -369v-35h448v37h-394l305 343c62 68 77 117 77 185z" />
    <glyph glyph-name="_282" unicode="&#xff13;" 
d="M675 213c0 -111 -81 -185 -195 -185s-195 75 -195 197v3h-41v-4c0 -143 95 -233 236 -233c142 0 236 86 236 223c0 116 -65 187 -153 203c83 21 130 89 130 182c0 109 -81 195 -213 195c-131 0 -212 -86 -212 -195v-19h41v17c0 93 64 160 171 160c106 0 172 -67 172 -160
c0 -82 -51 -161 -158 -161h-80v-37h74c118 0 187 -76 187 -186z" />
    <glyph glyph-name="_283" unicode="&#xff14;" 
d="M269 228l296 483v-483h-296zM716 228h-110v553h-43l-340 -553v-37h342v-187h41v187h110v37z" />
    <glyph glyph-name="_284" unicode="&#xff15;" 
d="M479 471c121 0 189 -80 189 -222c0 -141 -68 -221 -189 -221c-106 0 -173 60 -186 177h-41c14 -133 93 -214 227 -214c144 0 229 94 229 257c0 167 -85 260 -224 260c-76 0 -133 -34 -163 -88l16 324h329v37h-369l-20 -424h41c29 75 89 114 161 114z" />
    <glyph glyph-name="_285" unicode="&#xff16;" 
d="M692 607c-15 125 -96 187 -212 187c-170 0 -234 -112 -234 -456v-12c0 -117 8 -194 59 -258c41 -52 102 -77 176 -77c142 0 233 98 233 258s-89 259 -231 259c-96 0 -165 -47 -195 -116c3 259 52 365 191 365c88 0 157 -44 170 -150h43zM481 28c-115 0 -193 81 -193 221
s78 222 193 222s193 -82 193 -222s-78 -221 -193 -221z" />
    <glyph glyph-name="_286" unicode="&#xff17;" 
d="M257 744h403l-286 -740h44l285 742v35h-446v-37z" />
    <glyph glyph-name="_287" unicode="&#xff18;" 
d="M479 -9c149 0 248 80 248 218c0 105 -60 182 -160 205c81 24 136 89 136 183c0 117 -86 197 -224 197c-137 0 -223 -80 -223 -197c0 -94 55 -159 135 -183c-99 -23 -158 -100 -158 -205c0 -138 98 -218 246 -218zM479 396c121 0 207 -67 207 -184
c0 -118 -86 -184 -207 -184c-119 0 -206 66 -206 184c0 117 87 184 206 184zM479 433c-107 0 -182 62 -182 162s75 162 182 162c108 0 184 -62 184 -162s-76 -162 -184 -162z" />
    <glyph glyph-name="_288" unicode="&#xff19;" 
d="M268 177c15 -124 96 -186 213 -186c166 0 233 108 233 455v12c0 117 -8 196 -58 259c-42 52 -105 77 -177 77c-141 0 -234 -98 -234 -258s90 -259 232 -259c97 0 165 46 195 116c-2 -262 -53 -365 -191 -365c-89 0 -157 45 -170 149h-43zM479 757c115 0 193 -82 193 -221
c0 -141 -78 -223 -193 -223c-114 0 -193 82 -193 223c0 139 79 221 193 221z" />
    <glyph glyph-name="_295" unicode="&#xff20;" 
d="M586 48c-117 0 -181 76 -181 221c0 144 64 222 181 222c116 0 179 -78 179 -222c0 -145 -63 -221 -179 -221zM480 -172c-205 0 -286 106 -286 466c0 345 69 466 286 466c187 0 265 -93 280 -337c-26 62 -86 103 -178 103c-140 0 -215 -96 -215 -257
c0 -159 74 -256 217 -256c144 0 219 96 219 260v21c0 364 -86 500 -323 500c-238 0 -324 -136 -324 -500c0 -376 96 -500 324 -500c57 0 112 14 158 37l-14 34c-40 -24 -94 -37 -144 -37z" />
    <glyph glyph-name="_296" unicode="&#xff21;" 
d="M213 4l75 203h384l75 -203h45l-291 777h-43l-291 -777h46zM301 245l178 480l178 -480h-356z" />
    <glyph glyph-name="_297" unicode="&#xff22;" 
d="M273 421v321h225c129 0 186 -58 186 -160c0 -103 -57 -161 -186 -161h-225zM509 4c157 0 240 64 240 207c0 109 -51 173 -148 191c77 22 126 80 126 182c0 124 -73 197 -222 197h-274v-777h278zM706 212c0 -108 -53 -169 -205 -169h-228v340h228c152 0 205 -63 205 -171z
" />
    <glyph glyph-name="_298" unicode="&#xff23;" 
d="M484 -9c170 0 267 102 278 264h-43c-11 -138 -88 -226 -235 -226c-74 0 -134 25 -173 72c-54 66 -72 164 -72 292c0 127 18 225 72 291c39 47 99 72 173 72c147 0 224 -88 235 -226h43c-11 162 -108 264 -278 264c-91 0 -159 -30 -206 -85c-59 -71 -81 -181 -81 -316
c0 -136 22 -246 81 -317c47 -55 115 -85 206 -85z" />
    <glyph glyph-name="_299" unicode="&#xff24;" 
d="M474 742c195 0 246 -156 246 -349c0 -196 -50 -350 -246 -350h-214v699h214zM218 4h259c219 0 285 168 285 389c0 216 -65 388 -285 388h-259v-777z" />
    <glyph glyph-name="_300" unicode="&#xff25;" 
d="M262 4h436v39h-394v340h349v39h-349v320h389v39h-431v-777z" />
    <glyph glyph-name="_301" unicode="&#xff26;" 
d="M277 4h42v367h349v39h-349v332h383v39h-425v-777z" />
    <glyph glyph-name="_302" unicode="&#xff27;" 
d="M196 393c0 -242 72 -402 287 -402c124 0 218 64 241 160l5 -147h34v384h-275v-39h235v-41c0 -188 -97 -278 -240 -278c-190 0 -245 147 -245 363c0 215 57 362 245 362c146 0 224 -87 234 -226h44c-12 162 -109 265 -278 265c-216 0 -287 -163 -287 -401z" />
    <glyph glyph-name="_303" unicode="&#xff28;" 
d="M693 4h42v777h-42v-360h-426v360h-42v-777h42v378h426v-378z" />
    <glyph glyph-name="_304" unicode="&#xff29;" 
d="M501 781h-42v-777h42v777z" />
    <glyph glyph-name="_305" unicode="&#xff2a;" 
d="M450 -9c148 0 223 95 223 251v539h-42v-538c0 -134 -62 -213 -181 -213c-118 0 -181 83 -181 211l-43 1c0 -156 74 -251 224 -251z" />
    <glyph glyph-name="_306" unicode="&#xff2b;" 
d="M733 781h-51l-277 -359h-112v359h-42v-777h42v379h112l311 -379h52l-330 397z" />
    <glyph glyph-name="_307" unicode="&#xff2c;" 
d="M282 4h436v39h-394v738h-42v-777z" />
    <glyph glyph-name="_308" unicode="&#xff2d;" 
d="M503 4l306 683v-683h42v777h-46l-325 -729l-327 729h-45v-777h42v683l306 -683h47z" />
    <glyph glyph-name="_309" unicode="&#xff2e;" 
d="M740 4v777h-42v-700l-437 700h-42v-777h42v700l437 -700h42z" />
    <glyph glyph-name="_310" unicode="&#xff2f;" 
d="M767 393c0 135 -22 245 -81 316c-47 55 -115 85 -206 85s-160 -30 -206 -85c-60 -71 -81 -181 -81 -316c0 -136 21 -246 81 -317c46 -55 115 -85 206 -85s159 30 206 85c59 71 81 181 81 317zM725 393c0 -128 -18 -226 -72 -292c-39 -47 -99 -72 -173 -72
s-134 25 -173 72c-54 66 -72 164 -72 292c0 127 18 225 72 291c39 47 99 72 173 72s134 -25 173 -72c54 -66 72 -164 72 -291z" />
    <glyph glyph-name="_311" unicode="&#xff30;" 
d="M519 312c160 0 240 92 240 235c0 142 -80 234 -240 234h-278v-777h42v308h236zM283 351v391h234c132 0 200 -74 200 -195c0 -122 -68 -196 -200 -196h-234z" />
    <glyph glyph-name="_312" unicode="&#xff31;" 
d="M766 393c0 135 -22 245 -81 316c-47 55 -115 85 -206 85s-160 -30 -206 -85c-60 -71 -81 -181 -81 -316c0 -136 21 -246 81 -317c46 -55 115 -85 206 -85c85 0 151 25 197 75l104 -89l28 32l-105 90c45 71 63 172 63 294zM512 207l133 -115c-39 -42 -96 -63 -166 -63
c-74 0 -134 25 -173 72c-54 66 -72 164 -72 292c0 127 18 225 72 291c39 47 99 72 173 72s134 -25 173 -72c54 -66 72 -164 72 -291c0 -112 -15 -202 -54 -266l-130 111z" />
    <glyph glyph-name="_313" unicode="&#xff32;" 
d="M752 4c-7 18 -11 41 -13 71l-8 110c-7 103 -46 149 -125 164c95 27 140 101 140 208c0 136 -74 224 -237 224h-281v-777h42v326h235c128 0 177 -44 184 -145l7 -111c2 -29 6 -53 13 -70h43zM270 369v373h238c130 0 196 -67 196 -187c0 -119 -66 -186 -196 -186h-238z" />
    <glyph glyph-name="_314" unicode="&#xff33;" 
d="M480 29c-135 0 -212 75 -212 173v25h-42v-25c0 -116 87 -211 254 -211s254 95 254 211c0 111 -62 183 -210 213l-100 20c-101 20 -156 70 -156 158c0 98 73 163 197 163c125 0 197 -65 197 -163v-20h43v20c0 111 -84 201 -240 201c-154 0 -239 -90 -239 -201
c0 -107 66 -172 187 -196l100 -20c129 -26 178 -85 178 -175c0 -98 -75 -173 -211 -173z" />
    <glyph glyph-name="_315" unicode="&#xff34;" 
d="M218 742h240v-738h43v738h240v39h-523v-39z" />
    <glyph glyph-name="_316" unicode="&#xff35;" 
d="M479 -9c193 0 272 121 272 299v491h-43v-486c0 -168 -65 -266 -229 -266c-163 0 -229 98 -229 266v486h-42v-491c0 -178 78 -299 271 -299z" />
    <glyph glyph-name="_317" unicode="&#xff36;" 
d="M167 781l291 -777h43l291 777h-45l-268 -716l-266 716h-46z" />
    <glyph glyph-name="_318" unicode="&#xff37;" 
d="M458 781l-199 -713l-187 713h-43l205 -777h46l200 711l200 -711h46l206 777h-45l-186 -713l-200 713h-43z" />
    <glyph glyph-name="_319" unicode="&#xff38;" 
d="M763 781h-49l-234 -348l-234 348h-48l254 -381l-267 -396h49l246 364l246 -364h49l-267 396z" />
    <glyph glyph-name="_320" unicode="&#xff39;" 
d="M225 781h-46l279 -471v-306h42v306l280 471h-47l-254 -433z" />
    <glyph glyph-name="_321" unicode="&#xff3a;" 
d="M242 40v-36h476v39h-428l422 702v36h-459v-39h411z" />
    <glyph glyph-name="_323" unicode="&#xffe6;" 
d="M458 781l-96 -364h-180l-90 364h-43l91 -364h-118v-33h127l95 -380h46l102 380h176l102 -380h46l96 380h126v33h-118l92 364h-45l-90 -364h-179l-97 364h-43zM607 384h162l-78 -316zM560 417h-160l80 298zM191 384h162l-84 -316z" />
    <glyph glyph-name="_325" unicode="&#xff3e;" 
d="M635 523h44l-181 258h-37l-180 -258h43l155 223z" />
    <glyph glyph-name="_327" unicode="&#xff40;" 
d="M520 636h43l-119 178h-47z" />
    <glyph glyph-name="_328" unicode="&#xff41;" 
d="M656 167c0 -85 -60 -139 -183 -139c-124 0 -183 54 -183 139s59 139 183 139c123 0 183 -54 183 -139zM697 375c0 121 -75 197 -213 197c-134 0 -201 -70 -211 -170h41c9 79 60 133 170 133c113 0 172 -63 172 -158v-117c-26 50 -90 84 -190 84
c-140 0 -217 -70 -217 -177c0 -108 77 -176 217 -176c100 0 164 32 190 83c0 -25 3 -50 13 -70h42c-9 21 -14 49 -14 77v294z" />
    <glyph glyph-name="_329" unicode="&#xff42;" 
d="M730 281c0 185 -76 291 -228 291c-102 0 -166 -48 -192 -122v331h-41v-777h41v108c26 -73 90 -121 192 -121c152 0 228 105 228 290zM689 281c0 -164 -60 -253 -189 -253c-131 0 -190 89 -190 253s59 254 190 254c129 0 189 -90 189 -254z" />
    <glyph glyph-name="_330" unicode="&#xff43;" 
d="M255 281c0 -181 73 -290 230 -290c130 0 206 70 220 187h-41c-13 -95 -73 -150 -179 -150c-130 0 -189 87 -189 253c0 167 59 254 189 254c106 0 166 -55 179 -150h41c-14 117 -90 187 -220 187c-157 0 -230 -109 -230 -291z" />
    <glyph glyph-name="_331" unicode="&#xff44;" 
d="M229 281c0 -185 76 -290 229 -290c102 0 166 48 191 121v-108h41v777h-41v-331c-25 74 -89 122 -191 122c-153 0 -229 -106 -229 -291zM649 281c0 -164 -59 -253 -189 -253s-190 89 -190 253s60 254 190 254s189 -90 189 -254z" />
    <glyph glyph-name="_332" unicode="&#xff45;" 
d="M656 163c-18 -85 -75 -135 -176 -135c-128 0 -188 85 -190 242h420v11c0 180 -73 291 -230 291s-231 -111 -231 -291s74 -290 231 -290c124 0 197 64 218 172h-42zM480 535c122 0 182 -82 188 -228h-377c6 146 66 228 189 228z" />
    <glyph glyph-name="_333" unicode="&#xff46;" 
d="M636 751v36c-17 1 -33 2 -51 2c-116 0 -157 -37 -157 -151v-79h-84v-37h84v-518h41v518h167v37h-167v75c0 92 25 117 118 117h49z" />
    <glyph glyph-name="_334" unicode="&#xff47;" 
d="M669 281c0 -164 -59 -253 -189 -253s-190 89 -190 253s60 254 190 254s189 -90 189 -254zM284 -91c13 -96 85 -162 210 -162c140 0 216 87 216 222v590h-41v-109c-25 74 -89 122 -191 122c-153 0 -229 -106 -229 -291s76 -290 229 -290c102 0 166 48 191 121v-145
c0 -116 -67 -183 -175 -183c-94 0 -157 48 -170 125h-40z" />
    <glyph glyph-name="_335" unicode="&#xff48;" 
d="M312 4v279c3 160 84 252 196 252c105 0 161 -66 161 -201v-330h40v341c0 143 -69 227 -195 227c-103 0 -173 -56 -202 -141v350h-41v-777h41z" />
    <glyph glyph-name="_336" unicode="&#xff49;" 
d="M500 4v555h-41v-555h41zM500 686v95h-41v-95h41z" />
    <glyph glyph-name="_337" unicode="&#xff4a;" 
d="M516 559h-41v-667c0 -66 -29 -93 -86 -93h-26v-36c8 -1 18 -1 28 -1c81 0 125 36 125 129v668zM516 686v95h-41v-95h41z" />
    <glyph glyph-name="_338" unicode="&#xff4b;" 
d="M337 4v270h79l234 -270h52l-250 290l224 265h-50l-209 -247h-80v469h-40v-777h40z" />
    <glyph glyph-name="_339" unicode="&#xff4c;" 
d="M500 4v777h-41v-777h41z" />
    <glyph glyph-name="_340" unicode="&#xff4d;" 
d="M821 4h41v372c0 127 -67 196 -181 196c-99 0 -160 -59 -188 -146c-15 95 -80 146 -174 146c-92 0 -155 -52 -181 -140v127h-40v-555h40v271c0 169 77 260 176 260c92 0 145 -54 145 -163v-368h41v271c0 169 76 260 176 260c92 0 145 -54 145 -163v-368z" />
    <glyph glyph-name="_341" unicode="&#xff4e;" 
d="M302 4v279c3 160 84 252 196 252c105 0 161 -66 161 -201v-330h40v341c0 143 -69 227 -195 227c-103 0 -173 -56 -202 -141v128h-41v-555h41z" />
    <glyph glyph-name="_342" unicode="&#xff4f;" 
d="M710 281c0 180 -72 291 -230 291c-157 0 -230 -111 -230 -291c0 -179 73 -290 230 -290c158 0 230 111 230 290zM669 281c0 -163 -58 -253 -189 -253c-130 0 -189 90 -189 253c0 164 59 254 189 254c131 0 189 -90 189 -254z" />
    <glyph glyph-name="_343" unicode="&#xff50;" 
d="M730 281c0 185 -76 291 -228 291c-102 0 -166 -48 -192 -122v109h-41v-797h41v350c26 -73 90 -121 192 -121c152 0 228 105 228 290zM689 281c0 -164 -60 -253 -189 -253c-131 0 -190 89 -190 253s59 254 190 254c129 0 189 -90 189 -254z" />
    <glyph glyph-name="_344" unicode="&#xff51;" 
d="M229 281c0 -185 76 -290 229 -290c102 0 166 48 191 121v-350h41v797h-41v-109c-25 74 -89 122 -191 122c-153 0 -229 -106 -229 -291zM649 281c0 -164 -59 -253 -189 -253s-190 89 -190 253s60 254 190 254s189 -90 189 -254z" />
    <glyph glyph-name="_345" unicode="&#xff52;" 
d="M586 535c14 0 29 -1 38 -3l1 36c-9 3 -24 4 -39 4c-90 0 -148 -45 -172 -135v122h-40v-555h40v277c0 172 65 254 172 254z" />
    <glyph glyph-name="_346" unicode="&#xff53;" 
d="M665 424c0 84 -72 148 -193 148c-122 0 -192 -65 -192 -148c0 -104 64 -126 232 -161c96 -18 132 -53 132 -116c0 -73 -69 -119 -164 -119s-164 46 -164 119v20h-41v-20c0 -94 84 -156 205 -156c123 0 205 63 205 156c0 102 -67 138 -234 166c-92 19 -130 49 -130 111
c0 64 54 111 151 111s152 -47 152 -111v-20h41v20z" />
    <glyph glyph-name="_347" unicode="&#xff54;" 
d="M465 522h177v37h-177v158h-41v-158h-86v-37h86v-375c0 -115 52 -151 161 -151c17 0 36 0 57 1v36h-54c-80 0 -123 24 -123 119v370z" />
    <glyph glyph-name="_348" unicode="&#xff55;" 
d="M302 559h-41v-342c0 -142 69 -226 196 -226c102 0 172 56 201 140v-127h41v555h-41v-280c-2 -160 -84 -251 -196 -251c-105 0 -160 65 -160 200v331z" />
    <glyph glyph-name="_349" unicode="&#xff56;" 
d="M503 4l226 555h-44l-205 -504l-205 504h-44l227 -555h45z" />
    <glyph glyph-name="_350" unicode="&#xff57;" 
d="M457 559l-173 -502l-174 502h-44l195 -555h44l175 501l174 -501h44l195 555h-43l-174 -502l-174 502h-45z" />
    <glyph glyph-name="_351" unicode="&#xff58;" 
d="M670 4h49l-214 284l203 271h-49l-179 -239l-180 239h-49l203 -271l-214 -284h49l191 252z" />
    <glyph glyph-name="_352" unicode="&#xff59;" 
d="M405 -130c-24 -60 -48 -71 -99 -71h-18v-36c7 -1 11 -1 20 -1c67 0 101 16 135 97l286 700h-45l-204 -505l-205 505h-44l227 -556z" />
    <glyph glyph-name="_353" unicode="&#xff5a;" 
d="M667 559h-374v-37h325l-334 -483v-35h391v37h-343l335 483v35z" />
    <glyph glyph-name="_358" unicode="&#x3131;" 
d="M199 629v-35h512v-414h40v449h-552z" />
    <glyph glyph-name="_359" unicode="&#x3132;" 
d="M159 629v-35h240v-414h40v449h-280zM507 629v-35h244v-414h40v449h-284z" />
    <glyph glyph-name="_360" unicode="&#x3133;" 
d="M143 629v-36h224v-414h40v450h-264zM616 629v-200c0 -125 -73 -193 -150 -215v-35c81 19 147 79 171 146c26 -68 89 -126 170 -146v35c-76 23 -150 92 -150 215v200h-41z" />
    <glyph glyph-name="_361" unicode="&#x3134;" 
d="M761 180v35h-512v414h-40v-449h552z" />
    <glyph glyph-name="_362" unicode="&#x3135;" 
d="M405 215h-209v414h-40v-450h249v36zM606 593v-193c0 -100 -84 -170 -156 -185v-35c82 17 153 75 176 141c26 -65 100 -124 178 -141v35c-71 15 -158 86 -158 185v193h152v36h-341v-36h149z" />
    <glyph glyph-name="_363" unicode="&#x3136;" 
d="M408 215h-211v414h-40v-449h251v35zM415 572v-35h412v35h-186v109h-41v-109h-185zM479 310c0 31 13 59 36 79c25 23 63 36 105 36c43 0 80 -13 105 -36c23 -20 36 -48 36 -79s-13 -59 -36 -79c-25 -23 -62 -36 -105 -36c-42 0 -80 13 -105 36c-23 20 -36 48 -36 79z
M440 310c0 -42 19 -78 50 -104c33 -29 80 -45 130 -45c51 0 98 16 131 45c30 26 49 62 49 104s-19 78 -49 104c-33 29 -80 45 -131 45c-50 0 -97 -16 -130 -45c-31 -26 -50 -62 -50 -104z" />
    <glyph glyph-name="_364" unicode="&#x3137;" 
d="M249 215v379h502v35h-542v-449h552v35h-512z" />
    <glyph glyph-name="_365" unicode="&#x3138;" 
d="M551 215v379h235v35h-275v-449h285v35h-245zM212 594h224v35h-264v-449h275v35h-235v379z" />
    <glyph glyph-name="_366" unicode="&#x3139;" 
d="M254 205v183h492v251h-532v-35h492v-180h-492v-254h552v35h-512z" />
    <glyph glyph-name="_367" unicode="&#x313a;" 
d="M512 214h-306v175h245v240h-284v-34h245v-172h-245v-243h345v34zM798 629h-282v-35h243v-414h39v449z" />
    <glyph glyph-name="_368" unicode="&#x313b;" 
d="M515 629v-449h283v449h-283zM554 595h205v-381h-205v381zM457 214h-251v175h230v240h-269v-34h230v-172h-230v-243h290v34z" />
    <glyph glyph-name="_369" unicode="&#x313c;" 
d="M554 450v179h-39v-449h283v449h-39v-179h-205zM554 416h205v-202h-205v202zM457 214h-251v175h230v240h-269v-34h230v-172h-230v-243h290v34z" />
    <glyph glyph-name="_370" unicode="&#x313d;" 
d="M454 214h-249v175h231v240h-270v-35h230v-172h-230v-243h288v35zM624 629v-216c0 -108 -71 -178 -141 -199v-35c76 18 139 78 162 141c26 -63 85 -123 162 -141v35c-73 21 -142 93 -142 199v216h-41z" />
    <glyph glyph-name="_371" unicode="&#x313e;" 
d="M554 214v175h234v34h-234v172h244v34h-283v-449h290v34h-251zM457 214h-251v175h230v240h-269v-34h230v-172h-230v-243h290v34z" />
    <glyph glyph-name="_372" unicode="&#x313f;" 
d="M583 595h113v-381h-113v381zM735 214v381h63v34h-317v-34h63v-381h-66v-34h325v34h-68zM440 214h-234v175h218v240h-257v-34h218v-172h-218v-243h273v34z" />
    <glyph glyph-name="_373" unicode="&#x3140;" 
d="M457 214h-251v175h220v240h-259v-34h220v-172h-220v-243h290v34zM473 572v-35h360v35h-160v109h-41v-109h-159zM531 310c0 32 12 60 32 80c22 22 52 35 89 35s67 -13 89 -35c20 -20 32 -48 32 -80s-12 -60 -32 -80c-22 -22 -52 -35 -89 -35s-67 13 -89 35
c-20 20 -32 48 -32 80zM492 310c0 -42 16 -78 44 -105c29 -27 69 -44 116 -44s87 17 116 44c28 27 44 63 44 105s-16 78 -44 105c-29 27 -69 44 -116 44s-87 -17 -116 -44c-28 -27 -44 -63 -44 -105z" />
    <glyph glyph-name="_374" unicode="&#x3141;" 
d="M209 629v-449h542v449h-542zM711 594v-379h-462v379h462z" />
    <glyph glyph-name="_375" unicode="&#x3142;" 
d="M249 444v185h-40v-449h542v449h-40v-185h-462zM711 409v-194h-462v194h462z" />
    <glyph glyph-name="_376" unicode="&#x3143;" 
d="M228 445v184h-39v-449h582v449h-39v-184h-228v184h-40v-184h-236zM228 410h236v-195h-236v195zM732 410v-195h-228v195h228z" />
    <glyph glyph-name="_377" unicode="&#x3144;" 
d="M205 445v184h-39v-450h284v450h-39v-184h-206zM205 411h206v-197h-206v197zM624 629v-216c0 -108 -71 -178 -141 -199v-35c76 18 139 78 162 141c26 -63 85 -123 162 -141v35c-73 21 -142 93 -142 199v216h-41z" />
    <glyph glyph-name="_378" unicode="&#x3145;" 
d="M479 411c40 -109 148 -199 308 -240v38c-158 37 -288 147 -288 320v110h-40v-110c0 -173 -125 -283 -288 -320v-38c171 39 268 132 308 240z" />
    <glyph glyph-name="_379" unicode="&#x3146;" 
d="M480 179c81 45 141 123 164 206c29 -83 91 -160 190 -207v37c-89 44 -169 138 -169 275v139h-41v-138c0 -128 -65 -223 -145 -272c-74 48 -144 145 -144 272v138h-41v-139c0 -137 -79 -232 -169 -275v-37c99 45 164 123 190 207c25 -83 86 -159 165 -206z" />
    <glyph glyph-name="_380" unicode="&#x3147;" 
d="M230 405c0 59 22 107 61 142c45 40 111 62 189 62s144 -22 189 -62c39 -35 61 -83 61 -142s-22 -107 -61 -142c-45 -40 -111 -62 -189 -62s-144 22 -189 62c-39 35 -61 83 -61 142zM190 405c0 -71 28 -130 78 -171c51 -44 125 -68 212 -68s161 24 212 68
c50 41 78 100 78 171s-28 130 -78 171c-51 44 -125 68 -212 68s-161 -24 -212 -68c-50 -41 -78 -100 -78 -171z" />
    <glyph glyph-name="_381" unicode="&#x3148;" 
d="M479 407c41 -108 148 -200 296 -236v38c-150 38 -277 145 -277 307v77h267v36h-572v-36h265v-77c0 -162 -120 -270 -276 -307v-38c157 36 257 127 297 236z" />
    <glyph glyph-name="_382" unicode="&#x3149;" 
d="M480 179c75 44 136 130 156 210c25 -84 92 -167 188 -211v37c-85 41 -168 135 -168 269v110h157v35h-655v-35h145v-110c0 -134 -82 -231 -168 -269v-37c96 42 165 127 188 211c23 -81 85 -163 157 -210zM479 218c-64 47 -136 146 -136 266v110h273v-110
c0 -121 -67 -218 -137 -266z" />
    <glyph glyph-name="_383" unicode="&#x314a;" 
d="M479 403c41 -107 148 -199 296 -233v37c-150 38 -277 146 -277 301v17h267v35h-267v141h-40v-141h-265v-35h265v-17c0 -155 -120 -264 -276 -301v-37c157 34 257 125 297 233z" />
    <glyph glyph-name="_384" unicode="&#x314b;" 
d="M209 629v-35h502v-184c-73 -12 -172 -16 -254 -16h-248v-36h247c86 0 183 6 255 18v-196h40v449h-542z" />
    <glyph glyph-name="_385" unicode="&#x314c;" 
d="M254 205v183h482v36h-482v180h492v35h-532v-469h552v35h-512z" />
    <glyph glyph-name="_386" unicode="&#x314d;" 
d="M612 406c0 -68 -6 -141 -25 -191h-236v379h261v-188zM652 594h119v35h-582v-35h122v-379h-142v-35h622v35h-165c19 50 26 125 26 198v181z" />
    <glyph glyph-name="_387" unicode="&#x314e;" 
d="M176 582v-35h608v35h-285v128h-40v-128h-283zM711 305c0 -27 -11 -49 -31 -67c-40 -35 -115 -52 -200 -52s-160 17 -200 52c-20 18 -31 40 -31 67s11 49 31 67c40 35 115 52 200 52s160 -17 200 -52c20 -18 31 -40 31 -67zM209 305c0 -38 16 -68 44 -92
c49 -41 133 -62 227 -62s178 21 227 62c28 24 44 54 44 92s-16 68 -44 92c-49 41 -133 62 -227 62s-178 -21 -227 -62c-28 -24 -44 -54 -44 -92z" />
    <glyph glyph-name="_388" unicode="&#x314f;" 
d="M478 835h-40v-881h40v459h188v37h-188v385z" />
    <glyph glyph-name="_389" unicode="&#x3150;" 
d="M617 -46v881h-41v-378h-194v372h-40v-863h40v454h194v-466h41z" />
    <glyph glyph-name="_390" unicode="&#x3151;" 
d="M478 835h-40v-880h40v301h186v36h-186v265h186v37h-186v241z" />
    <glyph glyph-name="_391" unicode="&#x3152;" 
d="M617 -45v880h-41v-228h-194v222h-40v-863h40v285h194v-296h41zM382 288v283h194v-283h-194z" />
    <glyph glyph-name="_392" unicode="&#x3153;" 
d="M480 450h-188v-37h188v-459h41v881h-41v-385z" />
    <glyph glyph-name="_393" unicode="&#x3154;" 
d="M630 -46v881h-40v-881h40zM394 422v-456h40v863h-40v-370h-177v-37h177z" />
    <glyph glyph-name="_394" unicode="&#x3155;" 
d="M480 594h-186v-37h186v-262h-186v-36h186v-304h41v880h-41v-241z" />
    <glyph glyph-name="_395" unicode="&#x3156;" 
d="M394 555v-251h-172v-35h172v-303h40v863h-40v-237h-172v-37h172zM630 -46v881h-40v-881h40z" />
    <glyph glyph-name="_396" unicode="&#x3157;" 
d="M88 202h783v37h-372v378h-41v-378h-370v-37z" />
    <glyph glyph-name="_397" unicode="&#x3158;" 
d="M284 418v-333h-233v-37h410c103 0 191 24 245 70v-163h41v458h167v37h-167v385h-41v-681c-55 -46 -141 -69 -241 -69h-140v333h-41z" />
    <glyph glyph-name="_398" unicode="&#x3159;" 
d="M278 417v-332h-187v-37h282c89 0 165 20 210 60v-141h40v459h165v-471h41v880h-41v-372h-165v366h-40v-685c-47 -42 -120 -59 -206 -59h-59v332h-40z" />
    <glyph glyph-name="_399" unicode="&#x315a;" 
d="M327 418v-333h-239v-37h411c109 0 201 22 257 70v-164h41v881h-41v-681c-59 -48 -149 -69 -248 -69h-139v333h-42z" />
    <glyph glyph-name="_400" unicode="&#x315b;" 
d="M622 600v-361h-280v361h-41v-361h-213v-37h783v37h-208v361h-41z" />
    <glyph glyph-name="_401" unicode="&#x315c;" 
d="M88 379h370v-373h41v373h372v36h-783v-36z" />
    <glyph glyph-name="_402" unicode="&#x315d;" 
d="M798 835h-41v-666h-232v-37h232v-177h41v880zM441 332c84 0 171 11 223 43v36c-60 -33 -159 -42 -243 -42h-356v-37h233v-378h41v378h102z" />
    <glyph glyph-name="_403" unicode="&#x315e;" 
d="M788 835v-881h41v881h-41zM339 337c76 0 143 6 190 33v35c-49 -26 -118 -32 -189 -32h-249v-36h169v-384h41v384h38zM598 145v-179h40v863h-40v-647h-158v-37h158z" />
    <glyph glyph-name="_404" unicode="&#x315f;" 
d="M512 313c104 0 191 24 246 70v-429h40v882h-40v-416c-58 -47 -143 -70 -240 -70h-453v-37h251v-360h41v360h155z" />
    <glyph glyph-name="_405" unicode="&#x3160;" 
d="M632 379v-365h41v365h198v36h-783v-36h202v-365h41v365h301z" />
    <glyph glyph-name="_406" unicode="&#x3161;" 
d="M88 202h783v37h-783v-37z" />
    <glyph glyph-name="_407" unicode="&#x3162;" 
d="M794 -46v881h-42v-674c-58 -48 -148 -70 -247 -70h-427v-36h418c109 0 201 22 256 69v-170h42z" />
    <glyph glyph-name="_408" unicode="&#x3163;" 
d="M459 -45h41v880h-41v-880z" />
    <glyph glyph-name="_409" unicode="&#x3165;" 
d="M452 215h-245v414h-40v-449h285v35zM801 215h-248v414h-40v-449h288v35z" />
    <glyph glyph-name="_410" unicode="&#x3166;" 
d="M550 215v379h240v35h-280v-449h286v35h-246zM448 215h-241v414h-40v-449h281v35z" />
    <glyph glyph-name="_411" unicode="&#x3167;" 
d="M428 215h-222v414h-40v-450h262v36zM616 629v-200c0 -125 -73 -193 -150 -215v-35c81 19 147 79 171 146c26 -68 89 -126 170 -146v35c-76 23 -150 92 -150 215v200h-41z" />
    <glyph glyph-name="_412" unicode="&#x3168;" 
d="M632 568l122 -353h-247zM632 669l-178 -489h353zM428 215h-221v414h-40v-449h261v35z" />
    <glyph glyph-name="_413" unicode="&#x3169;" 
d="M358 214h-225v174h185v241h-223v-35h185v-172h-185v-243h263v35zM576 629h-211v-35h173v-415h38v450zM732 629v-187c0 -135 -45 -197 -116 -228v-35c61 18 116 70 136 135c22 -64 75 -116 136 -135v35c-73 31 -117 92 -117 228v187h-39z" />
    <glyph glyph-name="_414" unicode="&#x316a;" 
d="M464 214h-258v175h237v240h-276v-34h236v-172h-236v-243h297v34zM568 215v379h230v35h-270v-449h276v35h-236z" />
    <glyph glyph-name="_415" unicode="&#x316b;" 
d="M407 446v183h-38v-450h229v450h-38v-183h-153zM407 411h153v-197h-153v197zM326 214h-193v174h175v241h-213v-35h175v-172h-175v-243h231v35zM733 629v-187c0 -135 -45 -197 -116 -228v-35c61 18 116 70 136 135c22 -64 75 -116 136 -135v35c-73 31 -117 92 -117 228v187
h-39z" />
    <glyph glyph-name="_416" unicode="&#x316c;" 
d="M642 570l120 -355h-242zM642 668l-173 -488h345zM457 214h-251v175h230v240h-269v-34h230v-172h-230v-243h290v34z" />
    <glyph glyph-name="_417" unicode="&#x316d;" 
d="M767 323c0 -40 -16 -74 -42 -96c-20 -16 -46 -27 -74 -27s-54 11 -74 27c-26 22 -42 56 -42 96s16 74 42 96c20 16 46 27 74 27s54 -11 74 -27c26 -22 42 -56 42 -96zM818 594v35h-331v-35h331zM457 214h-251v175h220v240h-259v-34h220v-172h-220v-243h290v34zM496 323
c0 -52 22 -96 57 -124c27 -21 61 -34 98 -34s71 13 98 34c35 28 57 72 57 124s-22 96 -57 124c-27 21 -61 34 -98 34s-71 -13 -98 -34c-35 -28 -57 -72 -57 -124z" />
    <glyph glyph-name="_418" unicode="&#x316e;" 
d="M558 450v179h-39v-449h279v449h-39v-179h-201zM558 416h201v-202h-201v202zM167 629v-449h279v449h-279zM206 595h201v-381h-201v381z" />
    <glyph glyph-name="_419" unicode="&#x316f;" 
d="M166 629v-450h282v450h-282zM205 594h204v-380h-204v380zM624 629v-216c0 -108 -71 -178 -141 -199v-35c76 18 139 78 162 141c26 -63 85 -123 162 -141v35c-73 21 -142 93 -142 199v216h-41z" />
    <glyph glyph-name="_420" unicode="&#x3170;" 
d="M167 629v-449h282v449h-282zM206 595h204v-381h-204v381zM642 570l120 -355h-242zM642 668l-173 -488h345z" />
    <glyph glyph-name="_421" unicode="&#x3171;" 
d="M249 732v-326h462v326h-462zM671 697v-256h-382v256h382zM329 191c0 26 10 47 27 64c27 26 73 40 124 40s97 -14 124 -40c17 -17 27 -38 27 -64c0 -25 -10 -47 -27 -63c-27 -27 -73 -40 -124 -40s-97 13 -124 40c-17 16 -27 38 -27 63zM289 191c0 -35 15 -66 40 -88
c35 -33 92 -50 151 -50s116 17 151 50c25 22 40 53 40 88c0 36 -15 66 -40 89c-35 33 -92 50 -151 50s-116 -17 -151 -50c-25 -23 -40 -53 -40 -89z" />
    <glyph glyph-name="_422" unicode="&#x3172;" 
d="M206 449v180h-39v-449h293v449h-39v-180h-215zM206 415h215v-201h-215v201zM798 629h-272v-35h233v-414h39v449z" />
    <glyph glyph-name="_423" unicode="&#x3173;" 
d="M206 449v180h-39v-449h283v449h-39v-180h-205zM206 415h205v-201h-205v201zM575 215v379h223v35h-263v-449h269v35h-229z" />
    <glyph glyph-name="_424" unicode="&#x3174;" 
d="M836 629h-208v-35h170v-415h38v450zM153 446v183h-38v-450h231v450h-38v-183h-155zM153 411h155v-197h-155v197zM490 629v-187c0 -135 -45 -197 -116 -228v-35c61 18 116 70 136 135c22 -64 75 -116 136 -135v35c-73 31 -117 92 -117 228v187h-39z" />
    <glyph glyph-name="_425" unicode="&#x3175;" 
d="M836 629h-193v-450h203v35h-166v380h156v35zM153 446v183h-38v-450h221v450h-38v-183h-145zM153 411h145v-197h-145v197zM469 629v-233c0 -101 -53 -162 -109 -182v-35c62 19 111 70 129 125c19 -55 68 -104 128 -125v35c-58 21 -109 81 -109 182v233h-39z" />
    <glyph glyph-name="_426" unicode="&#x3176;" 
d="M206 449v180h-39v-449h283v449h-39v-180h-205zM630 594v-187c0 -105 -69 -172 -137 -192v-35c73 17 135 75 157 136c25 -60 83 -118 157 -136v35c-69 20 -137 88 -137 192v187h134v35h-297v-35h123zM206 415h205v-201h-205v201z" />
    <glyph glyph-name="_427" unicode="&#x3177;" 
d="M206 449v180h-39v-449h280v449h-39v-180h-202zM206 415h202v-201h-202v201zM565 214v175h223v34h-223v172h233v34h-272v-449h279v34h-240z" />
    <glyph glyph-name="_428" unicode="&#x3178;" 
d="M289 605v127h-40v-326h462v326h-40v-127h-382zM671 570v-129h-382v129h382zM329 191c0 26 10 47 27 64c27 26 73 40 124 40s97 -14 124 -40c17 -17 27 -38 27 -64c0 -25 -10 -47 -27 -63c-27 -27 -73 -40 -124 -40s-97 13 -124 40c-17 16 -27 38 -27 63zM289 191
c0 -35 15 -66 40 -88c35 -33 92 -50 151 -50s116 17 151 50c25 22 40 53 40 88c0 36 -15 66 -40 89c-35 33 -92 50 -151 50s-116 -17 -151 -50c-25 -23 -40 -53 -40 -89z" />
    <glyph glyph-name="_429" unicode="&#x3179;" 
d="M268 604v128h-39v-326h502v326h-39v-128h-188v128h-39v-128h-197zM289 191c0 -35 15 -66 40 -88c35 -33 92 -50 151 -50s116 17 151 50c25 22 40 53 40 88c0 36 -15 66 -40 89c-35 33 -92 50 -151 50s-116 -17 -151 -50c-25 -23 -40 -53 -40 -89zM329 191
c0 26 10 47 27 64c27 26 73 40 124 40s97 -14 124 -40c17 -17 27 -38 27 -64c0 -25 -10 -47 -27 -63c-27 -27 -73 -40 -124 -40s-97 13 -124 40c-17 16 -27 38 -27 63zM268 570h197v-129h-197v129zM692 570v-129h-188v129h188z" />
    <glyph glyph-name="_430" unicode="&#x317a;" 
d="M318 629v-200c0 -125 -73 -193 -151 -215v-35c82 19 147 79 171 146c27 -68 90 -126 170 -146v35c-75 23 -150 92 -150 215v200h-40zM511 629v-36h231v-414h40v450h-271z" />
    <glyph glyph-name="_431" unicode="&#x317b;" 
d="M798 215h-222v414h-40v-450h262v36zM289 629v-216c0 -108 -71 -178 -142 -199v-35c76 18 140 78 163 141c25 -63 85 -123 162 -141v35c-72 21 -142 92 -142 199v216h-41z" />
    <glyph glyph-name="_432" unicode="&#x317c;" 
d="M561 215v378h227v36h-267v-450h273v36h-233zM286 629v-202c0 -123 -72 -192 -149 -213v-35c81 19 146 78 170 145c26 -68 89 -125 168 -145v35c-74 23 -148 92 -148 213v202h-41z" />
    <glyph glyph-name="_433" unicode="&#x317d;" 
d="M279 629v-216c0 -108 -71 -178 -142 -199v-35c76 18 140 78 163 141c25 -63 85 -123 162 -141v35c-72 21 -142 92 -142 199v216h-41zM556 450v179h-39v-450h281v450h-39v-179h-203zM556 415h203v-201h-203v201z" />
    <glyph glyph-name="_434" unicode="&#x317e;" 
d="M480 179c76 45 138 130 157 210c25 -84 92 -166 187 -211v37c-85 41 -166 135 -166 269v110h155v35h-349v-35h154v-110c0 -121 -68 -218 -139 -266c-66 47 -137 146 -137 266v145h-41v-145c0 -134 -81 -231 -166 -269v-37c95 43 164 127 187 211c22 -81 85 -163 158 -210
z" />
    <glyph glyph-name="_435" unicode="&#x317f;" 
d="M179 180h603l-304 503zM478 610l239 -395h-473z" />
    <glyph glyph-name="_436" unicode="&#x3180;" 
d="M186 405c0 81 17 144 52 176c17 15 38 24 63 24c26 0 46 -9 64 -24c35 -32 52 -95 52 -176s-17 -144 -52 -176c-18 -15 -38 -24 -64 -24c-25 0 -46 9 -63 24c-35 32 -52 95 -52 176zM147 405c0 -95 23 -166 68 -204c23 -20 52 -30 86 -30c35 0 64 10 87 30
c45 38 68 109 68 204s-23 166 -68 204c-23 20 -52 30 -87 30c-34 0 -63 -10 -86 -30c-45 -38 -68 -109 -68 -204zM548 405c0 81 17 144 52 176c18 15 38 24 64 24c25 0 46 -9 63 -24c35 -32 52 -95 52 -176s-17 -144 -52 -176c-17 -15 -38 -24 -63 -24c-26 0 -46 9 -64 24
c-35 32 -52 95 -52 176zM509 405c0 -95 23 -166 68 -204c23 -20 52 -30 87 -30c34 0 63 10 86 30c45 38 68 109 68 204s-23 166 -68 204c-23 20 -52 30 -86 30c-35 0 -64 -10 -87 -30c-45 -38 -68 -109 -68 -204z" />
    <glyph glyph-name="_437" unicode="&#x3181;" 
d="M189 355c0 -59 26 -108 71 -144c52 -42 129 -65 219 -65s167 23 219 65c45 36 71 85 71 144s-26 108 -71 144c-48 38 -118 61 -199 65v139h-40v-139c-82 -4 -151 -27 -199 -65c-45 -36 -71 -85 -71 -144zM229 355c0 47 20 87 57 116c44 37 111 58 193 58s149 -21 193 -58
c37 -29 57 -69 57 -116s-20 -87 -57 -116c-44 -37 -111 -58 -193 -58s-149 21 -193 58c-37 29 -57 69 -57 116z" />
    <glyph glyph-name="_438" unicode="&#x3182;" 
d="M616 629v-200c0 -125 -73 -193 -150 -215v-35c81 19 147 79 171 146c26 -68 89 -126 170 -146v35c-76 23 -150 92 -150 215v200h-41zM147 358c0 -65 18 -116 53 -149c27 -25 62 -38 103 -38c42 0 77 13 104 38c34 33 53 84 53 149c0 66 -19 117 -53 149
c-23 21 -50 34 -83 38v116h-41v-116c-33 -4 -61 -17 -83 -38c-35 -32 -53 -83 -53 -149zM186 358c0 54 14 96 39 123c19 20 45 31 78 31s60 -11 79 -31c25 -27 39 -69 39 -123c0 -53 -14 -96 -39 -122c-19 -20 -46 -31 -79 -31s-59 11 -78 31c-25 26 -39 69 -39 122z" />
    <glyph glyph-name="_439" unicode="&#x3183;" 
d="M147 358c0 -65 18 -116 53 -149c27 -25 62 -38 103 -38c42 0 77 13 104 38c34 33 53 84 53 149c0 66 -19 117 -53 149c-23 21 -50 34 -83 38v116h-41v-116c-33 -4 -61 -17 -83 -38c-35 -32 -53 -83 -53 -149zM642 669l-174 -489h346zM186 358c0 54 14 96 39 123
c19 20 45 31 78 31s60 -11 79 -31c25 -27 39 -69 39 -123c0 -53 -14 -96 -39 -122c-19 -20 -46 -31 -79 -31s-59 11 -78 31c-25 26 -39 69 -39 122zM642 568l119 -353h-239z" />
    <glyph glyph-name="_440" unicode="&#x3184;" 
d="M209 406h542v35h-140c14 37 18 97 18 147v109h102v35h-502v-35h103v-256h-123v-35zM372 697h217v-117c0 -47 -3 -102 -19 -139h-198v256zM329 191c0 26 10 47 27 64c27 26 73 40 124 40s97 -14 124 -40c17 -17 27 -38 27 -64c0 -25 -10 -47 -27 -63
c-27 -27 -73 -40 -124 -40s-97 13 -124 40c-17 16 -27 38 -27 63zM289 191c0 -35 15 -66 40 -88c35 -33 92 -50 151 -50s116 17 151 50c25 22 40 53 40 88c0 36 -15 66 -40 89c-35 33 -92 50 -151 50s-116 -17 -151 -50c-25 -23 -40 -53 -40 -89z" />
    <glyph glyph-name="_441" unicode="&#x3185;" 
d="M769 309c0 -36 -13 -65 -35 -86c-20 -17 -47 -27 -77 -27s-57 10 -77 27c-22 21 -35 50 -35 86c0 37 13 66 35 87c20 17 47 27 77 27s57 -10 77 -27c22 -21 35 -50 35 -87zM818 533v35h-142v113h-41v-113h-128v-35h311zM506 309c0 -48 19 -87 50 -113
c27 -22 62 -34 101 -34s74 12 101 34c31 26 50 65 50 113c0 49 -19 88 -50 114c-27 22 -62 34 -101 34s-74 -12 -101 -34c-31 -26 -50 -65 -50 -114zM191 309c0 37 13 66 35 87c20 17 47 27 77 27s57 -10 77 -27c22 -21 35 -50 35 -87c0 -36 -13 -65 -35 -86
c-20 -17 -47 -27 -77 -27s-57 10 -77 27c-22 21 -35 50 -35 86zM453 533v35h-128v113h-41v-113h-142v-35h311zM454 309c0 49 -19 88 -50 114c-27 22 -62 34 -101 34s-74 -12 -101 -34c-31 -26 -50 -65 -50 -114c0 -48 19 -87 50 -113c27 -22 62 -34 101 -34s74 12 101 34
c31 26 50 65 50 113z" />
    <glyph glyph-name="_442" unicode="&#x3186;" 
d="M199 629v-35h562v35h-562zM681 328c0 -31 -13 -57 -36 -78c-36 -31 -93 -49 -165 -49s-129 18 -165 49c-23 21 -36 47 -36 78c0 32 13 58 36 79c36 31 93 49 165 49s129 -18 165 -49c23 -21 36 -47 36 -79zM239 328c0 -42 17 -78 49 -105c43 -37 110 -57 192 -57
s149 20 192 57c32 27 49 63 49 105c0 43 -17 79 -49 106c-43 36 -110 57 -192 57s-149 -21 -192 -57c-32 -27 -49 -63 -49 -106z" />
    <glyph glyph-name="_443" unicode="&#x3187;" 
d="M204 418v-333h-153v-37h410c103 0 191 24 245 70v-163h41v328h167v37h-167v213h167v37h-167v265h-41v-681c-55 -46 -139 -68 -236 -69v333h-41v-333h-184v333h-41z" />
    <glyph glyph-name="_444" unicode="&#x3188;" 
d="M829 -45v880h-41v-272h-165v266h-40v-685c-39 -35 -97 -53 -165 -58v331h-40v-332h-130v332h-40v-332h-117v-37h282c89 0 165 20 210 60v-141h40v309h165v-321h41zM623 526h165v-213h-165v213z" />
    <glyph glyph-name="_445" unicode="&#x3189;" 
d="M257 418v-333h-169v-37h411c109 0 201 22 257 70v-164h41v881h-41v-681c-56 -45 -138 -67 -230 -69v333h-42v-333h-185v333h-42z" />
    <glyph glyph-name="_446" unicode="&#x318a;" 
d="M396 352v-398h42v398c85 0 173 11 226 43v36c-60 -33 -159 -42 -243 -42h-356v-37h140v-398h41v398h150zM798 835h-41v-576h-222v-37h222v-113h-222v-36h222v-118h41v880z" />
    <glyph glyph-name="_447" unicode="&#x318b;" 
d="M346 357v-404h42v404c59 2 113 11 151 33v35c-49 -26 -116 -32 -189 -32h-259v-36h105v-404h42v404h108zM608 228v-106h-155v-36h155v-120h40v863h-40v-564h-155v-37h155zM788 835v-881h41v881h-41z" />
    <glyph glyph-name="_448" unicode="&#x318c;" 
d="M474 313v-360h41v360c99 0 189 25 242 70v-429h41v881h-41v-416c-57 -47 -143 -70 -239 -70h-447v-36h173v-360h41v360h189z" />
    <glyph glyph-name="_449" unicode="&#x318d;" 
d="M505 465h-51v-97h51v97z" />
    <glyph glyph-name="_450" unicode="&#x318e;" 
d="M394 465h-51v-97h51v97zM569 -45h41v880h-41v-880z" />
    <glyph glyph-name="_451" unicode="&#x2170;" 
d="M500 6v553h-41v-553h41zM500 686v94h-41v-94h41z" />
    <glyph glyph-name="_452" unicode="&#x2171;" 
d="M360 6v553h-41v-553h41zM360 686v94h-41v-94h41zM640 6v553h-41v-553h41zM640 686v94h-41v-94h41z" />
    <glyph glyph-name="_453" unicode="&#x2172;" 
d="M500 6v553h-41v-553h41zM500 686v94h-41v-94h41zM280 6v553h-41v-553h41zM280 686v94h-41v-94h41zM720 6v553h-41v-553h41zM720 686v94h-41v-94h41z" />
    <glyph glyph-name="_454" unicode="&#x2173;" 
d="M782 561l-190 -511l-191 511h-43l208 -555h50l209 555h-43zM290 6v552h-41v-552h41zM290 685v95h-41v-95h41z" />
    <glyph glyph-name="_455" unicode="&#x2174;" 
d="M502 6l226 552h-45l-203 -502l-203 502h-46l226 -552h45z" />
    <glyph glyph-name="_456" unicode="&#x2175;" 
d="M575 558l-190 -508l-191 508h-43l208 -552h50l209 552h-43zM730 6v552h-41v-552h41zM730 685v95h-41v-95h41z" />
    <glyph glyph-name="_457" unicode="&#x2176;" 
d="M452 558l-157 -507l-157 507h-44l175 -552h50l176 552h-43zM780 6v552h-41v-552h41zM780 685v95h-41v-95h41zM610 6v552h-41v-552h41zM610 685v95h-41v-95h41z" />
    <glyph glyph-name="_458" unicode="&#x2177;" 
d="M360 558l-136 -505l-136 505h-44l154 -552h51l154 552h-43zM510 6v552h-41v-552h41zM510 685v95h-41v-95h41zM680 6v552h-41v-552h41zM680 685v95h-41v-95h41zM850 6v552h-41v-552h41zM850 685v95h-41v-95h41z" />
    <glyph glyph-name="_459" unicode="&#x2178;" 
d="M833 6l-210 284l198 268h-47l-174 -236l-175 236h-46l197 -268l-209 -284h47l186 252l185 -252h48zM290 6v552h-41v-552h41zM290 685v95h-41v-95h41z" />
    <glyph glyph-name="_460" unicode="&#x2179;" 
d="M670 6h48l-213 283l202 270h-48l-179 -239l-179 239h-48l202 -270l-213 -283h48l190 252z" />
    <glyph glyph-name="_461" unicode="&#x2160;" 
d="M575 6v37h-74v700h74v37h-190v-37h74v-700h-74v-37h190z" />
    <glyph glyph-name="_462" unicode="&#x2161;" 
d="M423 6v37h-72v700h72v37h-186v-37h72v-700h-72v-37h186zM723 6v37h-72v700h72v37h-186v-37h72v-700h-72v-37h186z" />
    <glyph glyph-name="_463" unicode="&#x2162;" 
d="M808 6v37h-67v700h67v37h-176v-37h67v-700h-67v-37h176zM568 6v37h-67v700h67v37h-176v-37h67v-700h-67v-37h176zM328 6v37h-67v700h67v37h-176v-37h67v-700h-67v-37h176z" />
    <glyph glyph-name="_464" unicode="&#x2163;" 
d="M319 6v37h-69v700h69v37h-180v-37h69v-700h-69v-37h180zM642 6l223 774h-46l-204 -726l-206 726h-43l222 -774h54z" />
    <glyph glyph-name="_465" unicode="&#x2164;" 
d="M168 780l290 -774h43l290 774h-44l-267 -715l-268 715h-44z" />
    <glyph glyph-name="_466" unicode="&#x2165;" 
d="M825 6v37h-69v700h69v37h-180v-37h69v-700h-69v-37h180zM372 6l223 774h-46l-204 -726l-206 726h-43l222 -774h54z" />
    <glyph glyph-name="_467" unicode="&#x2166;" 
d="M898 6v37h-62v700h62v37h-166v-37h62v-700h-62v-37h166zM678 6v37h-62v700h62v37h-166v-37h62v-700h-62v-37h166zM282 6l190 774h-44l-173 -722l-173 722h-43l189 -774h54z" />
    <glyph glyph-name="_468" unicode="&#x2167;" 
d="M921 6v37h-55v700h55v37h-153v-37h56v-700h-56v-37h153zM731 6v37h-55v700h55v37h-153v-37h56v-700h-56v-37h153zM541 6v37h-55v700h55v37h-153v-37h56v-700h-56v-37h153zM220 6l132 774h-43l-119 -723l-119 723h-42l132 -774h59z" />
    <glyph glyph-name="_469" unicode="&#x2168;" 
d="M298 6v37h-69v700h69v37h-179v-37h68v-700h-68v-37h179zM882 6l-247 393l239 381h-47l-216 -343l-216 343h-47l240 -381l-248 -393h47l224 356l224 -356h47z" />
    <glyph glyph-name="_470" unicode="&#x2169;" 
d="M714 780l-235 -346l-234 346h-48l256 -379l-269 -395h49l246 362l247 -362h48l-268 395l256 379h-48z" />
    <glyph glyph-name="_471" unicode="&#x391;" horiz-adv-x="648" 
d="M56 6l76 203h382l77 -203h44l-290 774h-43l-290 -774h44zM144 246l179 481l178 -481h-357z" />
    <glyph glyph-name="_472" unicode="&#x392;" horiz-adv-x="652" 
d="M129 422v321h225c129 0 186 -58 186 -161c0 -102 -57 -160 -186 -160h-225zM367 6c156 0 237 64 237 206c0 110 -50 175 -153 193c78 18 131 75 131 180c0 122 -72 195 -219 195h-276v-774h280zM562 213c0 -107 -53 -170 -205 -170h-228v342h228c152 0 205 -64 205 -172z
" />
    <glyph glyph-name="_473" unicode="&#x393;" horiz-adv-x="522" 
d="M87 780v-774h42v737h380v37h-422z" />
    <glyph glyph-name="_474" unicode="&#x394;" horiz-adv-x="648" 
d="M635 6l-290 774h-43l-290 -774h623zM577 44h-507l253 683z" />
    <glyph glyph-name="_475" unicode="&#x395;" horiz-adv-x="568" 
d="M87 6h436v37h-394v341h348v38h-348v321h388v37h-430v-774z" />
    <glyph glyph-name="_476" unicode="&#x396;" horiz-adv-x="576" 
d="M50 41v-35h475v37h-426l421 702v35h-459v-37h410z" />
    <glyph glyph-name="_477" unicode="&#x397;" horiz-adv-x="683" 
d="M554 6h42v774h-42v-358h-425v358h-42v-774h42v378h425v-378z" />
    <glyph glyph-name="_478" unicode="&#x398;" horiz-adv-x="697" 
d="M592 393c0 -211 -51 -362 -245 -362c-191 0 -243 149 -243 362c0 209 53 362 243 362c193 0 245 -154 245 -362zM62 393c0 -247 75 -400 285 -400c213 0 287 155 287 400c0 240 -71 400 -287 400c-212 0 -285 -158 -285 -400zM224 374h248v37h-248v-37z" />
    <glyph glyph-name="_479" unicode="&#x399;" horiz-adv-x="218" 
d="M129 780h-42v-774h42v774z" />
    <glyph glyph-name="_480" unicode="&#x39a;" horiz-adv-x="601" 
d="M568 780h-50l-277 -358h-112v358h-42v-774h42v378h112l310 -378h51l-326 397z" />
    <glyph glyph-name="_481" unicode="&#x39b;" horiz-adv-x="648" 
d="M591 6h45l-290 774h-44l-290 -774h45l267 721z" />
    <glyph glyph-name="_482" unicode="&#x39c;" horiz-adv-x="915" 
d="M481 6l305 682v-682h42v774h-45l-325 -728l-325 728h-46v-774h42v682l306 -682h46z" />
    <glyph glyph-name="_483" unicode="&#x39d;" horiz-adv-x="694" 
d="M607 6v774h-42v-699l-436 699h-42v-774h42v699l436 -699h42z" />
    <glyph glyph-name="_484" unicode="&#x39e;" horiz-adv-x="596" 
d="M51 743h494v37h-494v-37zM45 6h505v37h-505v-37zM91 384h414v38h-414v-38z" />
    <glyph glyph-name="_485" unicode="&#x39f;" horiz-adv-x="697" 
d="M592 393c0 -211 -51 -362 -245 -362c-191 0 -243 149 -243 362c0 209 53 362 243 362c193 0 245 -154 245 -362zM62 393c0 -247 75 -400 285 -400c213 0 287 155 287 400c0 240 -71 400 -287 400c-212 0 -285 -158 -285 -400z" />
    <glyph glyph-name="_486" unicode="&#x3a0;" horiz-adv-x="683" 
d="M554 6h42v774h-509v-774h42v737h425v-737z" />
    <glyph glyph-name="_487" unicode="&#x3a1;" horiz-adv-x="641" 
d="M129 350v393h235c131 0 198 -75 198 -197c0 -121 -67 -196 -198 -196h-235zM364 313c161 0 240 92 240 233c0 142 -79 234 -240 234h-277v-774h42v307h235z" />
    <glyph glyph-name="_488" unicode="&#x3a3;" horiz-adv-x="562" 
d="M63 43v-37h456v37h-407l203 354v16l-203 330h407v37h-456v-38l206 -337z" />
    <glyph glyph-name="_489" unicode="&#x3a4;" horiz-adv-x="559" 
d="M19 743h239v-737h43v737h239v37h-521v-37z" />
    <glyph glyph-name="_490" unicode="&#x3a5;" horiz-adv-x="639" 
d="M319 351l-254 429h-46l279 -469v-305h43v305l279 469h-46z" />
    <glyph glyph-name="_491" unicode="&#x3a6;" horiz-adv-x="782" 
d="M738 393c0 189 -137 267 -327 269v118h-41v-118c-190 -2 -326 -80 -326 -269c0 -190 136 -268 326 -270v-117h41v117c190 2 327 80 327 270zM695 393c0 -167 -118 -230 -284 -234v467c166 -4 284 -67 284 -233zM370 159c-166 4 -285 67 -285 234c0 166 119 229 285 233
v-467z" />
    <glyph glyph-name="_492" unicode="&#x3a7;" horiz-adv-x="637" 
d="M553 780l-236 -346l-233 346h-48l256 -379l-269 -395h49l245 362l247 -362h49l-269 395l257 379h-48z" />
    <glyph glyph-name="_493" unicode="&#x3a8;" horiz-adv-x="750" 
d="M395 6v168c182 8 278 122 278 294v312h-42v-308c0 -161 -82 -254 -236 -260v568h-41v-568c-155 6 -236 99 -236 260v308h-42v-312c0 -172 95 -286 278 -294v-168h41z" />
    <glyph glyph-name="_494" unicode="&#x3a9;" horiz-adv-x="697" 
d="M348 793c-90 0 -159 -29 -206 -85c-58 -70 -79 -177 -79 -312c0 -172 39 -308 160 -353h-138v-37h207v37c-151 38 -188 183 -188 350c0 126 18 227 72 293c39 46 98 70 172 70c75 0 134 -24 173 -70c54 -66 72 -167 72 -293c0 -167 -38 -312 -188 -350v-37h207v37h-138
c121 45 160 181 160 353c0 135 -21 242 -80 312c-46 56 -115 85 -206 85z" />
    <glyph glyph-name="_495" unicode="&#x3b1;" horiz-adv-x="590" 
d="M511 558h-41v-117c-26 83 -92 130 -193 130c-152 0 -225 -105 -225 -289s73 -289 225 -289c101 0 167 48 193 130v-40c0 -57 17 -85 74 -85c7 0 17 1 26 2v34h-16c-33 0 -43 12 -43 51v473zM470 282c0 -163 -56 -253 -189 -253c-132 0 -188 90 -188 253
c0 162 56 254 188 254c133 0 189 -92 189 -254z" />
    <glyph glyph-name="_496" unicode="&#x3b2;" horiz-adv-x="593" 
d="M516 577c0 128 -78 216 -220 216s-221 -88 -221 -217v-810h41v350c30 -80 100 -123 200 -123c151 0 233 90 233 216c0 114 -66 184 -163 204c84 20 130 86 130 164zM475 576c0 -76 -49 -145 -161 -145h-36v-35h36c127 0 194 -84 194 -186c0 -107 -68 -182 -196 -182
c-127 0 -196 85 -196 193v350c0 114 68 187 180 187s179 -69 179 -182z" />
    <glyph glyph-name="_497" unicode="&#x3b3;" horiz-adv-x="540" 
d="M291 -234v238l227 555h-44l-204 -501l-203 501h-45l228 -554v-239h41z" />
    <glyph glyph-name="_498" unicode="&#x3b4;" horiz-adv-x="564" 
d="M105 780v-36l222 -182c-11 5 -32 8 -53 8c-152 0 -222 -111 -222 -288c0 -181 72 -289 229 -289c158 0 230 108 230 289c0 118 -30 198 -89 247l-259 215h307v36h-365zM470 282c0 -163 -57 -253 -189 -253s-189 90 -189 253c0 162 57 254 189 254s189 -92 189 -254z" />
    <glyph glyph-name="_499" unicode="&#x3b5;" horiz-adv-x="517" 
d="M263 304c-105 0 -160 49 -160 117s57 116 160 116c104 0 161 -48 161 -116v-12h41v12c0 85 -71 151 -202 151c-130 0 -200 -66 -200 -150c0 -68 45 -120 123 -136c-82 -12 -136 -62 -136 -139c0 -96 82 -154 217 -154c134 0 216 64 216 159v4h-41v-3
c0 -79 -72 -125 -175 -125c-104 0 -176 41 -176 120s72 121 176 121h63v35h-67z" />
    <glyph glyph-name="_500" unicode="&#x3b6;" horiz-adv-x="477" 
d="M409 25c-231 0 -320 69 -320 204c0 194 146 404 351 514v37h-335v-35h282c-188 -104 -339 -315 -339 -518c0 -147 97 -237 351 -235c-2 -45 -26 -105 -64 -168l32 -9c45 65 73 136 73 185c0 21 -7 25 -31 25z" />
    <glyph glyph-name="_501" unicode="&#x3b7;" horiz-adv-x="585" 
d="M116 6v269c3 167 81 262 199 262c103 0 156 -73 156 -202v-569h41v580c0 143 -68 226 -190 226c-103 0 -177 -58 -206 -157v144h-41v-553h41z" />
    <glyph glyph-name="_502" unicode="&#x3b8;" horiz-adv-x="618" 
d="M60 393c0 -313 97 -400 249 -400s248 87 248 400s-96 400 -248 400s-249 -87 -249 -400zM309 757c132 0 205 -87 207 -347h-415c0 260 86 347 208 347zM309 29c-122 0 -208 87 -208 347h415c-2 -260 -75 -347 -207 -347z" />
    <glyph glyph-name="_503" unicode="&#x3b9;" horiz-adv-x="204" 
d="M116 559h-41v-479c0 -59 20 -82 75 -82c6 0 17 0 26 1v34h-16c-35 0 -44 12 -44 52v474z" />
    <glyph glyph-name="_504" unicode="&#x3ba;" horiz-adv-x="486" 
d="M116 6v271h79l235 -271h49l-248 288l223 265h-48l-210 -247h-80v247h-41v-553h41z" />
    <glyph glyph-name="_505" unicode="&#x3bb;" horiz-adv-x="518" 
d="M238 553l-227 -547h44l204 496l204 -496h45l-286 691c-34 82 -68 96 -133 96c-8 0 -15 0 -22 -1v-34h19c49 0 75 -13 99 -73z" />
    <glyph glyph-name="_506" unicode="&#x3bc;" horiz-adv-x="587" 
d="M271 -7c99 0 171 55 201 151v-138h40v553h-40v-275c-1 -163 -86 -256 -199 -256c-102 0 -157 67 -157 191v340h-41v-793h41v327c24 -66 80 -100 155 -100z" />
    <glyph glyph-name="_507" unicode="&#x3bd;" horiz-adv-x="541" 
d="M247 6h45l226 552h-44l-204 -502l-203 502h-45z" />
    <glyph glyph-name="_508" unicode="&#x3be;" horiz-adv-x="500" 
d="M462 0c0 21 -6 25 -31 25c-211 1 -342 76 -342 211c0 120 98 209 199 209h77v35h-103c-79 0 -139 56 -139 139c0 86 57 139 152 139c94 0 147 -52 153 -127h41c-4 86 -65 162 -194 162s-192 -77 -192 -173c0 -89 59 -148 134 -161c-97 -31 -169 -113 -169 -226
c0 -151 143 -241 373 -241c-2 -45 -26 -105 -64 -168l32 -9c45 65 73 136 73 185z" />
    <glyph glyph-name="_509" unicode="&#x3bf;" horiz-adv-x="564" 
d="M512 282c0 181 -72 290 -231 290c-157 0 -229 -109 -229 -290c0 -180 72 -289 229 -289c159 0 231 109 231 289zM471 282c0 -162 -57 -254 -190 -254c-131 0 -188 92 -188 254c0 163 57 255 188 255c133 0 190 -92 190 -255z" />
    <glyph glyph-name="_510" unicode="&#x3c0;" horiz-adv-x="574" 
d="M158 524h257v-518h41v518h93v35h-524v-35h92v-518h41v518z" />
    <glyph glyph-name="_511" unicode="&#x3c1;" horiz-adv-x="574" 
d="M62 -234h41v357c26 -82 92 -130 192 -130c153 0 226 105 226 289c0 181 -71 289 -230 289c-157 0 -229 -108 -229 -289v-516zM480 282c0 -163 -56 -253 -189 -253c-132 0 -188 90 -188 253c0 162 56 254 188 254c133 0 189 -92 189 -254z" />
    <glyph glyph-name="_512" unicode="&#x3c3;" horiz-adv-x="566" 
d="M281 -7c158 0 231 111 231 282c0 124 -40 217 -124 249h151v35h-258c-156 0 -229 -112 -229 -284c0 -171 73 -282 229 -282zM471 275c0 -152 -58 -247 -190 -247c-131 0 -188 95 -188 247c0 153 57 249 188 249c132 0 190 -96 190 -249z" />
    <glyph glyph-name="_513" unicode="&#x3c4;" horiz-adv-x="482" 
d="M457 559h-434v-35h191v-421c0 -72 27 -105 98 -105c12 0 27 0 35 1v34h-28c-45 0 -65 19 -65 71v420h203v35z" />
    <glyph glyph-name="_514" unicode="&#x3c5;" horiz-adv-x="573" 
d="M287 -7c136 0 217 75 217 231v335h-41v-335c0 -138 -66 -196 -176 -196c-111 0 -177 58 -177 196v335h-41v-335c0 -156 81 -231 218 -231z" />
    <glyph glyph-name="_515" unicode="&#x3c6;" horiz-adv-x="752" 
d="M659 275c0 -173 -67 -245 -263 -247v496c196 -3 263 -73 263 -249zM700 275c0 194 -86 284 -307 284h-38v-531c-196 2 -262 73 -262 247c0 147 48 208 143 235l-7 35c-123 -32 -177 -112 -177 -270c0 -192 81 -279 303 -282v-227h41v227c222 3 304 90 304 282z" />
    <glyph glyph-name="_516" unicode="&#x3c7;" horiz-adv-x="528" 
d="M507 558h-44l-199 -351l-200 351h-44l220 -387l-231 -405h44l211 368l210 -368h44l-230 405z" />
    <glyph glyph-name="_517" unicode="&#x3c8;" horiz-adv-x="717" 
d="M378 -234v228c160 5 269 84 269 235v329h-41v-329c0 -135 -96 -196 -228 -200v529h-41v-529c-132 4 -228 65 -228 200v329h-41v-329c0 -151 109 -230 269 -235v-228h41z" />
    <glyph glyph-name="_518" unicode="&#x3c9;" horiz-adv-x="818" 
d="M409 123c18 -84 78 -130 163 -130c111 0 189 71 189 271c0 92 -20 193 -58 294h-40c38 -101 57 -205 57 -293c0 -173 -60 -236 -150 -236c-83 0 -141 57 -141 193v228h-41v-228c0 -136 -58 -193 -141 -193c-90 0 -150 63 -150 236c0 88 20 192 58 293h-41
c-38 -101 -58 -202 -58 -294c0 -200 78 -271 189 -271c85 0 145 46 164 130z" />
    <glyph glyph-name="_519" unicode="&#x2500;" 
d="M960 417h-960v-59h960v59z" />
    <glyph glyph-name="_520" unicode="&#x2502;" 
d="M451 888v-1000h59v1000h-59z" />
    <glyph glyph-name="_521" unicode="&#x250c;" 
d="M451 -112h59v470h450v59h-509v-529z" />
    <glyph glyph-name="_522" unicode="&#x2510;" 
d="M510 417h-510v-59h451v-470h59v529z" />
    <glyph glyph-name="_523" unicode="&#x2518;" 
d="M510 888h-59v-471h-451v-59h510v530z" />
    <glyph glyph-name="_524" unicode="&#x2514;" 
d="M451 358h509v59h-450v471h-59v-530z" />
    <glyph glyph-name="_525" unicode="&#x251c;" 
d="M451 888v-1000h59v470h450v59h-450v471h-59z" />
    <glyph glyph-name="_526" unicode="&#x252c;" 
d="M960 417h-960v-59h451v-470h59v470h450v59z" />
    <glyph glyph-name="_527" unicode="&#x2524;" 
d="M510 888h-59v-471h-451v-59h451v-470h59v1000z" />
    <glyph glyph-name="_528" unicode="&#x2534;" 
d="M960 358v59h-450v471h-59v-471h-451v-59h960z" />
    <glyph glyph-name="_529" unicode="&#x253c;" 
d="M451 888v-471h-451v-59h451v-470h59v470h450v59h-450v471h-59z" />
    <glyph glyph-name="_530" unicode="&#x2501;" 
d="M0 435v-94h960v94h-960z" />
    <glyph glyph-name="_531" unicode="&#x2503;" 
d="M433 888v-1000h94v1000h-94z" />
    <glyph glyph-name="_532" unicode="&#x250f;" 
d="M433 435v-547h94v453h433v94h-527z" />
    <glyph glyph-name="_533" unicode="&#x2513;" 
d="M0 435v-94h433v-453h94v547h-527z" />
    <glyph glyph-name="_534" unicode="&#x251b;" 
d="M433 888v-453h-433v-94h527v547h-94z" />
    <glyph glyph-name="_535" unicode="&#x2517;" 
d="M433 888v-547h527v94h-433v453h-94z" />
    <glyph glyph-name="_536" unicode="&#x2523;" 
d="M433 888v-1000h94v453h433v94h-433v453h-94z" />
    <glyph glyph-name="_537" unicode="&#x2533;" 
d="M0 341h433v-453h94v453h433v94h-960v-94z" />
    <glyph glyph-name="_538" unicode="&#x252b;" 
d="M0 341h433v-453h94v1000h-94v-453h-433v-94z" />
    <glyph glyph-name="_539" unicode="&#x253b;" 
d="M433 435h-433v-94h960v94h-433v453h-94v-453z" />
    <glyph glyph-name="_540" unicode="&#x254b;" 
d="M433 435h-433v-94h433v-453h94v453h433v94h-433v453h-94v-453z" />
    <glyph glyph-name="_541" unicode="&#x2520;" 
d="M960 405h-433v483h-94v-1000h94v481h433v36z" />
    <glyph glyph-name="_542" unicode="&#x252f;" 
d="M960 435h-960v-94h461v-453h37v453h462v94z" />
    <glyph glyph-name="_543" unicode="&#x2528;" 
d="M527 -112v1000h-94v-483h-433v-36h433v-481h94z" />
    <glyph glyph-name="_544" unicode="&#x2537;" 
d="M461 435h-461v-94h960v94h-462v453h-37v-453z" />
    <glyph glyph-name="_545" unicode="&#x253f;" 
d="M461 435h-461v-94h461v-453h37v453h462v94h-462v453h-37v-453z" />
    <glyph glyph-name="_546" unicode="&#x251d;" 
d="M960 435h-462v453h-37v-1000h37v453h462v94z" />
    <glyph glyph-name="_547" unicode="&#x2530;" 
d="M960 405h-960v-36h433v-481h94v481h433v36z" />
    <glyph glyph-name="_548" unicode="&#x2525;" 
d="M461 435h-461v-94h461v-453h37v1000h-37v-453z" />
    <glyph glyph-name="_549" unicode="&#x2538;" 
d="M433 405h-433v-36h960v36h-433v483h-94v-483z" />
    <glyph glyph-name="_550" unicode="&#x2542;" 
d="M433 405h-433v-36h433v-481h94v481h433v36h-433v483h-94v-483z" />
    <glyph glyph-name="_551" unicode="&#x2512;" 
d="M433 369v-481h94v517h-527v-36h433z" />
    <glyph glyph-name="_552" unicode="&#x2511;" 
d="M461 341v-453h37v547h-498v-94h461z" />
    <glyph glyph-name="_553" unicode="&#x251a;" 
d="M433 405h-433v-36h527v519h-94v-483z" />
    <glyph glyph-name="_554" unicode="&#x2519;" 
d="M461 435h-461v-94h498v547h-37v-453z" />
    <glyph glyph-name="_555" unicode="&#x2516;" 
d="M527 405v483h-94v-519h527v36h-433z" />
    <glyph glyph-name="_556" unicode="&#x2515;" 
d="M498 435v453h-37v-547h499v94h-462z" />
    <glyph glyph-name="_557" unicode="&#x250e;" 
d="M527 369h433v36h-527v-517h94v481z" />
    <glyph glyph-name="_558" unicode="&#x250d;" 
d="M461 435v-547h37v453h462v94h-499z" />
    <glyph glyph-name="_559" unicode="&#x251e;" 
d="M433 888v-519h28v-481h37v481h462v36h-433v483h-94z" />
    <glyph glyph-name="_560" unicode="&#x251f;" 
d="M461 888v-483h-28v-517h94v481h433v36h-462v483h-37z" />
    <glyph glyph-name="_561" unicode="&#x2521;" 
d="M461 -112h37v453h462v94h-433v453h-94v-547h28v-453z" />
    <glyph glyph-name="_562" unicode="&#x2522;" 
d="M433 -112h94v453h433v94h-462v453h-37v-453h-28v-547z" />
    <glyph glyph-name="_563" unicode="&#x2526;" 
d="M433 888v-483h-433v-36h461v-481h37v481h29v519h-94z" />
    <glyph glyph-name="_564" unicode="&#x2527;" 
d="M0 405v-36h433v-481h94v517h-29v483h-37v-483h-461z" />
    <glyph glyph-name="_565" unicode="&#x2529;" 
d="M0 341h461v-453h37v453h29v547h-94v-453h-433v-94z" />
    <glyph glyph-name="_566" unicode="&#x252a;" 
d="M0 341h433v-453h94v547h-29v453h-37v-453h-461v-94z" />
    <glyph glyph-name="_567" unicode="&#x252d;" 
d="M0 341h461v-453h37v481h462v36h-462v30h-498v-94z" />
    <glyph glyph-name="_568" unicode="&#x252e;" 
d="M0 369h461v-481h37v453h462v94h-499v-30h-461v-36z" />
    <glyph glyph-name="_569" unicode="&#x2531;" 
d="M0 341h433v-453h94v481h433v36h-433v30h-527v-94z" />
    <glyph glyph-name="_570" unicode="&#x2532;" 
d="M0 369h433v-481h94v453h433v94h-527v-30h-433v-36z" />
    <glyph glyph-name="_571" unicode="&#x2535;" 
d="M0 341h498v28h462v36h-462v483h-37v-453h-461v-94z" />
    <glyph glyph-name="_572" unicode="&#x2536;" 
d="M0 369h461v-28h499v94h-462v453h-37v-483h-461v-36z" />
    <glyph glyph-name="_573" unicode="&#x2539;" 
d="M0 341h527v28h433v36h-433v483h-94v-453h-433v-94z" />
    <glyph glyph-name="_574" unicode="&#x253a;" 
d="M0 369h433v-28h527v94h-433v453h-94v-483h-433v-36z" />
    <glyph glyph-name="_575" unicode="&#x253d;" 
d="M0 341h461v-453h37v481h462v36h-462v483h-37v-453h-461v-94z" />
    <glyph glyph-name="_576" unicode="&#x253e;" 
d="M498 888h-37v-483h-461v-36h461v-481h37v453h462v94h-462v453z" />
    <glyph glyph-name="_577" unicode="&#x2540;" 
d="M527 888h-94v-483h-433v-36h461v-481h37v481h462v36h-433v483z" />
    <glyph glyph-name="_578" unicode="&#x2541;" 
d="M498 888h-37v-483h-461v-36h433v-481h94v481h433v36h-462v483z" />
    <glyph glyph-name="_579" unicode="&#x2543;" 
d="M527 888h-94v-453h-433v-94h461v-453h37v453h29v28h433v36h-433v483z" />
    <glyph glyph-name="_580" unicode="&#x2544;" 
d="M498 -112v453h462v94h-433v453h-94v-483h-433v-36h433v-28h28v-453h37z" />
    <glyph glyph-name="_581" unicode="&#x2545;" 
d="M498 888h-37v-453h-461v-94h433v-453h94v481h433v36h-433v30h-29v453z" />
    <glyph glyph-name="_582" unicode="&#x2546;" 
d="M498 888h-37v-453h-28v-30h-433v-36h433v-481h94v452h433v95h-462v453z" />
    <glyph glyph-name="_583" unicode="&#x2547;" 
d="M527 888h-94v-453h-433v-94h461v-453h37v453h462v94h-433v453z" />
    <glyph glyph-name="_584" unicode="&#x2548;" 
d="M498 888h-37v-453h-461v-94h433v-453h94v453h433v94h-462v453z" />
    <glyph glyph-name="_585" unicode="&#x2549;" 
d="M527 888h-94v-453h-433v-94h433v-453h94v481h433v36h-433v483z" />
    <glyph glyph-name="_586" unicode="&#x254a;" 
d="M527 888h-94v-483h-433v-36h433v-481h94v453h433v94h-433v453z" />
    <glyph glyph-name="_587" unicode="&#x3395;" 
d="M146 558h-42v-792h42v307c21 -52 60 -80 112 -80c70 0 122 47 148 127v-114h40v552h-40v-275c0 -163 -63 -254 -146 -254c-75 0 -114 66 -114 189v340zM728 29c-64 0 -100 55 -107 151h-1c163 76 242 216 242 398v9c0 130 -51 206 -141 206c-92 0 -141 -76 -141 -206
v-384c-18 -7 -41 -15 -65 -21l12 -37c19 6 38 12 55 19c12 -104 60 -171 146 -171c81 0 132 57 145 160l-40 10c-10 -90 -48 -134 -105 -134zM721 757c63 0 101 -57 101 -169v-10c0 -158 -63 -284 -202 -355v365c0 112 37 169 101 169z" />
    <glyph glyph-name="_588" unicode="&#x3396;" 
d="M476 6h41v370c0 127 -40 195 -113 195c-52 0 -90 -42 -109 -115c-13 76 -50 115 -104 115c-46 0 -80 -39 -99 -103v90h-41v-552h41v270c0 168 41 260 95 260c50 0 76 -55 76 -163v-367h42v270c0 168 40 260 95 260c50 0 76 -55 76 -163v-367zM778 29
c-63 0 -96 54 -103 151h-1c156 76 234 217 234 398v9c0 130 -49 206 -137 206c-90 0 -138 -76 -138 -206v-384c-17 -8 -39 -15 -62 -22l11 -36c19 5 38 12 53 18c12 -104 60 -170 143 -170c79 0 129 56 141 160l-40 10c-10 -90 -47 -134 -101 -134zM771 757
c61 0 97 -57 97 -169v-10c0 -156 -62 -282 -194 -352v362c0 112 35 169 97 169z" />
    <glyph glyph-name="_589" unicode="&#x3397;" 
d="M96 282c0 -184 57 -289 172 -289c68 0 115 37 139 100v-87h41v774h-41v-309c-24 64 -71 100 -139 100c-115 0 -172 -105 -172 -289zM407 282c0 -163 -41 -253 -136 -253c-94 0 -134 90 -134 253c0 162 40 254 134 254c95 0 136 -92 136 -254zM734 29
c-65 0 -101 55 -108 151h-1c164 76 242 216 242 398v9c0 130 -50 206 -141 206c-92 0 -141 -76 -141 -206v-384c-18 -7 -41 -15 -64 -21l12 -37c18 6 37 12 54 19c13 -104 63 -171 147 -171c81 0 132 57 145 160l-40 10c-11 -90 -49 -134 -105 -134zM726 757
c64 0 101 -57 101 -169v-10c0 -158 -62 -284 -201 -355v365c0 112 36 169 100 169z" />
    <glyph glyph-name="_590" unicode="&#x2113;" horiz-adv-x="524" 
d="M294 27c-85 0 -133 50 -146 152c206 75 316 208 316 400v9c0 131 -63 206 -181 206c-117 0 -180 -75 -180 -206v-345c0 -14 0 -28 1 -41c-27 -8 -55 -15 -85 -22l14 -34c26 6 51 11 75 19c18 -117 80 -174 186 -174c100 0 167 57 185 162l-40 7
c-13 -90 -69 -133 -145 -133zM283 758c89 0 140 -57 140 -169v-10c0 -176 -98 -294 -278 -362c-1 7 -1 15 -1 23v360c0 105 54 158 139 158z" />
    <glyph glyph-name="_591" unicode="&#x3398;" 
d="M178 6v270h64l188 -270h46l-198 288l179 264h-47l-168 -246h-64v468h-41v-774h41zM723 29c-65 0 -101 55 -108 151h-1c164 76 242 216 242 398v9c0 130 -50 206 -141 206c-92 0 -141 -76 -141 -206v-384c-20 -8 -46 -17 -71 -24l12 -36c22 6 44 14 61 21
c12 -104 62 -171 147 -171c81 0 131 57 144 160l-40 10c-10 -90 -48 -134 -104 -134zM715 757c63 0 101 -57 101 -169v-10c0 -158 -63 -284 -202 -355v365c0 112 37 169 101 169z" />
    <glyph glyph-name="_592" unicode="&#x33c4;" 
d="M77 282c0 -180 59 -289 187 -289c107 0 169 69 181 186h-41c-11 -94 -58 -151 -140 -151c-102 0 -146 92 -146 254c0 163 44 255 146 255c82 0 129 -57 140 -151h41c-12 117 -74 186 -181 186c-128 0 -187 -109 -187 -290zM519 282c0 -180 59 -289 187 -289
c107 0 169 69 181 186h-42c-10 -94 -57 -151 -139 -151c-102 0 -146 92 -146 254c0 163 44 255 146 255c82 0 129 -57 139 -151h42c-12 117 -74 186 -181 186c-128 0 -187 -109 -187 -290z" />
    <glyph glyph-name="_593" unicode="&#x33a3;" 
d="M895 676c0 -29 -19 -46 -48 -46c-27 0 -47 20 -47 56h-31c0 -51 31 -82 78 -82c48 0 79 28 79 72c0 29 -13 51 -34 60c18 9 27 30 27 53c0 36 -27 66 -72 66c-44 0 -71 -30 -71 -65v-12h31c0 27 8 50 40 50c26 0 41 -17 41 -40c0 -20 -11 -40 -37 -40h-33v-26h32
c29 0 45 -18 45 -46zM403 6h39v370c0 130 -33 193 -94 193c-43 0 -76 -40 -92 -100c-13 66 -43 102 -87 102c-40 0 -68 -41 -81 -96v83h-38v-552h39v270c0 171 32 260 77 260c40 0 61 -55 61 -163v-367h39v270c0 171 32 260 76 260c41 0 61 -55 61 -163v-367zM871 6h40v370
c0 133 -34 195 -97 195c-43 0 -74 -39 -90 -102c-12 66 -43 102 -87 102c-40 0 -68 -41 -81 -96v83h-38v-552h39v270c0 171 33 260 77 260c40 0 61 -55 61 -163v-367h39v270c0 171 32 260 76 260c41 0 61 -55 61 -163v-367z" />
    <glyph glyph-name="_594" unicode="&#x33a4;" 
d="M38 282c0 -181 54 -289 173 -289c99 0 155 70 167 185h-41c-10 -93 -52 -149 -126 -149c-93 0 -132 90 -132 253c0 162 39 254 132 254c74 0 116 -56 126 -151h41c-12 117 -68 186 -167 186c-119 0 -173 -108 -173 -289zM895 676c0 -29 -19 -46 -48 -46
c-27 0 -47 20 -47 56h-31c0 -51 31 -82 78 -82c48 0 79 28 79 72c0 29 -13 51 -34 60c18 9 27 30 27 53c0 36 -27 66 -72 66c-44 0 -71 -30 -71 -65v-12h31c0 27 8 50 40 50c26 0 41 -17 41 -40c0 -20 -11 -40 -37 -40h-33v-26h32c29 0 45 -18 45 -46zM864 6h41v370
c0 127 -39 195 -113 195c-52 0 -90 -42 -108 -114c-13 75 -50 114 -104 114c-45 0 -80 -39 -99 -103v90h-40v-552h41v273c0 168 41 257 95 257c49 0 76 -55 76 -163v-367h40v270c0 168 41 260 95 260c50 0 76 -55 76 -163v-367z" />
    <glyph glyph-name="_595" unicode="&#x33a5;" 
d="M794 6h41v370c0 127 -62 195 -171 195c-92 0 -157 -59 -182 -154c-11 102 -73 154 -166 154c-89 0 -150 -56 -176 -152v139h-41v-552h41v270c0 168 74 260 169 260c89 0 138 -55 138 -163v-367h41v270c0 168 74 260 169 260c89 0 137 -55 137 -163v-367zM895 676
c0 -29 -19 -46 -48 -46c-27 0 -47 20 -47 56h-31c0 -51 31 -82 78 -82c48 0 79 28 79 72c0 29 -13 51 -34 60c18 9 27 30 27 53c0 36 -27 66 -72 66c-44 0 -71 -30 -71 -65v-12h31c0 27 8 50 40 50c26 0 41 -17 41 -40c0 -20 -11 -40 -37 -40h-33v-26h32c29 0 45 -18 45 -46
z" />
    <glyph glyph-name="_596" unicode="&#x33a6;" 
d="M90 6v270h61l205 -270h47l-216 288l195 264h-46l-184 -246h-62v468h-41v-774h41zM895 676c0 -29 -19 -46 -48 -46c-27 0 -47 20 -47 56h-31c0 -51 31 -82 78 -82c48 0 79 28 79 72c0 29 -13 51 -34 60c18 9 27 30 27 53c0 36 -27 66 -72 66c-44 0 -71 -30 -71 -65v-12h31
c0 27 8 50 40 50c26 0 41 -17 41 -40c0 -20 -11 -40 -37 -40h-33v-26h32c29 0 45 -18 45 -46zM859 6h41v370c0 127 -40 195 -113 195c-52 0 -90 -42 -109 -115c-13 76 -50 115 -104 115c-46 0 -80 -39 -99 -103v90h-42v-552h42v270c0 168 40 260 95 260c49 0 76 -55 76 -163
v-367h41v270c0 168 41 260 96 260c50 0 76 -55 76 -163v-367z" />
    <glyph glyph-name="_597" unicode="&#x3399;" 
d="M836 6h41v370c0 127 -40 195 -113 195c-53 0 -90 -42 -109 -115c-13 76 -50 115 -104 115c-46 0 -80 -39 -99 -103v90h-42v-552h42v270c0 168 40 260 95 260c49 0 76 -55 76 -163v-367h41v270c0 168 41 260 96 260c49 0 76 -55 76 -163v-367zM343 752v34
c-17 1 -34 2 -51 2c-115 0 -156 -37 -156 -151v-79h-85v-35h85v-517h40v517h167v35h-167v75c0 91 26 119 118 119h49z" />
    <glyph glyph-name="_598" unicode="&#x339a;" 
d="M95 6v281c2 159 54 249 122 249c63 0 95 -66 95 -196v-334h42v340c0 146 -46 225 -132 225c-60 0 -105 -40 -127 -113v100h-42v-552h42zM866 6h41v370c0 127 -39 195 -113 195c-52 0 -89 -42 -108 -114c-13 75 -50 114 -104 114c-45 0 -80 -39 -99 -103v90h-40v-552h41
v273c0 168 41 257 95 257c49 0 76 -55 76 -163v-367h40v270c0 168 42 260 95 260c50 0 76 -55 76 -163v-367z" />
    <glyph glyph-name="_599" unicode="&#x339b;" 
d="M93 558h-42v-792h42v296c17 -46 51 -69 93 -69c57 0 101 41 124 112v-99h41v552h-41v-278c0 -163 -53 -251 -123 -251c-62 0 -94 63 -94 186v343zM866 6h41v370c0 127 -39 195 -113 195c-52 0 -89 -42 -108 -114c-13 75 -50 114 -104 114c-45 0 -80 -39 -99 -103v90h-40
v-552h41v273c0 168 41 257 95 257c49 0 76 -55 76 -163v-367h40v270c0 168 42 260 95 260c50 0 76 -55 76 -163v-367z" />
    <glyph glyph-name="_600" unicode="&#x339c;" 
d="M402 6h40v370c0 130 -35 193 -95 193c-43 0 -75 -40 -92 -100c-12 66 -43 102 -87 102c-40 0 -68 -41 -81 -96v83h-38v-552h39v270c0 171 33 260 77 260c40 0 61 -55 61 -163v-367h39v270c0 171 32 260 76 260c42 0 61 -55 61 -163v-367zM872 6h39v370
c0 133 -34 195 -97 195c-42 0 -73 -39 -89 -102c-13 66 -43 102 -87 102c-40 0 -68 -41 -81 -96v83h-38v-552h39v270c0 171 32 260 76 260c41 0 62 -55 62 -163v-367h39v270c0 171 32 260 76 260c41 0 61 -55 61 -163v-367z" />
    <glyph glyph-name="_601" unicode="&#x339d;" 
d="M40 282c0 -181 54 -289 173 -289c99 0 155 70 167 185h-41c-10 -93 -52 -149 -126 -149c-93 0 -132 90 -132 253c0 162 39 254 132 254c74 0 116 -56 126 -151h41c-12 117 -68 186 -167 186c-119 0 -173 -108 -173 -289zM866 6h41v370c0 127 -39 195 -113 195
c-52 0 -89 -42 -108 -114c-13 75 -50 114 -104 114c-45 0 -80 -39 -99 -103v90h-40v-552h41v273c0 168 41 257 95 257c49 0 76 -55 76 -163v-367h40v270c0 168 42 260 95 260c50 0 76 -55 76 -163v-367z" />
    <glyph glyph-name="_602" unicode="&#x339e;" 
d="M98 6v270h61l204 -270h48l-216 288l194 264h-46l-184 -246h-61v468h-41v-774h41zM867 6h41v370c0 127 -40 195 -113 195c-53 0 -90 -42 -109 -115c-14 76 -50 115 -104 115c-46 0 -80 -39 -99 -103v90h-42v-552h42v270c0 168 40 260 95 260c49 0 76 -55 76 -163v-367h41
v270c0 168 41 260 96 260c49 0 76 -55 76 -163v-367z" />
    <glyph glyph-name="_603" unicode="&#x339f;" 
d="M920 782c0 39 -25 74 -74 74c-50 0 -75 -35 -75 -74v-15h30v14c0 28 16 48 45 48c28 0 44 -20 44 -48c0 -12 -7 -31 -23 -49l-93 -104v-19h150v26h-107l73 81c19 21 30 46 30 66zM403 6h39v370c0 130 -33 193 -94 193c-43 0 -76 -40 -92 -100c-13 66 -43 102 -87 102
c-40 0 -68 -41 -81 -96v83h-38v-552h39v270c0 171 32 260 77 260c40 0 61 -55 61 -163v-367h39v270c0 171 32 260 76 260c41 0 61 -55 61 -163v-367zM871 6h40v370c0 133 -34 195 -97 195c-43 0 -74 -39 -90 -102c-12 66 -43 102 -87 102c-40 0 -68 -41 -81 -96v83h-38v-552
h39v270c0 171 33 260 77 260c40 0 61 -55 61 -163v-367h39v270c0 171 32 260 76 260c41 0 61 -55 61 -163v-367z" />
    <glyph glyph-name="_604" unicode="&#x33a0;" 
d="M38 282c0 -181 54 -289 173 -289c99 0 155 70 167 185h-41c-10 -93 -52 -149 -126 -149c-93 0 -132 90 -132 253c0 162 39 254 132 254c74 0 116 -56 126 -151h41c-12 117 -68 186 -167 186c-119 0 -173 -108 -173 -289zM864 6h41v370c0 127 -39 195 -113 195
c-52 0 -90 -42 -108 -114c-13 75 -50 114 -104 114c-45 0 -80 -39 -99 -103v90h-40v-552h41v273c0 168 41 257 95 257c49 0 76 -55 76 -163v-367h40v270c0 168 41 260 95 260c50 0 76 -55 76 -163v-367zM920 782c0 39 -25 74 -74 74c-50 0 -75 -35 -75 -74v-15h30v14
c0 28 16 48 45 48c28 0 44 -20 44 -48c0 -12 -7 -31 -23 -49l-93 -104v-19h150v26h-107l73 81c19 21 30 46 30 66z" />
    <glyph glyph-name="_605" unicode="&#x33a1;" 
d="M794 6h41v370c0 127 -62 195 -171 195c-92 0 -157 -59 -182 -154c-11 102 -73 154 -166 154c-89 0 -150 -56 -176 -152v139h-41v-552h41v270c0 168 74 260 169 260c89 0 138 -55 138 -163v-367h41v270c0 168 74 260 169 260c89 0 137 -55 137 -163v-367zM920 782
c0 39 -25 74 -74 74c-50 0 -75 -35 -75 -74v-15h30v14c0 28 16 48 45 48c28 0 44 -20 44 -48c0 -12 -7 -31 -23 -49l-93 -104v-19h150v26h-107l73 81c19 21 30 46 30 66z" />
    <glyph glyph-name="_606" unicode="&#x33a2;" 
d="M90 6v270h61l205 -270h47l-216 288l195 264h-46l-184 -246h-62v468h-41v-774h41zM859 6h41v370c0 127 -40 195 -113 195c-52 0 -90 -42 -109 -115c-13 76 -50 115 -104 115c-46 0 -80 -39 -99 -103v90h-42v-552h42v270c0 168 40 260 95 260c49 0 76 -55 76 -163v-367h41
v270c0 168 41 260 96 260c50 0 76 -55 76 -163v-367zM920 782c0 39 -25 74 -74 74c-50 0 -75 -35 -75 -74v-15h30v14c0 28 16 48 45 48c28 0 44 -20 44 -48c0 -12 -7 -31 -23 -49l-93 -104v-19h150v26h-107l73 81c19 21 30 46 30 66z" />
    <glyph glyph-name="_607" unicode="&#x33ca;" 
d="M131 6v281c2 159 62 249 143 249c76 0 116 -66 116 -196v-334h41v340c0 142 -54 225 -150 225c-72 0 -125 -46 -150 -126v113h-41v-552h41zM827 168c0 -85 -44 -139 -134 -139c-89 0 -132 54 -132 139s43 141 132 141c90 0 134 -56 134 -141zM867 371
c0 122 -57 200 -165 200c-104 0 -156 -68 -164 -168h42c6 80 43 133 122 133c82 0 125 -65 125 -162v-100c-23 43 -70 70 -139 70c-108 0 -168 -69 -168 -176s60 -175 168 -175c70 0 117 26 139 70c1 -20 4 -40 11 -57h41c-7 21 -12 48 -12 77v288z" />
    <glyph glyph-name="_608" unicode="&#x338d;" 
d="M121 558h-41v-792h41v307c21 -53 61 -80 114 -80c70 0 124 47 149 127v-114h41v552h-41v-275c0 -163 -63 -254 -147 -254c-76 0 -116 66 -116 189v340zM839 282c0 -163 -42 -253 -140 -253c-96 0 -138 90 -138 253c0 162 42 254 138 254c98 0 140 -92 140 -254zM547 -89
c9 -94 67 -160 164 -160c113 0 168 91 168 219v588h-40v-93c-24 68 -73 106 -142 106c-118 0 -176 -105 -176 -289s58 -289 176 -289c69 0 118 39 142 105v-130c0 -114 -46 -182 -128 -182c-70 0 -115 49 -124 125h-40z" />
    <glyph glyph-name="_609" unicode="&#x338e;" 
d="M870 282c0 -163 -38 -253 -125 -253c-85 0 -124 90 -124 253c0 162 39 254 124 254c87 0 125 -92 125 -254zM604 -89c8 -94 61 -160 151 -160c104 0 155 91 155 219v588h-40v-85c-23 63 -65 98 -128 98c-108 0 -162 -105 -162 -289s54 -289 162 -289c63 0 105 36 128 98
v-123c0 -114 -42 -182 -115 -182c-61 0 -102 49 -110 125h-41zM471 6h41v370c0 127 -39 195 -113 195c-52 0 -90 -42 -108 -114c-13 75 -50 114 -104 114c-45 0 -80 -39 -99 -103v90h-40v-552h41v273c0 168 41 257 95 257c49 0 76 -55 76 -163v-367h40v270
c0 168 41 260 95 260c49 0 76 -55 76 -163v-367z" />
    <glyph glyph-name="_610" unicode="&#x338f;" 
d="M157 6v270h64l188 -270h46l-198 288l179 264h-47l-168 -246h-64v468h-41v-774h41zM808 282c0 -163 -42 -253 -140 -253c-96 0 -138 90 -138 253c0 162 42 254 138 254c98 0 140 -92 140 -254zM516 -89c10 -94 67 -160 164 -160c113 0 168 91 168 219v588h-40v-93
c-24 68 -73 106 -142 106c-118 0 -176 -105 -176 -289s58 -289 176 -289c69 0 118 39 142 105v-130c0 -114 -46 -182 -128 -182c-70 0 -115 49 -124 125h-40z" />
    <glyph glyph-name="_611" unicode="&#x33cf;" 
d="M162 6v271h76l228 -271h50l-242 288l216 265h-48l-204 -247h-76v468h-41v-774h41zM688 524h177v35h-177v157h-41v-157h-85v-35h85v-375c0 -115 52 -151 161 -151c18 0 37 0 57 1v34h-53c-80 0 -124 23 -124 119v372z" />
    <glyph glyph-name="_612" unicode="&#x3388;" 
d="M49 282c0 -180 52 -289 162 -289c92 0 146 69 156 186h-41c-9 -94 -48 -151 -115 -151c-84 0 -121 92 -121 254c0 163 37 255 121 255c67 0 106 -57 115 -151h41c-10 117 -64 186 -156 186c-110 0 -162 -109 -162 -290zM715 6h42c-6 21 -10 48 -10 76v290
c0 121 -53 200 -150 200c-95 0 -143 -68 -149 -169h42c4 81 38 134 107 134c72 0 109 -65 109 -162v-94c-22 43 -61 64 -122 64c-97 0 -152 -69 -152 -176c0 -108 55 -176 152 -176c60 0 102 24 123 65c0 -18 4 -39 8 -52zM706 169c0 -86 -38 -141 -117 -141
c-78 0 -116 55 -116 141c0 85 38 140 116 140c79 0 117 -55 117 -140zM888 6v774h-41v-774h41z" />
    <glyph glyph-name="_613" unicode="&#x3389;" 
d="M102 6v269h27l125 -269h42l-132 288l118 264h-41l-112 -245h-27v467h-38v-774h38zM293 282c0 -181 38 -289 118 -289c68 0 107 70 114 185h-39c-6 -93 -31 -149 -75 -149c-55 0 -79 90 -79 253c0 162 24 254 79 254c44 0 69 -56 75 -151h39c-7 117 -46 186 -114 186
c-80 0 -118 -108 -118 -289zM751 168c0 -85 -25 -139 -76 -139s-76 54 -76 139s25 141 76 141s76 -56 76 -141zM790 371c0 122 -39 200 -110 200c-68 0 -104 -68 -108 -168h38c4 80 26 133 70 133c47 0 71 -65 71 -162v-78c-15 31 -42 48 -80 48c-71 0 -111 -69 -111 -176
s40 -175 111 -175c38 0 66 20 81 52c1 -14 2 -28 5 -39h40c-5 21 -7 48 -7 77v288zM905 6v774h-39v-774h39z" />
    <glyph glyph-name="_614" unicode="&#x33c8;" 
d="M67 282c0 -184 54 -289 164 -289c62 0 107 36 129 97v-84h42v774h-42v-306c-22 62 -67 97 -129 97c-110 0 -164 -105 -164 -289zM360 282c0 -163 -38 -253 -126 -253s-126 90 -126 253c0 162 38 254 126 254s126 -92 126 -254zM558 421v321h151c86 0 124 -58 124 -161
c0 -102 -38 -160 -124 -160h-151zM719 6c113 0 172 65 172 206c0 106 -40 172 -112 192c56 19 97 77 97 181c0 122 -54 195 -161 195h-199v-774h203zM849 213c0 -107 -36 -170 -138 -170h-153v341h153c102 0 138 -63 138 -171z" />
    <glyph glyph-name="_615" unicode="&#x33a7;" 
d="M904 425c0 83 -45 146 -124 146c-78 0 -122 -64 -122 -146c0 -78 31 -123 100 -146c83 -25 119 -42 119 -131c0 -73 -38 -120 -91 -120s-90 46 -90 121v20h-41v-20c0 -95 56 -156 131 -156c76 0 131 61 131 156c0 81 -31 127 -98 149c-83 26 -122 40 -122 127
c0 64 30 112 83 112s84 -50 84 -112v-20h40v20zM383 6h39v370c0 129 -33 193 -90 193c-39 0 -72 -36 -87 -97c-11 66 -41 99 -83 99c-33 0 -59 -33 -75 -86v73h-38v-552h40v270c0 171 29 260 71 260c37 0 57 -55 57 -163v-367h39v270c0 171 28 260 71 260
c37 0 56 -55 56 -163v-367zM610 780l-172 -1009h38l172 1009h-38z" />
    <glyph glyph-name="_616" unicode="&#x33a8;" 
d="M904 425c0 83 -45 146 -124 146c-78 0 -122 -64 -122 -146c0 -78 31 -123 100 -146c83 -25 119 -42 119 -131c0 -73 -38 -120 -91 -120s-90 46 -90 121v20h-41v-20c0 -95 56 -156 131 -156c76 0 131 61 131 156c0 81 -31 127 -98 149c-83 26 -122 40 -122 127
c0 64 30 112 83 112s84 -50 84 -112v-20h40v20zM383 6h39v370c0 129 -33 193 -90 193c-39 0 -72 -36 -87 -97c-11 66 -41 99 -83 99c-33 0 -59 -33 -75 -86v73h-38v-552h40v270c0 171 29 260 71 260c37 0 57 -55 57 -163v-367h39v270c0 171 28 260 71 260
c37 0 56 -55 56 -163v-367zM610 780l-172 -1009h38l172 1009h-38zM920 788c0 39 -25 74 -74 74c-50 0 -75 -35 -75 -74v-15h30v14c0 28 16 48 45 48c28 0 44 -20 44 -48c0 -12 -7 -31 -23 -49l-93 -104v-19h150v26h-107l73 81c19 21 30 46 30 66z" />
    <glyph glyph-name="_617" unicode="&#x33b0;" 
d="M467 282c0 184 -61 289 -185 289c-74 0 -125 -41 -150 -108v95h-41v-792h41v335c24 -72 74 -108 150 -108c124 0 185 105 185 289zM425 282c0 -163 -44 -253 -146 -253c-103 0 -147 90 -147 253c0 162 44 254 147 254c102 0 146 -92 146 -254zM708 572
c-102 0 -158 -66 -158 -147c0 -80 38 -124 131 -146c21 -5 43 -10 64 -15c69 -17 96 -51 96 -115c0 -75 -53 -121 -126 -121s-126 46 -126 121v21h-42v-21c0 -95 70 -156 168 -156c99 0 168 62 168 156c0 83 -35 128 -126 150c-21 5 -43 10 -65 15c-70 17 -101 49 -101 111
c0 64 43 112 117 112c75 0 116 -48 116 -111v-21h42v20c0 82 -57 147 -158 147z" />
    <glyph glyph-name="_618" unicode="&#x33b1;" 
d="M133 6v281c2 159 67 249 153 249c80 0 122 -66 122 -196v-334h42v340c0 142 -57 225 -157 225c-78 0 -134 -46 -160 -127v114h-42v-552h42zM708 572c-102 0 -158 -66 -158 -147c0 -80 38 -124 131 -146c21 -5 43 -10 64 -15c69 -17 96 -51 96 -115
c0 -75 -53 -121 -126 -121s-126 46 -126 121v21h-42v-21c0 -95 70 -156 168 -156c99 0 168 62 168 156c0 83 -35 128 -126 150c-21 5 -43 10 -65 15c-70 17 -101 49 -101 111c0 64 43 112 117 112c75 0 116 -48 116 -111v-21h42v20c0 82 -57 147 -158 147z" />
    <glyph glyph-name="_619" unicode="&#x33b2;" 
d="M260 -7c73 0 129 46 155 127v-114h42v553h-42v-275c0 -163 -65 -256 -153 -256c-78 0 -121 67 -121 191v340h-41v-793h41v306c22 -53 65 -79 119 -79zM708 572c-102 0 -158 -66 -158 -147c0 -80 38 -124 131 -146c21 -5 43 -10 64 -15c69 -17 96 -51 96 -115
c0 -75 -53 -121 -126 -121s-126 46 -126 121v21h-42v-21c0 -95 70 -156 168 -156c99 0 168 62 168 156c0 83 -35 128 -126 150c-21 5 -43 10 -65 15c-70 17 -101 49 -101 111c0 64 43 112 117 112c75 0 116 -48 116 -111v-21h42v20c0 82 -57 147 -158 147z" />
    <glyph glyph-name="_620" unicode="&#x33b3;" 
d="M891 425c0 82 -50 146 -141 146s-141 -65 -141 -146c0 -86 35 -121 118 -146c17 -5 35 -11 55 -16c56 -17 83 -50 83 -115c0 -73 -46 -120 -108 -120c-63 0 -108 46 -108 121v20h-42v-20c0 -94 62 -156 150 -156s149 62 149 156c0 89 -32 122 -113 148
c-16 5 -35 11 -55 17c-60 17 -87 47 -87 111s37 112 99 112s100 -51 100 -112v-20h41v20zM481 6h41v370c0 127 -39 195 -113 195c-52 0 -89 -42 -108 -114c-13 75 -50 114 -103 114c-46 0 -81 -39 -100 -103v90h-40v-552h41v273c0 168 41 257 95 257c49 0 76 -55 76 -163
v-367h40v270c0 168 42 260 96 260c49 0 75 -55 75 -163v-367z" />
    <glyph glyph-name="_621" unicode="&#x33b4;" 
d="M467 282c0 184 -60 289 -184 289c-74 0 -125 -41 -150 -108v95h-42v-792h42v335c24 -72 74 -108 150 -108c124 0 184 105 184 289zM426 282c0 -163 -44 -253 -146 -253c-104 0 -147 90 -147 253c0 162 43 254 147 254c102 0 146 -92 146 -254zM447 780l223 -774h45
l223 774h-43l-202 -711l-202 711h-44z" />
    <glyph glyph-name="_622" unicode="&#x33b5;" 
d="M133 6v281c2 159 67 249 153 249c80 0 122 -66 122 -196v-334h42v340c0 142 -57 225 -157 225c-78 0 -134 -46 -160 -127v114h-42v-552h42zM447 780l223 -774h45l223 774h-43l-202 -711l-202 711h-44z" />
    <glyph glyph-name="_623" unicode="&#x33b6;" 
d="M130 558h-42v-792h42v307c22 -53 64 -80 118 -80c74 0 129 47 156 127v-114h41v552h-41v-275c0 -163 -66 -254 -153 -254c-79 0 -121 66 -121 189v340zM447 780l223 -774h45l223 774h-43l-202 -711l-202 711h-44z" />
    <glyph glyph-name="_624" unicode="&#x33b7;" 
d="M505 780l198 -774h46l198 774h-44l-177 -708l-177 708h-44zM479 6h40v370c0 127 -39 195 -112 195c-53 0 -90 -42 -109 -114c-13 75 -50 114 -103 114c-46 0 -81 -39 -100 -103v90h-40v-552h42v273c0 168 40 257 94 257c49 0 76 -55 76 -163v-367h40v270
c0 168 42 260 96 260c49 0 76 -55 76 -163v-367z" />
    <glyph glyph-name="_625" unicode="&#x33b8;" 
d="M443 780l224 -774h45l223 774h-44l-201 -711l-203 711h-44zM155 6v270h63l195 -270h47l-205 288l185 264h-46l-175 -246h-64v468h-41v-774h41z" />
    <glyph glyph-name="_626" unicode="&#x33b9;" 
d="M309 6l164 616v-616h41v774h-41l-185 -692l-185 692h-40v-774h40v618l164 -618h42zM557 780l169 -774h43l170 774h-43l-148 -677l-148 677h-43z" />
    <glyph glyph-name="_627" unicode="&#x3380;" 
d="M487 6l59 203h291l60 -203h44l-228 774h-42l-228 -774h44zM556 246l136 463l136 -463h-272zM420 282c0 184 -55 289 -168 289c-64 0 -109 -35 -132 -99v86h-41v-792h41v326c23 -62 68 -99 132 -99c113 0 168 105 168 289zM378 282c0 -163 -39 -253 -128 -253
c-91 0 -130 90 -130 253c0 162 39 254 130 254c89 0 128 -92 128 -254z" />
    <glyph glyph-name="_628" unicode="&#x3381;" 
d="M117 6v281c2 159 58 249 135 249c69 0 107 -66 107 -196v-334h40v340c0 142 -50 225 -142 225c-67 0 -116 -41 -140 -117v104h-42v-552h42zM487 6l59 203h291l60 -203h44l-228 774h-42l-228 -774h44zM556 246l136 463l136 -463h-272z" />
    <glyph glyph-name="_629" unicode="&#x3382;" 
d="M120 558h-42v-792h42v300c20 -48 57 -73 105 -73c63 0 112 42 137 116v-103h40v552h-40v-275c0 -163 -58 -254 -136 -254c-69 0 -106 66 -106 189v340zM487 6l59 203h291l60 -203h44l-228 774h-42l-228 -774h44zM556 246l136 463l136 -463h-272z" />
    <glyph glyph-name="_630" unicode="&#x3383;" 
d="M561 6l52 203h244l53 -203h43l-197 774h-42l-196 -774h43zM849 246h-228l114 450zM463 6h41v370c0 127 -39 195 -112 195c-52 0 -89 -42 -108 -115c-13 77 -49 115 -102 115c-46 0 -79 -37 -99 -100v87h-41v-552h41v270c0 168 41 260 95 260c48 0 75 -55 75 -163v-367h40
v270c0 168 42 260 95 260c48 0 75 -55 75 -163v-367z" />
    <glyph glyph-name="_631" unicode="&#x3384;" 
d="M546 246l136 463l136 -463h-272zM396 6h81l59 203h291l60 -203h44l-228 774h-42l-225 -764l-195 278l186 264h-47l-175 -246h-60v468h-42v-774h42v270h60z" />
    <glyph glyph-name="_632" unicode="&#x33ba;" 
d="M364 282c0 184 -47 289 -144 289c-51 0 -87 -29 -107 -85v72h-42v-792h42v312c20 -55 56 -85 107 -85c97 0 144 105 144 289zM323 282c0 -163 -32 -253 -106 -253c-73 0 -104 90 -104 253c0 162 31 254 104 254c74 0 106 -92 106 -254zM638 780l-119 -664l-114 664h-42
l132 -774h42l120 658l121 -658h42l132 774h-43l-113 -664l-120 664h-38z" />
    <glyph glyph-name="_633" unicode="&#x33bb;" 
d="M107 6v281c2 159 48 249 110 249c57 0 87 -66 87 -196v-334h41v340c0 142 -44 225 -123 225c-53 0 -93 -35 -115 -102v89h-41v-552h41zM638 780l-119 -664l-114 664h-42l132 -774h42l120 658l121 -658h42l132 774h-43l-113 -664l-120 664h-38z" />
    <glyph glyph-name="_634" unicode="&#x33bc;" 
d="M108 558h-42v-792h42v289c17 -44 44 -62 84 -62c51 0 92 37 113 102v-89h40v552h-40v-275c0 -163 -48 -254 -111 -254c-56 0 -86 66 -86 189v340zM638 780l-119 -664l-114 664h-42l132 -774h42l120 658l121 -658h42l132 774h-43l-113 -664l-120 664h-38z" />
    <glyph glyph-name="_635" unicode="&#x33bd;" 
d="M680 780l-99 -642l-90 642h-42l111 -774h40l99 636l98 -636h41l111 774h-43l-89 -643l-100 643h-37zM401 6h40v370c0 126 -32 192 -95 192c-43 0 -74 -38 -91 -99c-13 67 -43 102 -86 102c-41 0 -68 -40 -82 -95v82h-38v-552h39v270c0 168 34 260 77 260
c39 0 60 -55 60 -163v-367h40v270c0 168 33 260 76 260c40 0 60 -55 60 -163v-367z" />
    <glyph glyph-name="_636" unicode="&#x33be;" 
d="M100 6v270h51l194 -270h47l-205 288l188 264h-47l-177 -246h-51v468h-41v-774h41zM638 780l-119 -664l-114 664h-42l132 -774h42l120 658l121 -658h42l132 774h-43l-113 -664l-120 664h-38z" />
    <glyph glyph-name="_637" unicode="&#x33bf;" 
d="M262 6l120 580v-580h40v774h-41l-139 -676l-139 676h-41v-774h40v580l120 -580h40zM680 780l-91 -637l-83 637h-41l103 -774h41l90 631l90 -631h41l103 774h-41l-83 -636l-91 636h-38z" />
    <glyph glyph-name="_638" unicode="&#x3390;" 
d="M443 6h42v774h-42v-358h-308v358h-41v-774h41v378h308v-378zM895 559h-309v-35h262l-270 -485v-33h323v35h-276l270 485v33z" />
    <glyph glyph-name="_639" unicode="&#x3391;" 
d="M593 6h41v774h-41v-358h-191v358h-41v-774h41v378h191v-378zM924 559h-229v-35h184l-189 -486v-32h238v35h-193l189 486v32zM101 6v271h43l152 -271h44l-161 288l145 265h-44l-136 -247h-43v468h-40v-774h40z" />
    <glyph glyph-name="_640" unicode="&#x3392;" 
d="M633 6h40v774h-40v-358h-150v358h-41v-774h41v378h150v-378zM933 559h-210v-35h167l-172 -487v-31h219v35h-176l172 487v31zM222 6l109 565v-565h39v774h-35l-132 -671l-131 671h-36v-774h40v571l110 -571h36z" />
    <glyph glyph-name="_641" unicode="&#x3393;" 
d="M38 393c0 -243 36 -400 151 -400c52 0 89 36 113 108l1 -95h36v382h-155v-38h116v-56c0 -175 -49 -263 -110 -263c-87 0 -113 149 -113 362c0 206 25 362 113 362c67 0 103 -88 108 -225h39c-5 161 -57 263 -147 263c-118 0 -152 -159 -152 -400zM625 6h40v774h-40v-359
h-180v359h-40v-774h40v378h180v-378zM925 558h-209v-35h166l-171 -484v-33h218v36h-175l171 484v32z" />
    <glyph glyph-name="_642" unicode="&#x3394;" 
d="M597 6h41v774h-41v-358h-187v358h-41v-774h41v378h187v-378zM921 559h-221v-35h177l-183 -486v-32h231v35h-186l182 486v32zM17 743h134v-737h41v737h133v37h-308v-37z" />
    <glyph glyph-name="_643" unicode="&#x2126;" horiz-adv-x="702" 
d="M351 794c-91 0 -160 -30 -206 -85c-60 -71 -81 -181 -81 -316c0 -172 38 -301 151 -350h-128v-39h207v39c-150 42 -188 181 -188 350c0 127 18 225 72 291c39 47 99 72 173 72s134 -25 173 -72c54 -66 72 -164 72 -291c0 -169 -38 -308 -189 -350v-39h208v39h-129
c114 49 152 178 152 350c0 135 -22 245 -81 316c-47 55 -115 85 -206 85z" />
    <glyph glyph-name="_644" unicode="&#x33c0;" 
d="M676 793c-170 0 -219 -166 -219 -398c0 -164 35 -303 122 -352h-105v-37h165v36c-113 38 -141 182 -141 351c0 195 33 362 178 362c144 0 178 -169 178 -362c0 -169 -27 -313 -140 -351v-36h166v37h-107c88 49 123 188 123 352c0 229 -50 398 -220 398zM133 6v270h60
l191 -270h47l-202 288l186 264h-47l-175 -246h-60v468h-42v-774h42z" />
    <glyph glyph-name="_645" unicode="&#x33c1;" 
d="M295 6l163 616v-616h42v774h-42l-184 -692l-186 692h-41v-774h41v618l164 -618h43zM737 793c-134 0 -175 -159 -175 -398c0 -163 29 -301 98 -352h-85v-37h136v35c-86 41 -108 182 -108 352c0 195 29 362 134 362c108 0 135 -167 135 -362c0 -170 -22 -311 -107 -352v-35
h135v37h-85c69 51 99 188 99 352c0 238 -42 398 -177 398z" />
    <glyph glyph-name="_646" unicode="&#x338a;" 
d="M457 282c0 184 -61 289 -185 289c-74 0 -125 -41 -150 -108v95h-41v-792h41v335c24 -72 74 -108 150 -108c124 0 185 105 185 289zM415 282c0 -163 -44 -253 -146 -253c-103 0 -147 90 -147 253c0 162 44 254 147 254c102 0 146 -92 146 -254zM548 6h42v366h301v37h-301
v333h326v38h-368v-774z" />
    <glyph glyph-name="_647" unicode="&#x338b;" 
d="M548 6h42v366h301v37h-301v333h326v38h-368v-774zM117 6v281c3 159 67 249 153 249c80 0 122 -66 122 -196v-334h42v340c0 142 -57 225 -157 225c-78 0 -133 -46 -160 -127v114h-42v-552h42z" />
    <glyph glyph-name="_648" unicode="&#x338c;" 
d="M234 -7c73 0 129 46 155 127v-114h42v553h-42v-275c0 -163 -65 -256 -153 -256c-78 0 -121 67 -121 191v340h-41v-793h41v306c22 -53 65 -79 119 -79zM549 6h42v366h301v38h-301v333h325v37h-367v-774z" />
    <glyph glyph-name="_649" unicode="&#x33d6;" 
d="M394 6h41v370c0 130 -36 195 -98 195c-41 0 -71 -37 -88 -102c-13 70 -44 102 -87 102c-34 0 -61 -32 -78 -85v72h-40v-552h40v270c0 168 33 260 75 260c38 0 60 -55 60 -163v-367h41v270c0 168 32 260 75 260c37 0 59 -55 59 -163v-367zM784 282c0 181 -40 289 -141 289
c-100 0 -140 -108 -140 -289s40 -289 140 -289c101 0 141 108 141 289zM743 282c0 -163 -30 -253 -100 -253s-100 90 -100 253c0 162 30 254 100 254s100 -92 100 -254zM895 6v774h-41v-774h41z" />
    <glyph glyph-name="_650" unicode="&#x33c5;" 
d="M67 282c0 -181 59 -289 187 -289c107 0 169 70 181 185h-41c-11 -93 -58 -149 -140 -149c-102 0 -146 90 -146 253c0 162 44 254 146 254c82 0 129 -56 140 -151h41c-12 117 -74 186 -181 186c-128 0 -187 -108 -187 -289zM515 282c0 -184 56 -289 172 -289
c67 0 115 37 139 100v-87h41v774h-41v-309c-24 64 -72 100 -139 100c-116 0 -172 -105 -172 -289zM826 282c0 -163 -41 -253 -136 -253c-94 0 -134 90 -134 253c0 162 40 254 134 254c95 0 136 -92 136 -254z" />
    <glyph glyph-name="_651" unicode="&#x33ad;" 
d="M518 168c0 -85 -31 -139 -100 -139c-68 0 -100 54 -100 139s32 141 100 141c69 0 100 -56 100 -141zM559 371c0 125 -47 200 -134 200c-85 0 -127 -67 -133 -168h41c5 80 32 131 87 131c66 0 98 -59 98 -160v-89c-18 38 -53 59 -104 59c-87 0 -136 -69 -136 -176
s49 -175 136 -175c49 0 87 24 106 60c1 -19 3 -31 7 -47h41c-5 21 -9 48 -9 77v288zM629 282c0 -187 45 -289 135 -289c44 0 81 33 100 84v-71h41v774h-41v-289c-19 54 -54 80 -100 80c-90 0 -135 -102 -135 -289zM864 282c0 -163 -30 -253 -98 -253c-67 0 -96 90 -96 253
c0 162 29 254 96 254c68 0 98 -92 98 -254zM218 535c10 0 24 -1 34 -4v36c-10 3 -22 4 -34 4c-59 0 -107 -43 -127 -111v98h-40v-552h40v277c0 175 52 252 127 252z" />
    <glyph glyph-name="_652" unicode="&#x33ae;" 
d="M891 180c0 45 -43 80 -123 80s-123 -35 -123 -80c0 -48 29 -64 99 -78c15 -3 33 -6 52 -9c45 -7 72 -23 72 -48c0 -33 -40 -53 -95 -53c-54 0 -93 20 -93 53v16h-37v-16c0 -52 54 -86 130 -86c78 0 131 34 131 86c0 50 -32 66 -99 79c-15 3 -31 6 -49 9
c-48 8 -74 21 -74 47c0 28 32 48 86 48c55 0 87 -20 87 -47v-17h36v16zM424 491c0 -39 -25 -64 -78 -64s-77 25 -77 64c0 37 24 62 77 62s78 -25 78 -62zM462 592c0 67 -40 108 -110 108c-69 0 -105 -39 -110 -97h38c4 38 26 63 72 63c48 0 72 -28 72 -73v-36
c-17 18 -44 29 -81 29c-71 0 -111 -38 -111 -95c0 -59 40 -97 111 -97c36 0 66 14 83 33c1 -8 4 -20 8 -26h38c-6 15 -10 31 -10 46v145zM513 547c0 -98 37 -153 111 -153c32 0 60 18 76 45v-38h38v403h-38v-144c-16 24 -43 40 -76 40c-74 0 -111 -54 -111 -153zM700 547
c0 -76 -22 -120 -75 -120s-75 44 -75 120c0 77 22 119 75 119s75 -42 75 -119zM186 666c11 0 22 -1 29 -2v33c-8 2 -18 3 -29 3c-42 0 -80 -22 -99 -51v44h-37v-292h37v147c0 82 40 118 99 118zM63 82l10 -28l837 341l-10 27z" />
    <glyph glyph-name="_653" unicode="&#x33af;" 
d="M948 293c0 26 -18 48 -50 48c-34 0 -50 -23 -50 -48v-13h27v12c0 15 9 26 23 26c16 0 23 -9 23 -25c0 -8 -5 -19 -15 -30l-56 -63v-17h100v23h-60l39 44c12 13 19 28 19 43zM414 491c0 -39 -25 -64 -78 -64s-77 25 -77 64c0 37 24 62 77 62s78 -25 78 -62zM452 592
c0 67 -40 108 -110 108c-69 0 -105 -39 -110 -97h38c4 38 26 63 72 63c48 0 72 -28 72 -73v-36c-17 18 -44 29 -81 29c-71 0 -111 -38 -111 -95c0 -59 40 -97 111 -97c36 0 66 14 83 33c1 -8 4 -20 8 -26h38c-6 15 -10 31 -10 46v145zM503 547c0 -98 37 -153 111 -153
c32 0 60 18 76 45v-38h38v403h-38v-144c-16 24 -43 40 -76 40c-74 0 -111 -54 -111 -153zM690 547c0 -76 -22 -120 -75 -120s-75 44 -75 120c0 77 22 119 75 119s75 -42 75 -119zM176 666c11 0 22 -1 29 -2v33c-8 2 -18 3 -29 3c-42 0 -80 -22 -99 -51v44h-37v-292h37v147
c0 82 40 118 99 118zM53 83l10 -28l837 342l-10 26zM821 180c0 45 -43 80 -123 80s-123 -35 -123 -80c0 -48 29 -64 99 -78c15 -3 33 -6 52 -9c45 -7 72 -23 72 -48c0 -33 -40 -53 -95 -53c-54 0 -93 20 -93 53v16h-37v-16c0 -52 54 -86 130 -86c78 0 131 34 131 86
c0 50 -32 66 -99 79c-15 3 -31 6 -49 9c-48 8 -74 21 -74 47c0 28 32 48 86 48c55 0 87 -20 87 -47v-17h36v16z" />
    <glyph glyph-name="_654" unicode="&#x33db;" 
d="M293 572c-102 0 -158 -66 -158 -147c0 -80 38 -124 131 -146c21 -5 43 -10 64 -15c70 -16 96 -51 96 -115c0 -75 -52 -121 -126 -121c-73 0 -126 46 -126 121v21h-42v-21c0 -95 70 -156 168 -156c99 0 168 62 168 156c0 83 -34 128 -126 150c-21 5 -43 10 -65 15
c-69 17 -101 49 -101 111c0 64 43 112 117 112c75 0 116 -48 116 -111v-21h42v20c0 82 -57 147 -158 147zM798 536c14 0 30 -1 38 -3l1 36c-8 2 -24 3 -39 3c-90 0 -150 -47 -171 -145v132h-41v-553h41v278c0 174 66 252 171 252z" />
    <glyph glyph-name="_655" unicode="&#x33a9;" 
d="M123 350v392h171c102 0 155 -74 155 -196s-53 -196 -155 -196h-171zM295 312c131 0 196 93 196 234c0 142 -65 234 -196 234h-213v-774h41v306h172zM841 168c0 -85 -46 -139 -139 -139s-139 54 -139 139s46 141 139 141s139 -56 139 -141zM882 371
c0 122 -59 200 -171 200c-109 0 -162 -68 -170 -168h42c7 80 46 133 128 133c85 0 130 -65 130 -162v-97c-25 41 -73 67 -145 67c-112 0 -174 -69 -174 -176s62 -175 174 -175c73 0 121 26 145 69c2 -19 4 -40 11 -56h42c-7 21 -12 48 -12 77v288z" />
    <glyph glyph-name="_656" unicode="&#x33aa;" 
d="M409 350v393h101c60 0 91 -75 91 -197c0 -121 -31 -196 -91 -196h-101zM511 313c88 0 132 92 132 233c0 142 -44 234 -132 234h-142v-774h40v307h102zM866 6h41c-4 21 -7 48 -7 76v290c0 121 -40 200 -116 200c-75 0 -111 -68 -115 -169h40c4 81 28 134 75 134
c48 0 75 -65 75 -162v-75c-18 28 -46 45 -85 45c-76 0 -118 -69 -118 -176c0 -108 42 -176 118 -176c40 0 69 17 86 49c1 -14 3 -27 6 -36zM859 169c0 -86 -27 -141 -81 -141s-81 55 -81 141c0 85 27 140 81 140s81 -55 81 -140zM105 6v271h38l144 -271h43l-152 288l137 265
h-43l-129 -247h-38v468h-41v-774h41z" />
    <glyph glyph-name="_657" unicode="&#x33ab;" 
d="M478 350v392h82c52 0 79 -74 79 -196s-27 -196 -79 -196h-82zM560 312c82 0 121 93 121 234c0 142 -39 234 -121 234h-122v-774h40v306h82zM877 168c0 -85 -23 -139 -68 -139c-44 0 -68 54 -68 139s24 141 68 141c45 0 68 -56 68 -141zM917 371c0 122 -35 200 -103 200
c-66 0 -98 -68 -102 -168h41c3 80 23 133 61 133c40 0 63 -65 63 -162v-73c-15 26 -39 43 -71 43c-67 0 -104 -69 -104 -176s37 -175 104 -175c33 0 59 18 74 48c0 -14 2 -25 4 -35h40c-4 21 -7 48 -7 77v288zM221 6l110 565v-565h39v774h-36l-131 -671l-131 671h-36v-774
h39v571l110 -571h36z" />
    <glyph glyph-name="_658" unicode="&#x33ac;" 
d="M473 350v392h81c53 0 80 -74 80 -196s-27 -196 -80 -196h-81zM555 312c81 0 120 93 120 234c0 142 -39 234 -120 234h-123v-774h41v306h82zM872 168c0 -85 -23 -139 -68 -139c-44 0 -68 54 -68 139s24 141 68 141c45 0 68 -56 68 -141zM912 371c0 122 -35 200 -103 200
c-67 0 -98 -68 -102 -168h40c4 80 24 133 62 133c40 0 63 -65 63 -162v-73c-15 26 -39 43 -71 43c-68 0 -104 -69 -104 -176s36 -175 104 -175c33 0 59 18 74 48c0 -14 2 -25 4 -35h40c-4 21 -7 48 -7 77v288zM48 393c0 -244 36 -400 152 -400c54 0 84 36 113 108v-95h36
v382h-155v-38h116v-56c0 -174 -49 -263 -109 -263c-87 0 -113 149 -113 362c0 206 25 362 113 362c67 0 102 -88 107 -225h40c-5 161 -58 263 -147 263c-118 0 -153 -160 -153 -400z" />
    <glyph glyph-name="_659" unicode="&#x33dd;" 
d="M907 282c0 184 -53 289 -164 289c-62 0 -107 -36 -128 -99v308h-42v-774h42v86c22 -63 66 -99 128 -99c111 0 164 105 164 289zM866 282c0 -163 -38 -253 -125 -253c-89 0 -126 90 -126 253c0 162 37 254 126 254c87 0 125 -92 125 -254zM243 780l-99 -642l-90 642h-42
l112 -774h39l99 636l98 -636h41l111 774h-43l-89 -643l-100 643h-37z" />
    <glyph glyph-name="_660" unicode="&#x33d0;" 
d="M820 6h41v370c0 127 -47 195 -130 195c-63 0 -109 -46 -130 -126c-14 83 -58 126 -122 126c-57 0 -99 -41 -121 -113v100h-41v-552h41v270c0 168 51 260 116 260c61 0 94 -55 94 -163v-367h42v270c0 168 51 260 116 260c61 0 94 -55 94 -163v-367zM166 6v774h-41v-774h41
z" />
    <glyph glyph-name="_661" unicode="&#x33d3;" 
d="M206 6v774h-41v-774h41zM775 6h48l-213 283l202 270h-48l-180 -239l-178 239h-49l202 -270l-213 -283h48l190 252z" />
    <glyph glyph-name="_662" unicode="&#x33c3;" 
d="M545 282c0 -184 53 -288 163 -288c63 0 107 35 130 97v-325h39v793h-39v-86c-23 64 -67 99 -130 99c-110 0 -163 -106 -163 -290zM838 282c0 -163 -39 -253 -128 -253c-88 0 -126 90 -126 253s38 255 126 255c89 0 128 -92 128 -255zM133 421v321h154
c87 0 124 -58 124 -161c0 -102 -37 -160 -124 -160h-154zM296 6c113 0 172 65 172 206c0 108 -38 173 -112 192h1c56 19 95 78 95 181c0 122 -52 195 -159 195h-202v-774h205zM427 213c0 -107 -36 -170 -137 -170h-157v341h157c101 0 137 -63 137 -171z" />
    <glyph glyph-name="_663" unicode="&#x33c9;" 
d="M72 393c0 -239 54 -400 205 -400c77 0 139 49 165 130l2 -117h36v382h-204v-38h163v-56c0 -173 -67 -263 -161 -263c-127 0 -164 146 -164 362c0 205 34 362 164 362c100 0 152 -88 159 -225h41c-7 161 -78 263 -200 263c-152 0 -206 -161 -206 -400zM676 -127
c-16 -57 -33 -72 -63 -72h-19v-34c8 -1 11 -1 22 -1c58 0 76 18 112 144l185 648h-42l-137 -480l-136 480h-43l158 -553z" />
    <glyph glyph-name="_664" unicode="&#x33dc;" 
d="M280 30c-103 0 -161 75 -161 173v26h-41v-25c0 -116 69 -211 202 -211s202 95 202 211c0 107 -52 182 -166 210c-28 7 -54 14 -78 22c-74 25 -119 61 -119 156c0 97 55 163 150 163s149 -66 149 -163v-19h41v19c0 113 -67 201 -190 201c-125 0 -191 -89 -191 -201
c0 -105 55 -168 148 -194c25 -7 53 -14 78 -20c95 -23 137 -90 137 -175c0 -98 -59 -173 -161 -173zM730 6l176 552h-42l-156 -487l-155 487h-43l176 -552h44z" />
    <glyph glyph-name="_665" unicode="&#x33c6;" 
d="M43 604c0 -126 37 -208 147 -208c87 0 137 57 142 147h-37c-4 -68 -39 -113 -105 -113c-89 0 -110 73 -110 174c0 99 21 173 110 173c66 0 101 -44 105 -112h37c-5 90 -55 147 -142 147c-110 0 -147 -82 -147 -208zM485 6v135h28l111 -135h44l-123 151l111 140h-44
l-99 -123h-28v231h-37v-399h37zM864 151c0 -75 -23 -118 -77 -118c-53 0 -76 43 -76 118c0 77 23 119 76 119c54 0 77 -42 77 -119zM688 -26c7 -56 43 -96 106 -96c72 0 107 49 107 118v301h-37v-34c-16 26 -43 41 -79 41c-75 0 -112 -56 -112 -153c0 -95 37 -151 112 -151
c36 0 63 14 79 42v-47c0 -54 -28 -82 -74 -82c-35 0 -60 24 -65 61h-37zM45 22l26 -20l600 754l-26 19z" />
    <glyph glyph-name="_666" unicode="&#xc6;" horiz-adv-x="947" 
d="M444 780l-450 -774h45l118 203h309v-203h435v38h-393v340h348v37h-348v321h388v38h-452zM178 246l288 493v-493h-288z" />
    <glyph glyph-name="_667" unicode="&#xd0;" horiz-adv-x="696" 
d="M10 376h79v-370h259c216 0 285 163 285 387c0 219 -67 387 -285 387h-259v-371h-79v-33zM345 742c195 0 245 -156 245 -349c0 -195 -49 -349 -245 -349h-214v332h178v33h-178v333h214z" />
    <glyph glyph-name="_668" unicode="&#xaa;" horiz-adv-x="433" 
d="M202 364c60 0 111 20 129 61v-14c0 -12 3 -28 8 -37h39c-5 13 -9 36 -9 56v224c0 76 -48 135 -150 135c-101 0 -147 -56 -151 -126h39c3 55 36 94 112 94s112 -41 112 -103v-95c-18 40 -70 62 -130 62c-92 0 -152 -44 -152 -129c0 -84 60 -128 153 -128zM209 395
c-80 0 -122 36 -122 97s42 97 122 97c79 0 122 -36 122 -97s-43 -97 -122 -97zM39 252h356v33h-356v-33z" />
    <glyph glyph-name="_669" unicode="&#x126;" horiz-adv-x="688" 
d="M676 641h-78v139h-43v-139h-424v139h-42v-139h-79v-34h79v-601h42v378h424v-378h43v601h78v34zM131 421v186h424v-186h-424z" />
    <glyph glyph-name="_670" unicode="&#x132;" horiz-adv-x="780" 
d="M129 780h-42v-774h42v774zM473 -7c148 0 223 95 223 249v538h-42v-536c0 -134 -61 -214 -181 -214c-118 0 -180 81 -180 212l-42 1c0 -154 72 -250 222 -250z" />
    <glyph glyph-name="_671" unicode="&#x13f;" horiz-adv-x="539" 
d="M87 6h436v37h-394v737h-42v-774zM363 452h-56v-58h56v58z" />
    <glyph glyph-name="_672" unicode="&#x141;" horiz-adv-x="541" 
d="M23 280l66 34v-308h436v37h-394v294l228 118v38l-228 -119v406h-42v-428l-66 -35v-37z" />
    <glyph glyph-name="_673" unicode="&#xd8;" horiz-adv-x="697" 
d="M121 -29l48 81c44 -39 103 -59 178 -59c209 0 287 152 287 400c0 135 -22 241 -81 315l62 107h-40l-49 -82c-44 40 -103 60 -179 60c-210 0 -285 -156 -285 -400c0 -135 21 -250 80 -316l-61 -106h40zM104 393c0 209 52 362 243 362c67 0 122 -19 159 -57l-342 -584
c-47 66 -60 163 -60 279zM592 393c0 -212 -52 -362 -245 -362c-65 0 -120 18 -158 55l342 584c46 -66 61 -163 61 -277z" />
    <glyph glyph-name="_674" unicode="&#x152;" horiz-adv-x="1033" 
d="M62 393c0 -221 68 -387 284 -387h641v38h-393v340h348v37h-348v321h388v38h-636c-216 0 -284 -166 -284 -387zM552 742v-698h-203c-197 0 -245 155 -245 349s53 349 245 349h203z" />
    <glyph glyph-name="_675" unicode="&#xba;" horiz-adv-x="434" 
d="M383 575c0 148 -60 214 -166 214s-167 -66 -167 -214c0 -147 61 -213 167 -213s166 66 166 213zM346 575c0 -128 -44 -181 -129 -181s-129 53 -129 181c0 129 44 182 129 182s129 -53 129 -182zM40 253h355v33h-355v-33z" />
    <glyph glyph-name="_676" unicode="&#xde;" horiz-adv-x="641" 
d="M129 6v153h235c160 0 240 92 240 234c0 141 -80 233 -240 233h-235v154h-42v-774h42zM129 196v393h234c131 0 199 -75 199 -196c0 -122 -68 -197 -199 -197h-234z" />
    <glyph glyph-name="_677" unicode="&#x166;" horiz-adv-x="559" 
d="M121 385h137v-379h42v379h138v34h-138v324h240v37h-521v-37h239v-324h-137v-34z" />
    <glyph glyph-name="_678" unicode="&#x14a;" horiz-adv-x="694" 
d="M606 780h-42v-700l-435 700h-42v-774h42v700l435 -700v-110c0 -66 -30 -93 -86 -93h-24v-36c7 -1 19 -1 28 -1c75 0 124 35 124 127v887z" />
    <glyph glyph-name="_679" unicode="&#x3260;" 
d="M30 393c0 -253 199 -448 450 -448s450 195 450 448s-199 448 -450 448s-450 -195 -450 -448zM64 393c0 234 184 417 416 417s416 -183 416 -417s-184 -417 -416 -417s-416 183 -416 417zM254 575v-35h401v-326h40v361h-441z" />
    <glyph glyph-name="_680" unicode="&#x3261;" 
d="M30 393c0 -253 199 -448 450 -448s450 195 450 448s-199 448 -450 448s-450 -195 -450 -448zM64 393c0 234 184 417 416 417s416 -183 416 -417s-184 -417 -416 -417s-416 183 -416 417zM703 214v36h-402v325h-40v-361h442z" />
    <glyph glyph-name="_681" unicode="&#x3262;" 
d="M30 393c0 -253 199 -448 450 -448s450 195 450 448s-199 448 -450 448s-450 -195 -450 -448zM64 393c0 234 184 417 416 417s416 -183 416 -417s-184 -417 -416 -417s-416 183 -416 417zM301 250v290h394v35h-434v-361h442v36h-402z" />
    <glyph glyph-name="_682" unicode="&#x3263;" 
d="M30 393c0 -253 199 -448 450 -448s450 195 450 448s-199 448 -450 448s-450 -195 -450 -448zM64 393c0 234 184 417 416 417s416 -183 416 -417s-184 -417 -416 -417s-416 183 -416 417zM305 242v136h386v205h-426v-36h386v-134h-386v-207h442v36h-402z" />
    <glyph glyph-name="_683" unicode="&#x3264;" 
d="M30 393c0 -253 199 -448 450 -448s450 195 450 448s-199 448 -450 448s-450 -195 -450 -448zM64 393c0 234 184 417 416 417s416 -183 416 -417s-184 -417 -416 -417s-416 183 -416 417zM261 575v-361h434v361h-434zM655 540v-290h-354v290h354z" />
    <glyph glyph-name="_684" unicode="&#x3265;" 
d="M30 393c0 -253 199 -448 450 -448s450 195 450 448s-199 448 -450 448s-450 -195 -450 -448zM64 393c0 234 184 417 416 417s416 -183 416 -417s-184 -417 -416 -417s-416 183 -416 417zM301 430v145h-40v-361h434v361h-40v-145h-354zM655 395v-145h-354v145h354z" />
    <glyph glyph-name="_685" unicode="&#x3266;" 
d="M30 393c0 -253 199 -448 450 -448s450 195 450 448s-199 448 -450 448s-450 -195 -450 -448zM64 393c0 234 184 417 416 417s416 -183 416 -417s-184 -417 -416 -417s-416 183 -416 417zM725 220v38c-124 30 -226 114 -226 248v91h-40v-91c0 -134 -97 -219 -225 -249v-37
c133 31 211 101 245 183c34 -83 120 -151 246 -183z" />
    <glyph glyph-name="_686" unicode="&#x3267;" 
d="M30 393c0 -253 199 -448 450 -448s450 195 450 448s-199 448 -450 448s-450 -195 -450 -448zM64 393c0 234 184 417 416 417s416 -183 416 -417s-184 -417 -416 -417s-416 183 -416 417zM286 395c0 44 18 81 48 108c34 31 85 48 145 48s111 -17 145 -48
c30 -27 47 -64 47 -108c0 -46 -17 -83 -47 -109c-33 -30 -85 -48 -145 -48s-112 18 -145 48c-30 26 -48 63 -48 109zM247 395c0 -57 24 -104 63 -138c41 -35 101 -54 169 -54s128 19 169 54c39 34 63 81 63 138c0 56 -24 103 -63 137c-41 35 -101 54 -169 54
s-128 -19 -169 -54c-39 -34 -63 -81 -63 -137z" />
    <glyph glyph-name="_687" unicode="&#x3268;" 
d="M30 393c0 -253 199 -447 450 -447c250 0 449 194 449 447c0 252 -199 447 -449 447c-251 0 -450 -195 -450 -447zM63 393c0 233 184 416 417 416c231 0 416 -183 416 -416c0 -234 -185 -416 -416 -416c-232 0 -417 182 -417 416zM715 244c-117 31 -217 113 -217 238v57
h209v36h-457v-36h208v-57c0 -125 -94 -209 -217 -238v-38c124 29 204 97 237 180c35 -82 119 -151 237 -180v38z" />
    <glyph glyph-name="_688" unicode="&#x3269;" 
d="M30 393c0 -253 199 -447 450 -447c250 0 449 194 449 447c0 252 -199 447 -449 447c-251 0 -450 -195 -450 -447zM63 393c0 233 184 416 417 416c231 0 416 -183 416 -416c0 -234 -185 -416 -416 -416c-232 0 -417 182 -417 416zM707 482v36h-209v110h-40v-110h-208v-36
h208v-9c0 -120 -94 -205 -217 -233v-38c124 28 203 95 237 178c35 -82 119 -150 237 -178v38c-117 30 -217 113 -217 233v9h209z" />
    <glyph glyph-name="_689" unicode="&#x326a;" 
d="M30 393c0 -253 199 -448 450 -448s450 195 450 448s-199 448 -450 448s-450 -195 -450 -448zM64 393c0 234 184 417 416 417s416 -183 416 -417s-184 -417 -416 -417s-416 183 -416 417zM261 575v-35h394v-138c-58 -9 -133 -12 -195 -12h-199v-35h199c64 0 138 4 195 13
v-154h40v361h-434z" />
    <glyph glyph-name="_690" unicode="&#x326b;" 
d="M30 393c0 -253 199 -448 450 -448s450 195 450 448s-199 448 -450 448s-450 -195 -450 -448zM64 393c0 234 184 417 416 417s416 -183 416 -417s-184 -417 -416 -417s-416 183 -416 417zM305 242v136h378v35h-378v134h386v36h-426v-377h442v36h-402z" />
    <glyph glyph-name="_691" unicode="&#x326c;" 
d="M30 393c0 -253 199 -448 450 -448s450 195 450 448s-199 448 -450 448s-450 -195 -450 -448zM64 393c0 234 184 417 416 417s416 -183 416 -417s-184 -417 -416 -417s-416 183 -416 417zM578 396c0 -50 -5 -107 -19 -146h-177v290h196v-144zM618 540h94v35h-466v-35h96
v-290h-111v-36h496v36h-127c13 39 18 97 18 152v138z" />
    <glyph glyph-name="_692" unicode="&#x326d;" 
d="M30 393c0 -253 199 -448 450 -448s450 195 450 448s-199 448 -450 448s-450 -195 -450 -448zM64 393c0 234 184 417 416 417s416 -183 416 -417s-184 -417 -416 -417s-416 183 -416 417zM236 538v-36h485v36h-223v100h-40v-100h-222zM479 217c-66 0 -124 14 -155 40
c-14 12 -22 29 -22 50c0 20 8 37 22 49c31 27 89 40 155 40s124 -13 155 -40c14 -12 22 -29 22 -49c0 -21 -8 -38 -22 -50c-31 -26 -89 -40 -155 -40zM479 182c74 0 143 18 180 49c23 20 37 45 37 76c0 30 -14 55 -37 75c-37 32 -106 50 -180 50s-143 -18 -180 -50
c-23 -20 -37 -45 -37 -75c0 -31 14 -56 37 -76c37 -31 106 -49 180 -49z" />
    <glyph glyph-name="_693" unicode="&#x326e;" 
d="M30 393c0 -253 199 -447 450 -447c250 0 449 194 449 447c0 252 -199 447 -449 447c-251 0 -450 -195 -450 -447zM63 393c0 233 184 416 417 416c231 0 416 -183 416 -416c0 -234 -185 -416 -416 -416c-232 0 -417 182 -417 416zM479 547c0 -202 -85 -329 -244 -376v-35
c185 51 283 191 283 413v111h-279v-34h240v-79zM691 681h-37v-584h37v299h99v34h-99v251z" />
    <glyph glyph-name="_694" unicode="&#x326f;" 
d="M30 393c0 -253 199 -448 450 -448s450 195 450 448s-199 448 -450 448s-450 -195 -450 -448zM64 393c0 234 184 417 416 417s416 -183 416 -417s-184 -417 -416 -417s-416 183 -416 417zM477 140c72 0 137 22 177 56v-98h38v299h98v34h-98v250h-38v-447
c-40 -38 -106 -61 -174 -61h-203v491h-38v-524h238z" />
    <glyph glyph-name="_695" unicode="&#x3270;" 
d="M30 393c0 -253 199 -448 450 -448s450 195 450 448s-199 448 -450 448s-450 -195 -450 -448zM64 393c0 234 184 417 416 417s416 -183 416 -417s-184 -417 -416 -417s-416 183 -416 417zM489 140c67 0 128 21 165 50v-92h38v299h98v34h-98v250h-38v-453
c-36 -34 -98 -55 -163 -55h-214v453h235v34h-273v-520h250z" />
    <glyph glyph-name="_696" unicode="&#x3271;" 
d="M30 393c0 -253 199 -448 450 -448s450 195 450 448s-199 448 -450 448s-450 -195 -450 -448zM64 393c0 234 184 417 416 417s416 -183 416 -417s-184 -417 -416 -417s-416 183 -416 417zM489 140c67 0 128 21 165 50v-92h38v299h98v34h-98v250h-38v-453
c-36 -34 -98 -55 -163 -55h-214v213h228v274h-266v-34h228v-206h-228v-280h250z" />
    <glyph glyph-name="_697" unicode="&#x3272;" 
d="M30 393c0 -253 199 -447 450 -447c250 0 449 194 449 447c0 252 -199 447 -449 447c-251 0 -450 -195 -450 -447zM63 393c0 233 184 416 417 416c231 0 416 -183 416 -416c0 -234 -185 -416 -416 -416c-232 0 -417 182 -417 416zM518 140v520h-279v-520h279zM479 173
h-202v453h202v-453zM691 681h-37v-584h37v299h99v34h-99v251z" />
    <glyph glyph-name="_698" unicode="&#x3273;" 
d="M30 393c0 -253 199 -447 450 -447c250 0 449 194 449 447c0 252 -199 447 -449 447c-251 0 -450 -195 -450 -447zM63 393c0 233 184 416 417 416c231 0 416 -183 416 -416c0 -234 -185 -416 -416 -416c-232 0 -417 182 -417 416zM479 660v-217h-202v217h-38v-520h279v520
h-39zM277 173v237h202v-237h-202zM790 430h-99v251h-37v-584h37v299h99v34z" />
    <glyph glyph-name="_699" unicode="&#x3274;" 
d="M30 393c0 -253 199 -447 450 -447c250 0 449 194 449 447c0 252 -199 447 -449 447c-251 0 -450 -195 -450 -447zM63 393c0 233 184 416 417 416c231 0 416 -183 416 -416c0 -234 -185 -416 -416 -416c-232 0 -417 182 -417 416zM553 135v37c-75 38 -151 107 -151 260
v231h-39v-231c0 -153 -76 -225 -151 -260v-37c81 34 148 100 170 182c23 -81 90 -144 171 -182zM691 681h-37v-584h37v299h99v34h-99v251z" />
    <glyph glyph-name="_700" unicode="&#x3275;" 
d="M30 393c0 -253 199 -447 450 -447c250 0 449 194 449 447c0 252 -199 447 -449 447c-251 0 -450 -195 -450 -447zM63 393c0 233 184 416 417 416c231 0 416 -183 416 -416c0 -234 -185 -416 -416 -416c-232 0 -417 182 -417 416zM691 681h-37v-584h37v299h99v34h-99v251z
M269 400c0 94 13 181 57 218c15 12 33 19 55 19c21 0 39 -6 53 -17c47 -36 59 -124 59 -220s-12 -183 -58 -219c-14 -11 -32 -17 -54 -17s-40 6 -54 18c-45 37 -58 123 -58 218zM231 400c0 -114 20 -207 76 -248c20 -14 44 -22 74 -22c29 0 52 7 72 21c58 40 79 134 79 249
c0 116 -21 210 -79 250c-20 13 -43 21 -72 21s-53 -7 -73 -21c-57 -40 -77 -135 -77 -250z" />
    <glyph glyph-name="_701" unicode="&#x3276;" 
d="M30 393c0 -253 199 -447 450 -447c250 0 449 194 449 447c0 252 -199 447 -449 447c-251 0 -450 -195 -450 -447zM63 393c0 233 184 416 417 416c231 0 416 -183 416 -416c0 -234 -185 -416 -416 -416c-232 0 -417 182 -417 416zM231 660v-34h138v-202
c0 -134 -78 -220 -144 -252v-37c73 34 138 103 163 178c24 -73 86 -142 163 -178v37c-69 35 -144 118 -144 252v202h138v34h-314zM691 681h-37v-584h37v299h99v34h-99v251z" />
    <glyph glyph-name="_702" unicode="&#x3277;" 
d="M30 393c0 -253 199 -447 450 -447c250 0 449 194 449 447c0 252 -199 447 -449 447c-251 0 -450 -195 -450 -447zM63 393c0 233 184 416 417 416c231 0 416 -183 416 -416c0 -234 -185 -416 -416 -416c-232 0 -417 182 -417 416zM407 585v104h-38v-104h-138v-33h138v-128
c0 -134 -78 -220 -144 -252v-37c74 34 138 103 163 178c24 -73 86 -142 163 -178v37c-69 35 -144 118 -144 252v128h138v33h-138zM691 681h-37v-584h37v299h99v34h-99v251z" />
    <glyph glyph-name="_703" unicode="&#x3278;" 
d="M30 393c0 -253 199 -447 450 -447c250 0 449 194 449 447c0 252 -199 447 -449 447c-251 0 -450 -195 -450 -447zM63 393c0 233 184 416 417 416c231 0 416 -183 416 -416c0 -234 -185 -416 -416 -416c-232 0 -417 182 -417 416zM343 409c43 0 92 7 124 16
c-28 -131 -107 -217 -232 -254v-35c185 51 283 191 283 413v111h-279v-34h240v-79c0 -30 -1 -59 -5 -86c-31 -11 -83 -18 -131 -18h-108v-34h108zM691 681h-37v-584h37v299h99v34h-99v251z" />
    <glyph glyph-name="_704" unicode="&#x3279;" 
d="M30 393c0 -253 199 -448 450 -448s450 195 450 448s-199 448 -450 448s-450 -195 -450 -448zM64 393c0 234 184 417 416 417s416 -183 416 -417s-184 -417 -416 -417s-416 183 -416 417zM277 626h241v34h-279v-520h250c66 0 128 21 165 50v-92h38v299h98v34h-98v250h-38
v-453c-37 -35 -104 -55 -172 -55h-205v213h228v34h-228v206z" />
    <glyph glyph-name="_705" unicode="&#x327a;" 
d="M30 393c0 -253 199 -447 450 -447c250 0 449 194 449 447c0 252 -199 447 -449 447c-251 0 -450 -195 -450 -447zM63 393c0 233 184 416 417 416c231 0 416 -183 416 -416c0 -234 -185 -416 -416 -416c-232 0 -417 182 -417 416zM463 343c0 -59 -5 -128 -15 -170h-112
v453h127v-283zM224 173v-33h276c61 0 118 16 154 43v-86h37v299h99v34h-99v251h-37v-460c-34 -31 -91 -48 -151 -48h-17c9 43 15 116 15 180v273h69v34h-339v-34h67v-453h-74z" />
    <glyph glyph-name="_706" unicode="&#x327b;" 
d="M30 393c0 -253 199 -447 450 -447c250 0 449 194 449 447c0 252 -199 447 -449 447c-251 0 -450 -195 -450 -447zM63 393c0 233 184 416 417 416c231 0 416 -183 416 -416c0 -234 -185 -416 -416 -416c-232 0 -417 182 -417 416zM213 558h341v35h-152v99h-38v-99h-151
v-35zM239 314c0 -79 24 -130 61 -158c23 -18 52 -27 83 -27c35 0 67 9 91 30c34 29 55 80 55 155c0 83 -27 137 -69 164c-22 14 -48 21 -77 21c-31 0 -60 -9 -83 -26c-38 -29 -61 -81 -61 -159zM277 314c0 63 16 105 42 128c17 15 39 23 64 23c23 0 42 -6 59 -18
c30 -22 49 -66 49 -133c0 -60 -14 -101 -39 -125c-18 -18 -42 -26 -69 -26c-24 0 -46 7 -63 22c-27 23 -43 65 -43 129zM691 681h-37v-584h37v299h99v34h-99v251z" />
    <glyph glyph-name="_707" unicode="&#x24d0;" 
d="M30 393c0 -253 199 -448 450 -448s450 195 450 448s-199 448 -450 448s-450 -195 -450 -448zM64 393c0 234 184 417 416 417s416 -183 416 -417s-184 -417 -416 -417s-416 183 -416 417zM608 186h41c-7 19 -12 41 -12 61v211c0 90 -56 149 -160 149
c-100 0 -150 -53 -158 -131h41c5 58 41 97 117 97c79 0 120 -46 120 -113v-69c-23 31 -70 51 -133 51c-104 0 -162 -52 -162 -132c0 -82 58 -133 162 -133c65 0 110 19 133 51c1 -15 5 -30 11 -42zM597 310c0 -60 -42 -98 -128 -98c-85 0 -127 38 -127 98c0 58 42 97 127 97
c86 0 128 -39 128 -97z" />
    <glyph glyph-name="_708" unicode="&#x24d1;" 
d="M30 393c0 -253 199 -447 450 -447c250 0 449 194 449 447c0 252 -199 447 -449 447c-251 0 -450 -195 -450 -447zM63 393c0 233 184 416 417 416c231 0 416 -183 416 -416c0 -234 -185 -416 -416 -416c-232 0 -417 182 -417 416zM686 328c0 137 -55 215 -169 215
c-66 0 -113 -27 -136 -76v228h-40v-573h40v67c25 -47 72 -77 136 -77c114 0 169 79 169 216zM646 328c0 -116 -40 -181 -132 -181c-93 0 -133 65 -133 181c0 115 40 181 133 181c92 0 132 -66 132 -181z" />
    <glyph glyph-name="_709" unicode="&#x24d2;" 
d="M30 393c0 -253 199 -448 450 -448s450 195 450 448s-199 448 -450 448s-450 -195 -450 -448zM64 393c0 234 184 417 416 417s416 -183 416 -417s-184 -417 -416 -417s-416 183 -416 417zM309 392c0 -134 53 -215 171 -215c97 0 154 54 166 145h-40
c-10 -69 -52 -110 -126 -110c-92 0 -132 65 -132 180s40 181 132 181c74 0 116 -42 126 -110h40c-11 90 -69 144 -166 144c-118 0 -171 -80 -171 -215z" />
    <glyph glyph-name="_710" unicode="&#x24d3;" 
d="M30 393c0 -253 199 -447 450 -447c250 0 449 194 449 447c0 252 -199 447 -449 447c-251 0 -450 -195 -450 -447zM63 393c0 233 184 416 417 416c231 0 416 -183 416 -416c0 -234 -185 -416 -416 -416c-232 0 -417 182 -417 416zM270 329c0 -137 55 -216 169 -216
c64 0 112 30 136 77v-67h39v573h-39v-228c-24 50 -70 76 -136 76c-114 0 -169 -78 -169 -215zM575 329c0 -116 -40 -181 -133 -181c-92 0 -132 65 -132 181c0 115 40 181 132 181c93 0 133 -66 133 -181z" />
    <glyph glyph-name="_711" unicode="&#x24d4;" 
d="M30 393c0 -253 199 -447 450 -447c250 0 449 194 449 447c0 252 -199 447 -449 447c-251 0 -450 -195 -450 -447zM63 393c0 233 184 416 417 416c231 0 416 -183 416 -416c0 -234 -185 -416 -416 -416c-232 0 -417 182 -417 416zM603 312c-12 -61 -59 -100 -124 -100
c-89 0 -130 62 -132 170h305c0 141 -53 226 -173 226c-118 0 -172 -80 -172 -215s54 -216 172 -216c93 0 150 51 165 135h-41zM479 574c86 0 128 -58 133 -159h-265c4 101 46 159 132 159z" />
    <glyph glyph-name="_712" unicode="&#x24d5;" 
d="M30 393c0 -253 199 -448 450 -448s450 195 450 448s-199 448 -450 448s-450 -195 -450 -448zM64 393c0 234 184 417 416 417s416 -183 416 -417s-184 -417 -416 -417s-416 183 -416 417zM587 642v33c-13 2 -28 2 -42 2c-88 0 -119 -28 -119 -115v-52h-61v-35h61v-377h40
v377h121v35h-121v50c0 63 17 82 81 82h40z" />
    <glyph glyph-name="_713" unicode="&#x24d6;" 
d="M30 393c0 -253 199 -447 450 -447c250 0 449 194 449 447c0 252 -199 447 -449 447c-251 0 -450 -195 -450 -447zM63 393c0 233 184 416 417 416c231 0 416 -183 416 -416c0 -234 -185 -416 -416 -416c-232 0 -417 182 -417 416zM603 470c0 -116 -40 -181 -133 -181
c-92 0 -132 65 -132 181c0 115 40 181 132 181c93 0 133 -66 133 -181zM323 204c10 -74 64 -126 158 -126c109 0 162 67 162 164v434h-40v-67c-23 50 -70 76 -136 76c-113 0 -169 -78 -169 -215s56 -215 169 -215c65 0 112 28 136 76v-90c0 -80 -44 -129 -122 -129
c-67 0 -110 37 -118 92h-40z" />
    <glyph glyph-name="_714" unicode="&#x24d7;" 
d="M30 393c0 -253 199 -447 450 -447c250 0 449 194 449 447c0 252 -199 447 -449 447c-251 0 -450 -195 -450 -447zM63 393c0 233 184 416 417 416c231 0 416 -183 416 -416c0 -234 -185 -416 -416 -416c-232 0 -417 182 -417 416zM374 122v193c0 122 57 194 139 194
c71 0 110 -47 110 -139v-248h39v252c0 108 -51 169 -144 169c-67 0 -119 -34 -144 -91v243h-40v-573h40z" />
    <glyph glyph-name="_715" unicode="&#x24d8;" 
d="M30 393c0 -253 199 -448 450 -448s450 195 450 448s-199 448 -450 448s-450 -195 -450 -448zM64 393c0 234 184 417 416 417s416 -183 416 -417s-184 -417 -416 -417s-416 183 -416 417zM500 111v412h-39v-412h39zM500 606v78h-39v-78h39z" />
    <glyph glyph-name="_716" unicode="&#x24d9;" 
d="M30 393c0 -253 199 -448 450 -448s450 195 450 448s-199 448 -450 448s-450 -195 -450 -448zM64 393c0 234 184 417 416 417s416 -183 416 -417s-184 -417 -416 -417s-416 183 -416 417zM524 564h-40v-410c0 -45 -21 -63 -57 -63h-23v-33c5 -2 16 -2 25 -2
c61 0 95 28 95 97v411zM524 646v79h-40v-79h40z" />
    <glyph glyph-name="_717" unicode="&#x24da;" 
d="M30 393c0 -253 199 -448 450 -448s450 195 450 448s-199 448 -450 448s-450 -195 -450 -448zM64 393c0 234 184 417 416 417s416 -183 416 -417s-184 -417 -416 -417s-416 183 -416 417zM403 129v198h50l171 -198h49l-185 215l166 197h-46l-154 -179h-51v341h-40v-574h40
z" />
    <glyph glyph-name="_718" unicode="&#x24db;" 
d="M30 393c0 -253 199 -448 450 -448s450 195 450 448s-199 448 -450 448s-450 -195 -450 -448zM64 393c0 234 184 417 416 417s416 -183 416 -417s-184 -417 -416 -417s-416 183 -416 417zM503 106v573h-40v-573h40z" />
    <glyph glyph-name="_719" unicode="&#x24dc;" 
d="M30 393c0 -253 199 -447 450 -447c250 0 449 194 449 447c0 252 -199 447 -449 447c-251 0 -450 -195 -450 -447zM63 393c0 233 184 416 417 416c231 0 416 -183 416 -416c0 -234 -185 -416 -416 -416c-232 0 -417 182 -417 416zM719 186h39v275c0 90 -48 146 -131 146
c-61 0 -110 -40 -131 -98c-14 64 -59 98 -124 98c-59 0 -101 -32 -124 -89v80h-40v-412h40v201c0 120 54 186 119 186c61 0 96 -41 96 -115v-272h40v201c0 120 54 186 119 186c62 0 97 -42 97 -115v-272z" />
    <glyph glyph-name="_720" unicode="&#x24dd;" 
d="M30 393c0 -253 199 -447 450 -447c250 0 449 194 449 447c0 252 -199 447 -449 447c-251 0 -450 -195 -450 -447zM63 393c0 233 184 416 417 416c231 0 416 -183 416 -416c0 -234 -185 -416 -416 -416c-232 0 -417 182 -417 416zM362 185v210c2 113 60 177 138 177
c74 0 111 -51 111 -154v-233h39v252c0 108 -52 169 -144 169c-67 0 -119 -34 -144 -91v82h-41v-412h41z" />
    <glyph glyph-name="_721" unicode="&#x24de;" 
d="M30 393c0 -253 199 -448 450 -448s450 195 450 448s-199 448 -450 448s-450 -195 -450 -448zM64 393c0 234 184 417 416 417s416 -183 416 -417s-184 -417 -416 -417s-416 183 -416 417zM653 394c0 135 -54 215 -173 215c-118 0 -171 -80 -171 -215s53 -216 171 -216
c119 0 173 81 173 216zM613 394c0 -116 -40 -181 -133 -181c-92 0 -132 65 -132 181c0 115 40 181 132 181c93 0 133 -66 133 -181z" />
    <glyph glyph-name="_722" unicode="&#x24df;" 
d="M30 393c0 -253 199 -447 450 -447c250 0 449 194 449 447c0 252 -199 447 -449 447c-251 0 -450 -195 -450 -447zM63 393c0 233 184 416 417 416c231 0 416 -183 416 -416c0 -234 -185 -416 -416 -416c-232 0 -417 182 -417 416zM688 456c0 138 -56 216 -170 216
c-65 0 -112 -27 -135 -77v68h-40v-587h40v241c24 -48 71 -76 135 -76c114 0 170 79 170 215zM647 456c0 -115 -39 -180 -132 -180s-132 65 -132 180s39 181 132 181s132 -66 132 -181z" />
    <glyph glyph-name="_723" unicode="&#x24e0;" 
d="M30 393c0 -253 199 -447 450 -447c250 0 449 194 449 447c0 252 -199 447 -449 447c-251 0 -450 -195 -450 -447zM63 393c0 233 184 416 417 416c231 0 416 -183 416 -416c0 -234 -185 -416 -416 -416c-232 0 -417 182 -417 416zM278 456c0 -136 56 -215 169 -215
c65 0 112 28 136 76v-241h40v587h-40v-68c-23 50 -70 77 -136 77c-113 0 -169 -78 -169 -216zM583 456c0 -115 -40 -180 -133 -180c-92 0 -132 65 -132 180s40 181 132 181c93 0 133 -66 133 -181z" />
    <glyph glyph-name="_724" unicode="&#x24e1;" 
d="M30 393c0 -253 199 -448 450 -448s450 195 450 448s-199 448 -450 448s-450 -195 -450 -448zM64 393c0 234 184 417 416 417s416 -183 416 -417s-184 -417 -416 -417s-416 183 -416 417zM561 561c10 0 23 -1 34 -2v33c-11 4 -22 4 -34 4c-57 0 -98 -25 -119 -78v69h-40
v-412h40v207c0 124 46 179 119 179z" />
    <glyph glyph-name="_725" unicode="&#x24e2;" 
d="M30 393c0 -253 199 -448 450 -448s450 195 450 448s-199 448 -450 448s-450 -195 -450 -448zM64 393c0 234 184 417 416 417s416 -183 416 -417s-184 -417 -416 -417s-416 183 -416 417zM481 608c-93 0 -145 -49 -145 -111c0 -61 35 -95 119 -111c5 -1 54 -10 59 -11
c63 -12 88 -34 88 -79c0 -51 -49 -83 -114 -83c-66 0 -114 32 -114 83v20h-40v-20c0 -72 64 -118 154 -118c91 0 153 47 153 118c0 62 -35 98 -115 114c-4 1 -53 10 -58 11c-63 12 -92 34 -92 76c0 44 38 77 105 77s105 -33 105 -76v-20h40v19c0 62 -52 111 -145 111z" />
    <glyph glyph-name="_726" unicode="&#x24e3;" 
d="M30 393c0 -253 199 -448 450 -448s450 195 450 448s-199 448 -450 448s-450 -195 -450 -448zM64 393c0 234 184 417 416 417s416 -183 416 -417s-184 -417 -416 -417s-416 183 -416 417zM462 521h130v35h-130v114h-40v-114h-61v-35h61v-268c0 -87 40 -115 123 -115
c13 0 29 0 47 2v33h-44c-55 0 -86 15 -86 82v266z" />
    <glyph glyph-name="_727" unicode="&#x24e4;" 
d="M30 393c0 -253 199 -447 450 -447c250 0 449 194 449 447c0 252 -199 447 -449 447c-251 0 -450 -195 -450 -447zM63 393c0 233 184 416 417 416c231 0 416 -183 416 -416c0 -234 -185 -416 -416 -416c-232 0 -417 182 -417 416zM345 592h-39v-253
c0 -106 51 -169 144 -169c68 0 119 34 145 91v-81h39v412h-39v-210c-3 -113 -62 -177 -140 -177c-71 0 -110 47 -110 139v248z" />
    <glyph glyph-name="_728" unicode="&#x24e5;" 
d="M30 393c0 -253 199 -447 450 -447c250 0 449 194 449 447c0 252 -199 447 -449 447c-251 0 -450 -195 -450 -447zM63 393c0 233 184 416 417 416c231 0 416 -183 416 -416c0 -234 -185 -416 -416 -416c-232 0 -417 182 -417 416zM494 165l168 412h-43l-145 -357l-144 357
h-44l169 -412h39z" />
    <glyph glyph-name="_729" unicode="&#x24e6;" 
d="M30 393c0 -253 199 -448 450 -448s450 195 450 448s-199 448 -450 448s-450 -195 -450 -448zM64 393c0 234 184 417 416 417s416 -183 416 -417s-184 -417 -416 -417s-416 183 -416 417zM460 585l-123 -351l-122 351h-42l145 -412h39l122 351l124 -351h38l145 412h-43
l-121 -351l-124 351h-38z" />
    <glyph glyph-name="_730" unicode="&#x24e7;" 
d="M30 393c0 -253 199 -448 450 -448s450 195 450 448s-199 448 -450 448s-450 -195 -450 -448zM64 393c0 234 184 417 416 417s416 -183 416 -417s-184 -417 -416 -417s-416 183 -416 417zM617 182h47l-159 210l151 202h-47l-128 -171l-128 171h-47l150 -202l-158 -210h47
l136 180z" />
    <glyph glyph-name="_731" unicode="&#x24e8;" 
d="M30 393c0 -253 199 -448 450 -448s450 195 450 448s-199 448 -450 448s-450 -195 -450 -448zM64 393c0 234 184 417 416 417s416 -183 416 -417s-184 -417 -416 -417s-416 183 -416 417zM428 141c-16 -40 -34 -50 -67 -50h-18v-33c7 -2 10 -2 21 -2c48 0 75 13 100 74
l211 514h-43l-145 -358l-145 358h-43l167 -408z" />
    <glyph glyph-name="_732" unicode="&#x24e9;" 
d="M30 393c0 -253 199 -448 450 -448s450 195 450 448s-199 448 -450 448s-450 -195 -450 -448zM64 393c0 234 184 417 416 417s416 -183 416 -417s-184 -417 -416 -417s-416 183 -416 417zM620 599h-282v-35h233l-239 -347v-30h294v35h-245l239 347v30z" />
    <glyph glyph-name="_733" unicode="&#x2460;" 
d="M30 393c0 -253 199 -448 450 -448s450 195 450 448s-199 448 -450 448s-450 -195 -450 -448zM64 393c0 234 184 417 416 417s416 -183 416 -417s-184 -417 -416 -417s-416 183 -416 417zM521 120v552h-32l-153 -68v-41l146 65v-508h39z" />
    <glyph glyph-name="_734" unicode="&#x2461;" 
d="M30 393c0 -253 199 -448 450 -448s450 195 450 448s-199 448 -450 448s-450 -195 -450 -448zM64 393c0 234 184 417 416 417s416 -183 416 -417s-184 -417 -416 -417s-416 183 -416 417zM639 531c0 88 -55 162 -161 162s-162 -74 -162 -162v-20h40v20
c0 70 43 127 122 127s121 -57 121 -127c0 -39 -13 -71 -45 -108l-229 -260v-31h321v35h-268l205 233c43 49 56 83 56 131z" />
    <glyph glyph-name="_735" unicode="&#x2462;" 
d="M30 393c0 -253 199 -447 450 -447c250 0 449 194 449 447c0 252 -199 447 -449 447c-251 0 -450 -195 -450 -447zM63 393c0 233 184 416 417 416c231 0 416 -183 416 -416c0 -234 -185 -416 -416 -416c-232 0 -417 182 -417 416zM614 273c0 -77 -54 -125 -131 -125
c-78 0 -131 52 -131 140h-39c0 -109 64 -175 170 -175c102 0 170 62 170 161c0 77 -39 125 -95 142c47 19 79 66 79 126c0 79 -59 141 -154 141c-96 0 -154 -62 -154 -141v-18h39v16c0 63 44 108 115 108c70 0 114 -45 114 -108c0 -55 -33 -107 -105 -107h-61v-35h58
c79 0 125 -50 125 -125z" />
    <glyph glyph-name="_736" unicode="&#x2463;" 
d="M30 393c0 -253 199 -448 450 -448s450 195 450 448s-199 448 -450 448s-450 -195 -450 -448zM64 393c0 234 184 417 416 417s416 -183 416 -417s-184 -417 -416 -417s-416 183 -416 417zM332 290l192 313v-313h-192zM646 290h-83v386h-39l-240 -388v-33h240v-130h39v130
h83v35z" />
    <glyph glyph-name="_737" unicode="&#x2464;" 
d="M30 393c0 -253 199 -448 450 -448s450 195 450 448s-199 448 -450 448s-450 -195 -450 -448zM64 393c0 234 184 417 416 417s416 -183 416 -417s-184 -417 -416 -417s-416 183 -416 417zM484 444c81 0 125 -55 125 -151c0 -95 -44 -150 -125 -150c-71 0 -116 43 -125 125
h-39c10 -100 68 -160 164 -160c102 0 165 67 165 185c0 119 -63 185 -162 185c-50 0 -85 -16 -108 -51l11 207h229v35h-267l-14 -305h37c20 52 60 80 109 80z" />
    <glyph glyph-name="_738" unicode="&#x2465;" 
d="M30 393c0 -253 199 -447 450 -447c250 0 449 194 449 447c0 252 -199 447 -449 447c-251 0 -450 -195 -450 -447zM63 393c0 233 184 416 417 416c231 0 416 -183 416 -416c0 -234 -185 -416 -416 -416c-232 0 -417 182 -417 416zM635 542c-11 94 -69 139 -153 139
c-120 0 -168 -77 -168 -330c0 -157 51 -240 169 -240c102 0 168 71 168 186c0 114 -64 184 -166 184c-61 0 -107 -28 -131 -72c3 171 38 237 127 237c59 0 104 -31 113 -104h41zM483 147c-76 0 -129 55 -129 150c0 94 53 150 129 150c77 0 129 -56 129 -150
c0 -95 -52 -150 -129 -150z" />
    <glyph glyph-name="_739" unicode="&#x2466;" 
d="M30 393c0 -253 199 -448 450 -448s450 195 450 448s-199 448 -450 448s-450 -195 -450 -448zM64 393c0 234 184 417 416 417s416 -183 416 -417s-184 -417 -416 -417s-416 183 -416 417zM320 609h279l-199 -517h42l201 523v29h-323v-35z" />
    <glyph glyph-name="_740" unicode="&#x2467;" 
d="M30 393c0 -253 199 -448 450 -448s450 195 450 448s-199 448 -450 448s-450 -195 -450 -448zM64 393c0 234 184 417 416 417s416 -183 416 -417s-184 -417 -416 -417s-416 183 -416 417zM481 111c107 0 178 57 178 158c0 72 -39 124 -100 143c52 20 84 66 84 127
c0 84 -63 142 -162 142c-98 0 -161 -58 -161 -142c0 -61 31 -108 84 -127c-63 -19 -100 -70 -100 -143c0 -101 71 -158 177 -158zM604 537c0 -67 -51 -109 -123 -109c-71 0 -122 42 -122 109c0 66 51 109 122 109c72 0 123 -43 123 -109zM343 269c0 79 58 124 138 124
c81 0 139 -45 139 -124c0 -78 -58 -123 -139 -123c-80 0 -138 45 -138 123z" />
    <glyph glyph-name="_741" unicode="&#x2468;" 
d="M30 393c0 -253 199 -447 450 -447c250 0 449 194 449 447c0 252 -199 447 -449 447c-251 0 -450 -195 -450 -447zM63 393c0 233 184 416 417 416c231 0 416 -183 416 -416c0 -234 -185 -416 -416 -416c-232 0 -417 182 -417 416zM324 248c11 -93 69 -139 153 -139
c124 0 168 85 168 330c0 156 -48 240 -169 240c-102 0 -168 -70 -168 -185s65 -185 166 -185c62 0 107 28 131 72c-4 -167 -36 -237 -127 -237c-58 0 -104 32 -113 104h-41zM476 644c76 0 129 -55 129 -150s-53 -150 -129 -150c-77 0 -129 55 -129 150s52 150 129 150z" />
    <glyph glyph-name="_742" unicode="&#x2469;" 
d="M30 393c0 -253 199 -448 450 -448s450 195 450 448s-199 448 -450 448s-450 -195 -450 -448zM64 393c0 234 184 417 416 417s416 -183 416 -417s-184 -417 -416 -417s-416 183 -416 417zM341 129v530h-32l-121 -67v-42l113 62v-483h40zM505 395c0 110 9 173 35 205
c15 21 38 34 66 34c29 0 52 -13 67 -34c26 -32 35 -95 35 -205s-9 -173 -35 -205c-15 -21 -38 -34 -67 -34c-28 0 -51 13 -66 34c-26 32 -35 95 -35 205zM466 395c0 -123 13 -193 49 -233c21 -25 52 -41 91 -41c40 0 71 16 92 41c36 40 49 110 49 233s-13 193 -49 233
c-21 25 -52 41 -92 41c-39 0 -70 -16 -91 -41c-36 -40 -49 -110 -49 -233z" />
    <glyph glyph-name="_743" unicode="&#x246a;" 
d="M30 393c0 -253 199 -448 450 -448s450 195 450 448s-199 448 -450 448s-450 -195 -450 -448zM64 393c0 234 184 417 416 417s416 -183 416 -417s-184 -417 -416 -417s-416 183 -416 417zM371 129v530h-32l-121 -67v-42l113 62v-483h40zM668 129v530h-32l-122 -67v-42
l114 62v-483h40z" />
    <glyph glyph-name="_744" unicode="&#x246b;" 
d="M30 393c0 -253 199 -448 450 -448s450 195 450 448s-199 448 -450 448s-450 -195 -450 -448zM64 393c0 234 184 417 416 417s416 -183 416 -417s-184 -417 -416 -417s-416 183 -416 417zM341 129v530h-32l-121 -67v-42l113 62v-483h40zM730 516c0 84 -46 155 -131 155
c-86 0 -132 -71 -132 -155v-21h41v20c0 68 31 121 91 121c59 0 92 -53 92 -121c0 -36 -12 -68 -37 -103l-180 -250v-29h262v34h-211l161 223c32 45 44 81 44 126z" />
    <glyph glyph-name="_745" unicode="&#x246c;" 
d="M30 393c0 -253 199 -447 450 -447c250 0 449 194 449 447c0 252 -199 447 -449 447c-251 0 -450 -195 -450 -447zM63 393c0 233 184 416 417 416c231 0 416 -183 416 -416c0 -234 -185 -416 -416 -416c-232 0 -417 182 -417 416zM341 128v530h-32l-122 -67v-41l114 62
v-484h40zM695 274c0 -73 -42 -119 -99 -119c-58 0 -98 49 -98 134h-39c0 -106 51 -169 137 -169c83 0 138 60 138 155c0 73 -34 120 -76 136c38 17 63 63 63 121c0 76 -47 136 -125 136c-77 0 -124 -60 -124 -136v-18h39v16c0 59 32 102 85 102c52 0 86 -42 86 -102
c0 -52 -24 -102 -79 -102h-51v-35h49c60 0 94 -47 94 -119z" />
    <glyph glyph-name="_746" unicode="&#x246d;" 
d="M30 393c0 -253 199 -448 450 -448s450 195 450 448s-199 448 -450 448s-450 -195 -450 -448zM64 393c0 234 184 417 416 417s416 -183 416 -417s-184 -417 -416 -417s-416 183 -416 417zM341 129v530h-32l-121 -67v-42l113 62v-483h40zM489 286l150 285v-285h-150z
M745 286h-66v370h-38l-197 -376v-29h195v-125h40v125h66v35z" />
    <glyph glyph-name="_747" unicode="&#x246e;" 
d="M30 393c0 -253 199 -448 450 -448s450 195 450 448s-199 448 -450 448s-450 -195 -450 -448zM64 393c0 234 184 417 416 417s416 -183 416 -417s-184 -417 -416 -417s-416 183 -416 417zM341 129v530h-32l-121 -67v-42l113 62v-483h40zM598 440c61 0 95 -52 95 -143
s-34 -144 -95 -144c-53 0 -86 41 -93 120h-40c8 -96 55 -154 133 -154c83 0 134 64 134 177c0 115 -51 179 -131 179c-34 0 -62 -16 -81 -43l9 191h180v34h-218l-11 -294h37c16 51 45 77 81 77z" />
    <glyph glyph-name="_748" unicode="&#xbd;" 
d="M215 267v513h-35l-111 -52v-36l108 51v-476h38zM640 780h-38l-378 -774h38zM855 370c0 -40 -14 -65 -41 -95l-218 -238v-31h296v33h-246l193 210c41 44 54 74 54 122c0 91 -58 157 -154 157c-95 0 -154 -66 -154 -157v-14h38v13c0 70 43 123 116 123s116 -53 116 -123z
" />
    <glyph glyph-name="_749" unicode="&#x2153;" 
d="M851 393c0 -66 -47 -102 -105 -102h-51v-33h51c67 0 118 -42 118 -114c0 -64 -48 -114 -125 -114c-76 0 -123 50 -123 114v26h-38v-26c0 -80 56 -147 161 -147s163 67 163 146c0 73 -39 117 -102 132c66 17 89 72 89 119c0 77 -57 134 -150 134c-91 0 -148 -59 -148 -135
v-15h37v13c0 63 45 104 111 104c67 0 112 -39 112 -102zM215 267v513h-35l-111 -52v-36l108 51v-476h38zM640 780h-38l-378 -774h38z" />
    <glyph glyph-name="_750" unicode="&#x2154;" 
d="M311 630c0 -38 -12 -65 -40 -95l-218 -238v-30h295v33h-245l193 211c40 44 53 73 53 120c0 93 -58 158 -153 158c-96 0 -154 -65 -154 -158v-13h38v12c0 71 43 125 116 125s115 -54 115 -125zM683 780h-38l-378 -774h38zM871 393c0 -66 -47 -102 -105 -102h-51v-33h51
c67 0 118 -42 118 -114c0 -64 -48 -114 -125 -114c-76 0 -123 50 -123 114v26h-38v-26c0 -80 56 -147 161 -147s163 67 163 146c0 73 -39 117 -102 132c66 17 89 72 89 119c0 77 -57 134 -150 134c-91 0 -148 -59 -148 -135v-15h37v13c0 63 45 104 111 104
c67 0 112 -39 112 -102z" />
    <glyph glyph-name="_751" unicode="&#xbc;" 
d="M595 152l211 309v-309h-211zM911 152h-67v367h-41l-250 -369v-31h253v-113h38v113h67v33zM215 267v513h-35l-111 -52v-36l108 51v-476h38zM650 780h-38l-378 -774h38z" />
    <glyph glyph-name="_752" unicode="&#xbe;" 
d="M305 654c0 -67 -48 -101 -105 -101h-51v-34h51c66 0 117 -42 117 -114c0 -65 -47 -114 -123 -114c-77 0 -124 49 -124 115v24h-38v-24c0 -80 56 -148 162 -148c104 0 161 67 161 147c0 71 -38 116 -101 132c66 16 88 71 88 119c0 76 -57 133 -148 133
c-92 0 -149 -60 -149 -135v-15h37v13c0 63 44 104 112 104c67 0 111 -39 111 -102zM697 780h-38l-379 -774h39zM595 152l211 309v-309h-211zM911 152h-67v367h-41l-250 -369v-31h253v-113h38v113h67v33z" />
    <glyph glyph-name="_753" unicode="&#x215b;" 
d="M738 -4c103 0 167 59 167 148c0 66 -38 119 -103 135c58 15 89 63 89 116c0 77 -58 132 -153 132c-94 0 -153 -55 -153 -132c0 -53 31 -101 89 -116c-65 -16 -103 -69 -103 -135c0 -89 64 -148 167 -148zM738 262c76 0 129 -45 129 -117s-53 -116 -129 -116
s-129 44 -129 116s53 117 129 117zM738 295c-75 0 -115 43 -115 99s40 99 115 99s116 -43 116 -99s-41 -99 -116 -99zM215 267v513h-35l-111 -52v-36l108 51v-476h38zM640 780h-38l-378 -774h38z" />
    <glyph glyph-name="_754" unicode="&#x215c;" 
d="M305 654c0 -67 -48 -101 -105 -101h-51v-34h51c66 0 117 -42 117 -114c0 -65 -47 -114 -123 -114c-77 0 -124 49 -124 115v24h-38v-24c0 -80 56 -148 162 -148c104 0 161 67 161 147c0 71 -38 116 -101 132c66 16 88 71 88 119c0 76 -57 133 -148 133
c-92 0 -149 -60 -149 -135v-15h37v13c0 63 44 104 112 104c67 0 111 -39 111 -102zM682 780h-38l-379 -774h39zM758 -4c103 0 167 59 167 148c0 66 -38 119 -103 135c58 15 89 63 89 116c0 77 -58 132 -153 132c-94 0 -153 -55 -153 -132c0 -53 31 -101 89 -116
c-65 -16 -103 -69 -103 -135c0 -89 64 -148 167 -148zM758 262c76 0 129 -45 129 -117s-53 -116 -129 -116s-129 44 -129 116s53 117 129 117zM758 295c-75 0 -115 43 -115 99s40 99 115 99s116 -43 116 -99s-41 -99 -116 -99z" />
    <glyph glyph-name="_755" unicode="&#x215d;" 
d="M39 409c6 -90 62 -150 156 -150c101 0 157 68 157 175c0 106 -48 174 -148 174c-53 0 -92 -22 -112 -58l9 197h225v33h-260l-12 -278h36c15 44 54 74 109 74c79 0 116 -54 116 -142c0 -89 -43 -139 -120 -141c-71 2 -113 44 -119 116h-37zM682 780h-38l-379 -774h39z
M758 -4c103 0 167 59 167 148c0 66 -38 119 -103 135c58 15 89 63 89 116c0 77 -58 132 -153 132c-94 0 -153 -55 -153 -132c0 -53 31 -101 89 -116c-65 -16 -103 -69 -103 -135c0 -89 64 -148 167 -148zM758 262c76 0 129 -45 129 -117s-53 -116 -129 -116
s-129 44 -129 116s53 117 129 117zM758 295c-75 0 -115 43 -115 99s40 99 115 99s116 -43 116 -99s-41 -99 -116 -99z" />
    <glyph glyph-name="_756" unicode="&#x215e;" 
d="M39 747h272l-180 -480h40l180 483v30h-312v-33zM658 780h-38l-378 -774h38zM758 -4c103 0 167 59 167 148c0 66 -38 119 -103 135c58 15 89 63 89 116c0 77 -58 132 -153 132c-94 0 -153 -55 -153 -132c0 -53 31 -101 89 -116c-65 -16 -103 -69 -103 -135
c0 -89 64 -148 167 -148zM758 262c76 0 129 -45 129 -117s-53 -116 -129 -116s-129 44 -129 116s53 117 129 117zM758 295c-75 0 -115 43 -115 99s40 99 115 99s116 -43 116 -99s-41 -99 -116 -99z" />
    <glyph glyph-name="_757" unicode="&#xe6;" horiz-adv-x="969" 
d="M454 168c0 -85 -60 -139 -182 -139s-181 54 -181 139s59 141 181 141s182 -56 182 -141zM685 536c124 0 183 -84 188 -230h-377c4 146 62 230 189 230zM282 571c-131 0 -199 -68 -208 -169h41c8 81 61 134 167 134c113 0 172 -65 172 -162v-116c-25 53 -89 86 -190 86
c-138 0 -214 -69 -214 -176c0 -106 75 -175 218 -175c127 0 197 51 215 133c31 -86 100 -133 202 -133c124 0 198 67 217 171h-42c-17 -85 -77 -135 -175 -135c-129 0 -190 88 -190 244h419v9c0 181 -72 289 -229 289c-104 0 -174 -49 -202 -139c-18 87 -91 139 -201 139z
" />
    <glyph glyph-name="_758" unicode="&#x111;" horiz-adv-x="589" 
d="M576 656v34h-65v90h-41v-90h-188v-34h188v-215c-27 83 -92 130 -193 130c-152 0 -225 -105 -225 -289s73 -289 225 -289c101 0 166 48 193 130v-117h41v650h65zM470 282c0 -163 -57 -253 -189 -253s-189 90 -189 253c0 162 57 254 189 254s189 -92 189 -254z" />
    <glyph glyph-name="_759" unicode="&#xf0;" horiz-adv-x="564" 
d="M511 282c0 221 -35 347 -142 435l82 48l-16 26l-92 -55c-38 26 -85 48 -141 70l-24 -31c51 -19 94 -38 128 -61l-95 -56l16 -25l106 63c68 -50 107 -124 123 -227c-32 67 -93 102 -179 102c-152 0 -225 -105 -225 -289c0 -181 72 -289 229 -289c159 0 230 108 230 289z
M470 282c0 -163 -57 -253 -189 -253s-189 90 -189 253c0 162 57 254 189 254s189 -92 189 -254z" />
    <glyph glyph-name="_760" unicode="&#x127;" horiz-adv-x="587" 
d="M117 6v281c4 159 86 249 198 249c103 0 158 -66 158 -197v-333h41v339c0 143 -68 226 -192 226c-103 0 -176 -56 -205 -151v236h189v34h-189v90h-40v-90h-66v-34h66v-650h40z" />
    <glyph glyph-name="_761" unicode="&#x131;" horiz-adv-x="202" 
d="M122 6v553h-41v-553h41z" />
    <glyph glyph-name="_762" unicode="&#x133;" horiz-adv-x="408" 
d="M122 6v553h-41v-553h41zM122 686v94h-41v-94h41zM328 559h-41v-666c0 -67 -31 -93 -86 -93h-25v-33c7 -1 18 -1 28 -1c79 0 124 35 124 126v667zM328 686v94h-41v-94h41z" />
    <glyph glyph-name="_763" unicode="&#x138;" horiz-adv-x="486" 
d="M116 6v271h79l235 -271h49l-248 288l223 265h-48l-210 -247h-80v247h-41v-553h41z" />
    <glyph glyph-name="_764" unicode="&#x140;" horiz-adv-x="264" 
d="M122 6v774h-41v-774h41zM253 452h-56v-58h56v58z" />
    <glyph glyph-name="_765" unicode="&#x142;" horiz-adv-x="271" 
d="M156 6v380l93 48v36l-93 -49v359h-41v-382l-94 -47v-36l94 48v-357h41z" />
    <glyph glyph-name="_766" unicode="&#xf8;" horiz-adv-x="564" 
d="M121 -36l34 62c34 -22 75 -33 126 -33c158 0 230 108 230 289c0 106 -25 187 -77 236l46 83h-38l-36 -63c-33 22 -74 33 -125 33c-157 0 -229 -108 -229 -289c0 -106 24 -187 77 -236l-47 -82h39zM93 282c0 162 56 254 188 254c44 0 80 -10 107 -30l-240 -424
c-38 42 -55 109 -55 200zM470 282c0 -163 -56 -253 -189 -253c-44 0 -80 10 -108 29l241 425c39 -43 56 -112 56 -201z" />
    <glyph glyph-name="_767" unicode="&#x153;" horiz-adv-x="987" 
d="M703 29c-129 0 -190 88 -190 244h418c1 3 1 6 1 9c0 181 -73 289 -230 289c-113 0 -185 -60 -210 -161c-25 102 -98 161 -210 161c-156 0 -228 -108 -228 -289s72 -289 228 -289c112 0 186 60 210 160c26 -100 97 -160 210 -160c124 0 199 67 218 171h-42
c-18 -85 -77 -135 -175 -135zM702 536c126 0 183 -84 188 -230h-377c4 146 62 230 189 230zM472 282c0 -163 -57 -253 -189 -253s-189 90 -189 253c0 162 57 254 189 254s189 -92 189 -254z" />
    <glyph glyph-name="_768" unicode="&#xdf;" horiz-adv-x="624" 
d="M587 200c0 124 -97 185 -188 196c90 16 149 86 149 176c0 126 -90 221 -237 221s-236 -94 -236 -223v-564h42v564c0 111 76 186 194 186c119 0 194 -76 194 -184c0 -77 -45 -157 -189 -157h-30v-38h27c143 0 232 -66 232 -176c0 -108 -71 -171 -189 -171
c-30 0 -67 4 -94 12v-38c28 -8 64 -11 95 -11c143 0 230 81 230 207z" />
    <glyph glyph-name="_769" unicode="&#xfe;" horiz-adv-x="586" 
d="M534 282c0 184 -74 289 -226 289c-100 0 -166 -47 -193 -130v339h-41v-1014h41v357c27 -82 93 -130 193 -130c152 0 226 105 226 289zM493 282c0 -163 -57 -253 -189 -253s-189 90 -189 253c0 162 57 254 189 254s189 -92 189 -254z" />
    <glyph glyph-name="_770" unicode="&#x167;" horiz-adv-x="368" 
d="M49 319v-34h63v-136c0 -114 52 -151 161 -151c18 0 37 0 57 2v34h-53c-80 0 -124 23 -124 117v134h151v34h-151v204h177v35h-177v157h-41v-157h-84v-35h84v-204h-63z" />
    <glyph glyph-name="_771" unicode="&#x14b;" horiz-adv-x="584" 
d="M115 6v281c4 159 86 249 198 249c103 0 158 -66 158 -197v-406c0 -106 -25 -132 -86 -132h-26v-33c8 -2 19 -2 29 -2c86 0 124 37 124 172v407c0 143 -69 226 -192 226c-103 0 -176 -56 -205 -151v138h-41v-552h41z" />
    <glyph glyph-name="_772" unicode="&#x149;" horiz-adv-x="592" 
d="M122 6v281c3 159 86 249 198 249c103 0 158 -66 158 -197v-333h41v339c0 143 -69 226 -192 226c-104 0 -176 -56 -205 -151v138h-41v-552h41zM45 679h12c0 -54 -14 -79 -47 -90v-33c52 16 80 46 80 122v102h-45v-101z" />
    <glyph glyph-name="_773" unicode="&#x3200;" 
d="M47 396c0 -150 56 -294 141 -414h33c-82 122 -137 267 -137 414s55 292 137 414h-33c-85 -120 -141 -264 -141 -414zM913 396c0 150 -56 294 -141 414h-33c82 -122 137 -267 137 -414s-55 -292 -137 -414h33c85 120 141 264 141 414zM254 575v-35h401v-326h40v361h-441z
" />
    <glyph glyph-name="_774" unicode="&#x3201;" 
d="M703 214v36h-402v325h-40v-361h442zM47 396c0 -150 56 -294 141 -414h33c-82 122 -137 267 -137 414s55 292 137 414h-33c-85 -120 -141 -264 -141 -414zM913 396c0 150 -56 294 -141 414h-33c82 -122 137 -267 137 -414s-55 -292 -137 -414h33c85 120 141 264 141 414z
" />
    <glyph glyph-name="_775" unicode="&#x3202;" 
d="M301 250v290h394v35h-434v-361h442v36h-402zM47 396c0 -150 56 -294 141 -414h33c-82 122 -137 267 -137 414s55 292 137 414h-33c-85 -120 -141 -264 -141 -414zM913 396c0 150 -56 294 -141 414h-33c82 -122 137 -267 137 -414s-55 -292 -137 -414h33
c85 120 141 264 141 414z" />
    <glyph glyph-name="_776" unicode="&#x3203;" 
d="M305 242v136h386v205h-426v-36h386v-134h-386v-207h442v36h-402zM47 396c0 -150 56 -294 141 -414h33c-82 122 -137 267 -137 414s55 292 137 414h-33c-85 -120 -141 -264 -141 -414zM913 396c0 150 -56 294 -141 414h-33c82 -122 137 -267 137 -414s-55 -292 -137 -414
h33c85 120 141 264 141 414z" />
    <glyph glyph-name="_777" unicode="&#x3204;" 
d="M261 575v-361h434v361h-434zM655 540v-290h-354v290h354zM47 396c0 -150 56 -294 141 -414h33c-82 122 -137 267 -137 414s55 292 137 414h-33c-85 -120 -141 -264 -141 -414zM913 396c0 150 -56 294 -141 414h-33c82 -122 137 -267 137 -414s-55 -292 -137 -414h33
c85 120 141 264 141 414z" />
    <glyph glyph-name="_778" unicode="&#x3205;" 
d="M301 430v145h-40v-361h434v361h-40v-145h-354zM655 395v-145h-354v145h354zM47 396c0 -150 56 -294 141 -414h33c-82 122 -137 267 -137 414s55 292 137 414h-33c-85 -120 -141 -264 -141 -414zM913 396c0 150 -56 294 -141 414h-33c82 -122 137 -267 137 -414
s-55 -292 -137 -414h33c85 120 141 264 141 414z" />
    <glyph glyph-name="_779" unicode="&#x3206;" 
d="M725 220v38c-124 30 -226 114 -226 248v91h-40v-91c0 -134 -97 -219 -225 -249v-37c133 31 211 101 245 183c34 -83 120 -151 246 -183zM47 396c0 -150 56 -294 141 -414h33c-82 122 -137 267 -137 414s55 292 137 414h-33c-85 -120 -141 -264 -141 -414zM913 396
c0 150 -56 294 -141 414h-33c82 -122 137 -267 137 -414s-55 -292 -137 -414h33c85 120 141 264 141 414z" />
    <glyph glyph-name="_780" unicode="&#x3207;" 
d="M286 395c0 44 18 81 48 108c34 31 85 48 145 48s111 -17 145 -48c30 -27 47 -64 47 -108c0 -46 -17 -83 -47 -109c-33 -30 -85 -48 -145 -48s-112 18 -145 48c-30 26 -48 63 -48 109zM247 395c0 -57 24 -104 63 -138c41 -34 101 -54 169 -54s128 20 169 54
c39 34 63 81 63 138c0 56 -24 103 -63 137c-41 34 -101 54 -169 54s-128 -20 -169 -54c-39 -34 -63 -81 -63 -137zM47 396c0 -150 56 -294 141 -414h33c-82 122 -137 267 -137 414s55 292 137 414h-33c-85 -120 -141 -264 -141 -414zM913 396c0 150 -56 294 -141 414h-33
c82 -122 137 -267 137 -414s-55 -292 -137 -414h33c85 120 141 264 141 414z" />
    <glyph glyph-name="_781" unicode="&#x3208;" 
d="M221 -18c-82 122 -138 266 -138 414c0 147 56 292 138 414h-34c-85 -120 -141 -265 -141 -414c0 -150 56 -294 141 -414h34zM772 -18c85 120 141 264 141 414c0 149 -56 294 -141 414h-34c82 -122 138 -267 138 -414c0 -148 -56 -292 -138 -414h34zM715 244
c-117 31 -217 113 -217 238v57h209v36h-457v-36h208v-57c0 -125 -94 -209 -217 -238v-38c124 29 204 97 237 180c35 -82 119 -151 237 -180v38z" />
    <glyph glyph-name="_782" unicode="&#x3209;" 
d="M250 482h208v-9c0 -120 -94 -205 -217 -233v-38c124 28 203 95 237 178c35 -82 119 -150 237 -178v38c-117 30 -217 113 -217 233v9h209v36h-209v110h-40v-110h-208v-36zM221 -18c-82 122 -138 266 -138 414c0 147 56 292 138 414h-34c-85 -120 -141 -265 -141 -414
c0 -150 56 -294 141 -414h34zM772 -18c85 120 141 264 141 414c0 149 -56 294 -141 414h-34c82 -122 138 -267 138 -414c0 -148 -56 -292 -138 -414h34z" />
    <glyph glyph-name="_783" unicode="&#x320a;" 
d="M261 575v-35h394v-138c-58 -9 -133 -12 -195 -12h-199v-35h199c64 0 138 4 195 13v-154h40v361h-434zM47 396c0 -150 56 -294 141 -414h33c-82 122 -137 267 -137 414s55 292 137 414h-33c-85 -120 -141 -264 -141 -414zM913 396c0 150 -56 294 -141 414h-33
c82 -122 137 -267 137 -414s-55 -292 -137 -414h33c85 120 141 264 141 414z" />
    </font>
</defs>
</svg>
