<?xml version="1.0" standalone="no"?>
<!DOCTYPE svg PUBLIC "-//W3C//DTD SVG 1.1//EN" "http://www.w3.org/Graphics/SVG/1.1/DTD/svg11.dtd" >
<svg xmlns="http://www.w3.org/2000/svg" xmlns:xlink="http://www.w3.org/1999/xlink" version="1.1">
<metadata>
Created by FontForge 20190801 at Mon Feb 12 01:07:35 2018
 By Jimmy Wärting
Copyright (c) 2018 by S-Core Co., Ltd.. All rights reserved.
</metadata>
<defs>
<font id="S-CoreDream-4Regular" horiz-adv-x="960" >
  <font-face 
    font-family="S-Core Dream 4 Regular"
    font-weight="200"
    font-stretch="normal"
    units-per-em="1000"
    panose-1="2 11 5 3 3 3 2 2 2 4"
    ascent="800"
    descent="-200"
    x-height="561"
    cap-height="785"
    bbox="-30 -265 1181 1024"
    underline-thickness="50"
    underline-position="-100"
    stemh="69"
    stemv="83"
    unicode-range="U+0020-FFE6"
  />
<missing-glyph horiz-adv-x="291" 
 />
    <glyph glyph-name=".notdef" horiz-adv-x="291" 
 />
    <glyph glyph-name="_1" unicode=" " horiz-adv-x="291" 
 />
    <glyph glyph-name="_2" unicode="!" horiz-adv-x="304" 
d="M194 648l-8 -424h-68l-9 424v137h85v-137zM196 109v-108h-88v108h88z" />
    <glyph glyph-name="_3" unicode="&#x22;" horiz-adv-x="409" 
d="M312 561h-76v224h76v-224zM173 561h-77v224h77v-224z" />
    <glyph glyph-name="_4" unicode="#" horiz-adv-x="726" 
d="M370 1l50 224h-186l-49 -224h-77l49 224h-121v67h134l45 202h-140v67h154l49 224h78l-49 -224h185l49 224h77l-49 -224h121v-67h-135l-45 -202h142v-67h-156l-48 -224h-78zM292 494l-45 -202h186l45 202h-186z" />
    <glyph glyph-name="_5" unicode="$" horiz-adv-x="629" 
d="M281 -96v86c-146 12 -227 103 -227 221v20h87v-22c0 -74 51 -131 140 -144v305l-32 7c-124 27 -195 93 -195 209c0 110 78 203 227 211v85h63v-87c137 -14 211 -103 211 -209v-15h-87v15c0 70 -45 121 -124 133v-282l33 -6c137 -29 207 -102 207 -220
c0 -122 -86 -213 -240 -222v-85h-63zM497 209c0 76 -49 129 -153 149v-293c97 9 153 66 153 144zM141 586c0 -81 47 -110 140 -136v271c-90 -8 -140 -61 -140 -135z" />
    <glyph glyph-name="_6" unicode="%" horiz-adv-x="877" 
d="M314 1h-72l321 784h72zM377 587c0 -141 -58 -212 -158 -212c-101 0 -159 71 -159 212s58 211 159 211c100 0 158 -70 158 -211zM305 587c0 112 -31 150 -86 150c-56 0 -87 -38 -87 -150c0 -113 31 -151 87 -151c55 0 86 38 86 151zM500 199c0 141 58 212 159 212
c100 0 158 -71 158 -212s-58 -211 -158 -211c-101 0 -159 70 -159 211zM572 199c0 -112 31 -150 87 -150c55 0 86 38 86 150c0 113 -31 151 -86 151c-56 0 -87 -38 -87 -151z" />
    <glyph glyph-name="_7" unicode="&#x26;" horiz-adv-x="712" 
d="M311 798c118 0 199 -67 199 -179v-24h-84v22c0 69 -44 108 -115 108c-70 0 -114 -39 -114 -108c0 -46 14 -80 68 -137l259 -276c23 53 34 116 37 186h85c-3 -96 -24 -182 -62 -250l132 -139h-105l-74 78c-53 -57 -129 -91 -229 -91c-156 0 -254 90 -254 225
c0 93 45 172 140 230c-59 59 -82 111 -82 174c0 114 82 181 199 181zM308 61c77 0 136 27 174 76l-241 255c-71 -48 -103 -106 -103 -178c0 -96 73 -153 170 -153z" />
    <glyph glyph-name="_8" unicode="'" horiz-adv-x="253" 
d="M165 561h-77v224h77v-224z" />
    <glyph glyph-name="_9" unicode="(" horiz-adv-x="348" 
d="M88 389c0 428 76 507 238 507v-72c-108 0 -155 -60 -155 -435c0 -377 47 -436 155 -436v-72c-162 0 -238 79 -238 508z" />
    <glyph glyph-name="_10" unicode=")" horiz-adv-x="348" 
d="M260 389c0 -429 -76 -508 -237 -508v72c108 0 154 59 154 436c0 375 -46 435 -154 435v72c161 0 237 -79 237 -507z" />
    <glyph glyph-name="_11" unicode="*" horiz-adv-x="537" 
d="M498 454l-169 -88l169 -89l-38 -66l-161 101l8 -190h-77l8 190l-162 -101l-38 66l168 89l-168 88l38 66l162 -102l-8 191h77l-8 -191l161 102z" />
    <glyph glyph-name="_12" unicode="+" horiz-adv-x="583" 
d="M55 332v68h198v210h77v-210h198v-68h-198v-210h-77v210h-198z" />
    <glyph glyph-name="_13" unicode="," horiz-adv-x="307" 
d="M97 -128v45c36 5 55 26 55 65v19h-46v119h95v-132c0 -73 -35 -108 -104 -116z" />
    <glyph glyph-name="_14" unicode="-" horiz-adv-x="439" 
d="M55 329v74h330v-74h-330z" />
    <glyph glyph-name="_15" unicode="." horiz-adv-x="307" 
d="M201 120v-119h-95v119h95z" />
    <glyph glyph-name="_16" unicode="/" horiz-adv-x="446" 
d="M448 878l-366 -981h-84l366 981h84z" />
    <glyph glyph-name="_17" unicode="0" horiz-adv-x="614" 
d="M560 393c0 -180 -24 -270 -76 -333c-40 -47 -100 -72 -177 -72s-137 25 -177 72c-52 63 -77 153 -77 333s25 270 77 333c40 47 100 72 177 72s137 -25 177 -72c52 -63 76 -153 76 -333zM476 393c0 157 -15 233 -50 278c-28 35 -67 54 -119 54c-51 0 -91 -19 -119 -54
c-35 -45 -50 -121 -50 -278s14 -234 50 -279c27 -35 68 -53 119 -53c52 0 92 18 119 53c35 45 50 122 50 279z" />
    <glyph glyph-name="_18" unicode="1" horiz-adv-x="614" 
d="M413 1h-85v695l-195 -87v83l207 93h73v-784z" />
    <glyph glyph-name="_19" unicode="2" horiz-adv-x="614" 
d="M542 567c0 -70 -18 -119 -77 -186l-271 -307h358v-73h-469v67l314 357c43 49 59 90 59 141c0 93 -57 159 -150 159c-95 0 -150 -67 -150 -159v-22h-85v23c0 126 83 231 235 231s236 -105 236 -231z" />
    <glyph glyph-name="_20" unicode="3" horiz-adv-x="614" 
d="M467 221c0 99 -62 160 -158 160h-79v73h81c86 0 133 60 133 135c0 81 -57 136 -139 136c-85 0 -139 -55 -139 -136v-11h-85v18c0 114 83 202 224 202c140 0 223 -88 223 -202c0 -88 -45 -155 -122 -178c87 -23 145 -91 145 -200c0 -142 -100 -230 -246 -230
c-145 0 -247 90 -247 235v10h84v-6c0 -106 69 -166 163 -166c93 0 162 59 162 160z" />
    <glyph glyph-name="_21" unicode="4" horiz-adv-x="614" 
d="M146 249h240v397zM568 249v-73h-97v-175h-85v175h-333v73l325 536h93v-536h97z" />
    <glyph glyph-name="_22" unicode="5" horiz-adv-x="614" 
d="M310 436c-59 0 -104 -30 -128 -83h-84l20 432h390v-73h-311l-13 -273c24 40 75 70 141 70c134 0 225 -90 225 -262c0 -164 -91 -259 -240 -259c-139 0 -227 83 -239 221h85c10 -98 67 -148 154 -148c99 0 156 66 156 188c0 121 -57 187 -156 187z" />
    <glyph glyph-name="_23" unicode="6" horiz-adv-x="614" 
d="M151 417c27 55 87 92 169 92c143 0 236 -99 236 -260c0 -162 -101 -261 -244 -261c-102 0 -176 45 -214 136c-23 54 -32 125 -32 216c0 177 18 292 61 363c41 68 104 95 187 95c123 0 207 -65 223 -192h-88c-10 79 -59 119 -137 119c-114 0 -156 -92 -161 -308zM151 249
c0 -119 64 -188 161 -188s160 69 160 188c0 117 -63 187 -160 187s-161 -70 -161 -187z" />
    <glyph glyph-name="_24" unicode="7" horiz-adv-x="614" 
d="M74 712v73h467v-66l-272 -718h-89l276 711h-382z" />
    <glyph glyph-name="_25" unicode="8" horiz-adv-x="614" 
d="M307 -12c-153 0 -258 86 -258 227c0 104 58 175 151 201c-79 25 -128 95 -128 179c0 118 89 203 235 203s234 -85 234 -203c0 -84 -48 -154 -127 -179c93 -26 151 -97 151 -201c0 -141 -105 -227 -258 -227zM457 588c0 83 -61 137 -150 137c-90 0 -150 -54 -150 -137
s60 -136 150 -136c89 0 150 53 150 136zM133 220c0 -100 72 -159 174 -159s174 59 174 159c0 99 -72 160 -174 160s-174 -61 -174 -160z" />
    <glyph glyph-name="_26" unicode="9" horiz-adv-x="614" 
d="M462 369c-27 -55 -87 -92 -169 -92c-142 0 -236 99 -236 260c0 162 101 261 245 261c101 0 175 -45 213 -136c23 -54 32 -125 32 -216c0 -177 -18 -292 -62 -363c-40 -68 -103 -95 -185 -95c-125 0 -209 65 -224 192h88c10 -79 60 -119 137 -119c114 0 156 92 161 308z
M462 537c0 119 -65 188 -160 188c-98 0 -161 -69 -161 -188c0 -118 63 -187 161 -187c95 0 160 69 160 187z" />
    <glyph glyph-name="_27" unicode=":" horiz-adv-x="307" 
d="M201 120v-119h-95v119h95zM201 561v-119h-95v119h95z" />
    <glyph glyph-name="_28" unicode=";" horiz-adv-x="307" 
d="M97 -128v45c36 5 55 26 55 65v19h-46v119h95v-132c0 -73 -35 -108 -104 -116zM201 561v-119h-95v119h95z" />
    <glyph glyph-name="_29" unicode="&#x3c;" horiz-adv-x="582" 
d="M519 612v-79l-368 -167l368 -168v-79l-456 213v68z" />
    <glyph glyph-name="_30" unicode="=" horiz-adv-x="583" 
d="M55 430v70h473v-70h-473zM55 232v69h473v-69h-473z" />
    <glyph glyph-name="_31" unicode="&#x3e;" horiz-adv-x="582" 
d="M63 198l368 168l-368 167v79l456 -212v-68l-456 -213v79z" />
    <glyph glyph-name="_32" unicode="?" horiz-adv-x="573" 
d="M507 580c0 -86 -27 -137 -99 -198c-73 -63 -88 -94 -88 -154v-24h-83v30c0 78 19 117 104 190c64 55 84 92 84 154c0 90 -56 147 -141 147c-87 0 -141 -61 -141 -148h-83v3c0 124 79 218 224 218c144 0 223 -94 223 -218zM322 109v-108h-87v108h87z" />
    <glyph glyph-name="_33" unicode="@" horiz-adv-x="825" 
d="M507 527c83 0 136 -32 159 -84c-16 210 -88 289 -254 289c-193 0 -260 -99 -260 -439c0 -366 87 -437 260 -437c47 0 99 12 135 33l24 -63c-46 -23 -102 -37 -159 -37c-221 0 -336 109 -336 504c0 368 94 505 336 505c241 0 335 -137 335 -505v-11
c0 -173 -81 -272 -227 -272c-148 0 -222 101 -222 259c0 165 79 258 209 258zM524 80c99 0 148 62 148 189c0 124 -49 189 -148 189c-98 0 -148 -65 -148 -189c0 -127 50 -189 148 -189z" />
    <glyph glyph-name="_34" unicode="A" horiz-adv-x="671" 
d="M285 785h100l274 -784h-90l-63 186h-342l-63 -186h-91zM479 263l-144 432l-146 -432h290z" />
    <glyph glyph-name="_35" unicode="B" horiz-adv-x="660" 
d="M164 442h180c111 0 165 42 165 133c0 92 -54 134 -165 134h-180v-267zM376 1h-299v784h286c154 0 232 -73 232 -204c0 -95 -49 -157 -124 -174c95 -17 147 -88 147 -190c0 -144 -81 -216 -242 -216zM531 221c0 97 -49 145 -175 145h-192v-290h192c126 0 175 49 175 145z
" />
    <glyph glyph-name="_36" unicode="C" horiz-adv-x="693" 
d="M352 -12c-232 0 -298 179 -298 405c0 224 67 405 298 405c178 0 280 -108 290 -271h-86c-9 120 -78 195 -204 195c-165 0 -211 -128 -211 -329c0 -208 52 -329 211 -329c126 0 195 74 204 194h86c-10 -163 -112 -270 -290 -270z" />
    <glyph glyph-name="_37" unicode="D" horiz-adv-x="699" 
d="M557 393c0 203 -52 316 -214 316h-180v-632h180c163 0 214 112 214 316zM350 1h-274v784h274c240 0 294 -186 294 -392c0 -207 -53 -392 -294 -392z" />
    <glyph glyph-name="_38" unicode="E" horiz-adv-x="579" 
d="M77 1v784h452v-76h-365v-268h325v-77h-325v-288h371v-75h-458z" />
    <glyph glyph-name="_39" unicode="F" horiz-adv-x="557" 
d="M77 1v784h447v-76h-360v-280h325v-76h-325v-352h-87z" />
    <glyph glyph-name="_40" unicode="G" horiz-adv-x="713" 
d="M54 393c0 224 67 405 298 405c178 0 280 -108 290 -271h-86c-9 120 -78 195 -204 195c-162 0 -211 -126 -211 -329c0 -224 59 -329 211 -329c126 0 206 83 206 222v40h-200v76h285v-401h-64l-15 104c-30 -67 -106 -117 -216 -117c-233 0 -294 189 -294 405z" />
    <glyph glyph-name="_41" unicode="H" horiz-adv-x="686" 
d="M522 1v363h-358v-363h-87v784h87v-344h358v344h87v-784h-87z" />
    <glyph glyph-name="_42" unicode="I" horiz-adv-x="241" 
d="M164 785v-784h-87v784h87z" />
    <glyph glyph-name="_43" unicode="J" horiz-adv-x="575" 
d="M264 63c96 0 152 61 152 188v534h87v-544c0 -161 -87 -253 -240 -253c-154 0 -238 92 -238 253v5h86c2 -123 54 -183 153 -183z" />
    <glyph glyph-name="_44" unicode="K" horiz-adv-x="630" 
d="M598 785l-271 -383l306 -401h-101l-274 363h-94v-363h-87v784h87v-344h94l242 344h98z" />
    <glyph glyph-name="_45" unicode="L" horiz-adv-x="551" 
d="M77 1v784h87v-709h371v-75h-458z" />
    <glyph glyph-name="_46" unicode="M" horiz-adv-x="921" 
d="M507 1h-93l-250 600v-600h-87v784h97l286 -686l287 686h97v-784h-87v600z" />
    <glyph glyph-name="_47" unicode="N" horiz-adv-x="697" 
d="M620 1h-87l-369 626v-626h-87v784h87l369 -626v626h87v-784z" />
    <glyph glyph-name="_48" unicode="O" horiz-adv-x="706" 
d="M651 393c0 -227 -66 -405 -299 -405c-231 0 -298 179 -298 405c0 223 66 405 298 405c235 0 299 -181 299 -405zM565 393c0 201 -49 329 -213 329c-163 0 -211 -127 -211 -329c0 -203 47 -329 211 -329c165 0 213 127 213 329z" />
    <glyph glyph-name="_49" unicode="P" horiz-adv-x="650" 
d="M164 377h199c111 0 168 63 168 166c0 104 -57 166 -168 166h-199v-332zM372 301h-208v-300h-87v784h295c159 0 246 -92 246 -242s-87 -242 -246 -242z" />
    <glyph glyph-name="_50" unicode="Q" horiz-adv-x="708" 
d="M651 393c0 -111 -15 -210 -59 -283l98 -83l-48 -54l-96 82c-46 -43 -110 -67 -194 -67c-231 0 -298 178 -298 405c0 225 67 405 298 405c234 0 299 -181 299 -405zM565 393c0 203 -48 329 -213 329c-162 0 -211 -124 -211 -329c0 -204 47 -329 211 -329
c56 0 100 15 132 43l-117 100l49 54l111 -96c28 57 38 132 38 228z" />
    <glyph glyph-name="_51" unicode="R" horiz-adv-x="673" 
d="M623 1h-88c-6 19 -10 41 -12 71c-11 171 -8 238 -171 238h-189v-309h-87v784h297c164 0 245 -87 245 -233c0 -105 -46 -178 -143 -203c82 -15 119 -63 127 -166c5 -66 8 -140 21 -182zM163 386h199c108 0 168 53 168 161c0 109 -60 162 -168 162h-199v-323z" />
    <glyph glyph-name="_52" unicode="S" horiz-adv-x="629" 
d="M584 211c0 -127 -95 -223 -264 -223c-170 0 -265 96 -265 223v21h86v-22c0 -85 66 -147 179 -147c111 0 178 62 178 147c0 73 -46 126 -148 147l-101 21c-122 25 -194 92 -194 208s86 212 250 212c163 0 250 -96 250 -212v-15h-87v15c0 81 -58 136 -163 136
s-164 -55 -164 -136c0 -74 46 -115 135 -134l101 -21c137 -29 207 -102 207 -220z" />
    <glyph glyph-name="_53" unicode="T" horiz-adv-x="579" 
d="M17 709v76h545v-76h-229v-708h-87v708h-229z" />
    <glyph glyph-name="_54" unicode="U" horiz-adv-x="708" 
d="M355 -12c-195 0 -283 121 -283 303v494h86v-483c0 -153 57 -239 197 -239c139 0 195 86 195 239v483h87v-494c0 -182 -87 -303 -282 -303z" />
    <glyph glyph-name="_55" unicode="V" horiz-adv-x="671" 
d="M385 1h-100l-275 784h91l234 -676l234 676h90z" />
    <glyph glyph-name="_56" unicode="W" horiz-adv-x="1043" 
d="M809 1h-104l-184 641l-185 -641h-104l-216 784h90l182 -663l190 663h86l190 -663l182 663h90z" />
    <glyph glyph-name="_57" unicode="X" horiz-adv-x="658" 
d="M544 1l-215 339l-215 -339h-96l257 402l-241 382h94l201 -319l202 319h94l-243 -382l257 -402h-95z" />
    <glyph glyph-name="_58" unicode="Y" horiz-adv-x="660" 
d="M329 394l222 391h92l-270 -475v-309h-87v309l-269 475h92z" />
    <glyph glyph-name="_59" unicode="Z" horiz-adv-x="588" 
d="M44 70l390 639h-379v76h483v-69l-390 -640h395v-75h-499v69z" />
    <glyph glyph-name="_60" unicode="[" horiz-adv-x="362" 
d="M88 -103v981h230v-72h-147v-837h147v-72h-230z" />
    <glyph glyph-name="_61" unicode="\" 
d="M738 1l89 374h113v51h-101l86 359h-90l-82 -359h-143l-87 359h-86l-87 -359h-143l-82 359h-90l85 -359h-100v-51h112l89 -374h104l90 374h129l90 -374h104zM532 426h-104l52 216zM219 375h119l-61 -253zM622 375h119l-58 -253z" />
    <glyph glyph-name="_62" unicode="]" horiz-adv-x="362" 
d="M274 878v-981h-230v72h147v837h-147v72h230z" />
    <glyph glyph-name="_63" unicode="^" horiz-adv-x="465" 
d="M195 785h74l173 -260h-84l-126 191l-127 -191h-83z" />
    <glyph glyph-name="_64" unicode="_" horiz-adv-x="560" 
d="M0 -179v54h560v-54h-560z" />
    <glyph glyph-name="_65" unicode="`" horiz-adv-x="377" 
d="M216 638l-131 181h94l114 -181h-77z" />
    <glyph glyph-name="_66" unicode="a" horiz-adv-x="573" 
d="M429 60c-23 -46 -82 -72 -171 -72c-133 0 -216 66 -216 178c0 111 83 178 216 178c87 0 147 -26 171 -72v95c0 84 -48 138 -142 138c-88 0 -131 -42 -138 -106h-85c9 106 84 175 223 175c149 0 224 -81 224 -208v-288c0 -27 6 -57 13 -77h-84c-7 16 -11 36 -11 59z
M429 166c0 67 -51 109 -152 109s-152 -42 -152 -109c0 -68 51 -109 152 -109s152 41 152 109z" />
    <glyph glyph-name="_67" unicode="b" horiz-adv-x="594" 
d="M149 785v-312c24 61 82 101 171 101c146 0 228 -98 228 -293c0 -196 -82 -293 -228 -293c-89 0 -147 40 -171 101v-88h-83v784h83zM149 281c0 -140 43 -224 159 -224c114 0 158 84 158 224c0 139 -44 224 -158 224c-116 0 -159 -85 -159 -224z" />
    <glyph glyph-name="_68" unicode="c" horiz-adv-x="563" 
d="M46 281c0 185 78 293 241 293c136 0 218 -70 233 -193h-84c-10 77 -61 124 -149 124c-116 0 -158 -85 -158 -224c0 -140 42 -224 158 -224c88 0 139 47 149 124h84c-15 -123 -97 -193 -233 -193c-163 0 -241 108 -241 293z" />
    <glyph glyph-name="_69" unicode="d" horiz-adv-x="594" 
d="M446 473v312h83v-784h-83v88c-24 -61 -83 -101 -171 -101c-146 0 -229 97 -229 293c0 195 83 293 229 293c88 0 147 -40 171 -101zM446 281c0 139 -43 224 -159 224s-158 -85 -158 -224c0 -140 42 -224 158 -224s159 84 159 224z" />
    <glyph glyph-name="_70" unicode="e" horiz-adv-x="574" 
d="M431 166h85c-20 -111 -98 -178 -227 -178c-165 0 -243 107 -243 293c0 185 78 293 241 293s241 -108 241 -293v-24h-400c3 -127 51 -200 161 -200c78 0 131 45 142 109zM129 320h315c-6 116 -53 185 -157 185s-152 -69 -158 -185z" />
    <glyph glyph-name="_71" unicode="f" horiz-adv-x="373" 
d="M352 724h-53c-78 0 -100 -24 -100 -97v-66h153v-69h-153v-491h-83v491h-83v69h83v71c0 120 48 161 174 161c20 0 40 -1 62 -4v-65z" />
    <glyph glyph-name="_72" unicode="g" horiz-adv-x="594" 
d="M445 -32v120c-24 -60 -82 -100 -170 -100c-147 0 -229 98 -229 293s82 293 229 293c88 0 146 -40 170 -101v88h83v-587c0 -133 -71 -233 -229 -233c-130 0 -210 66 -223 168h84c10 -62 61 -99 139 -99c95 0 146 58 146 158zM445 281c0 139 -43 224 -158 224
c-116 0 -159 -85 -159 -224c0 -140 43 -224 159 -224c115 0 158 84 158 224z" />
    <glyph glyph-name="_73" unicode="h" horiz-adv-x="590" 
d="M526 349v-348h-82v328c0 125 -46 176 -134 176c-92 0 -161 -78 -161 -216v-288h-83v784h83v-323c27 67 85 112 181 112c127 0 196 -83 196 -225z" />
    <glyph glyph-name="_74" unicode="i" horiz-adv-x="226" 
d="M155 1h-83v560h83v-560zM155 676h-83v109h83v-109z" />
    <glyph glyph-name="_75" unicode="j" horiz-adv-x="236" 
d="M165 561v-641c0 -108 -48 -163 -157 -163c-11 0 -29 1 -38 2v68h32c52 0 80 24 80 85v649h83zM165 676h-83v109h83v-109z" />
    <glyph glyph-name="_76" unicode="k" horiz-adv-x="516" 
d="M149 1h-83v784h83v-457h64l177 233h95l-202 -268l228 -292h-98l-201 258h-63v-258z" />
    <glyph glyph-name="_77" unicode="l" horiz-adv-x="226" 
d="M155 1h-83v784h83v-784z" />
    <glyph glyph-name="_78" unicode="m" horiz-adv-x="918" 
d="M501 289v-288h-82v366c0 92 -44 138 -122 138c-84 0 -148 -74 -148 -215v-289h-83v560h83v-97c25 69 82 110 166 110s147 -41 171 -119c29 73 87 119 182 119c120 0 186 -75 186 -209v-364h-83v366c0 92 -43 138 -121 138c-84 0 -149 -75 -149 -216z" />
    <glyph glyph-name="_79" unicode="n" horiz-adv-x="590" 
d="M526 349v-348h-82v328c0 125 -46 176 -134 176c-92 0 -161 -78 -161 -216v-288h-83v560h83v-99c27 67 85 112 181 112c127 0 196 -83 196 -225z" />
    <glyph glyph-name="_80" unicode="o" horiz-adv-x="574" 
d="M529 281c0 -185 -79 -293 -242 -293s-241 108 -241 293s78 293 241 293s242 -108 242 -293zM446 281c0 139 -43 224 -159 224s-158 -85 -158 -224c0 -140 42 -224 158 -224s159 84 159 224z" />
    <glyph glyph-name="_81" unicode="p" horiz-adv-x="594" 
d="M148 88v-331h-82v804h82v-88c25 61 83 101 171 101c146 0 229 -98 229 -293s-83 -293 -229 -293c-88 0 -146 40 -171 100zM148 281c0 -140 43 -224 159 -224c115 0 158 84 158 224c0 139 -43 224 -158 224c-116 0 -159 -85 -159 -224z" />
    <glyph glyph-name="_82" unicode="q" horiz-adv-x="594" 
d="M445 -243v331c-24 -60 -82 -100 -170 -100c-147 0 -229 98 -229 293s82 293 229 293c88 0 146 -40 170 -101v88h83v-804h-83zM445 281c0 139 -43 224 -158 224c-116 0 -159 -85 -159 -224c0 -140 43 -224 159 -224c115 0 158 84 158 224z" />
    <glyph glyph-name="_83" unicode="r" horiz-adv-x="371" 
d="M308 504c-95 0 -159 -72 -159 -218v-285h-83v560h83v-99c22 71 73 112 162 112c16 0 33 -1 42 -4l-1 -68c-9 1 -26 2 -44 2z" />
    <glyph glyph-name="_84" unicode="s" horiz-adv-x="518" 
d="M252 574c129 0 204 -67 204 -159v-14h-83v15c0 50 -43 90 -121 90c-77 0 -120 -40 -120 -89c0 -47 31 -71 109 -87l68 -14c117 -24 168 -69 168 -164s-84 -164 -216 -164c-129 0 -215 67 -215 164v19h83v-19c0 -59 54 -96 132 -96c79 0 133 39 133 95
c0 53 -31 79 -105 94l-69 14c-120 24 -171 71 -171 156c0 90 72 159 203 159z" />
    <glyph glyph-name="_85" unicode="t" horiz-adv-x="391" 
d="M192 492v-330c0 -81 33 -100 108 -100h55v-67c-21 -2 -47 -2 -68 -2c-123 0 -178 37 -178 156v343h-83v69h83v159h83v-159h163v-69h-163z" />
    <glyph glyph-name="_86" unicode="u" horiz-adv-x="590" 
d="M64 213v348h83v-328c0 -125 45 -176 133 -176c92 0 162 78 162 216v288h82v-560h-82v99c-28 -67 -86 -112 -182 -112c-127 0 -196 83 -196 225z" />
    <glyph glyph-name="_87" unicode="v" horiz-adv-x="560" 
d="M328 1h-96l-214 560h88l174 -465l174 465h88z" />
    <glyph glyph-name="_88" unicode="w" horiz-adv-x="886" 
d="M399 561h88l148 -458l147 458h87l-188 -560h-90l-149 458l-147 -458h-91l-187 560h86l147 -458z" />
    <glyph glyph-name="_89" unicode="x" horiz-adv-x="518" 
d="M417 1l-158 228l-159 -228h-91l200 287l-189 273h92l147 -215l147 215h92l-188 -273l199 -287h-92z" />
    <glyph glyph-name="_90" unicode="y" horiz-adv-x="561" 
d="M198 -107l41 107l-221 561h88l176 -457l173 457h88l-270 -693c-36 -92 -80 -111 -156 -111c-13 0 -25 0 -35 1v68h28c41 0 67 12 88 67z" />
    <glyph glyph-name="_91" unicode="z" horiz-adv-x="494" 
d="M446 561v-63l-304 -428h312v-69h-414v63l303 428h-294v69h397z" />
    <glyph glyph-name="_92" unicode="{" horiz-adv-x="377" 
d="M44 352v71h22c46 0 68 30 68 77v204c0 123 57 174 168 174h31v-72h-23c-67 0 -93 -34 -93 -112v-203c0 -53 -24 -91 -70 -104c46 -12 70 -50 70 -104v-203c0 -77 26 -111 93 -111h23v-72h-31c-111 0 -168 50 -168 174v204c0 47 -22 77 -68 77h-22z" />
    <glyph glyph-name="_93" unicode="|" horiz-adv-x="301" 
d="M109 -103v981h83v-981h-83z" />
    <glyph glyph-name="_94" unicode="}" horiz-adv-x="377" 
d="M333 423v-71h-22c-46 0 -68 -30 -68 -77v-204c0 -124 -57 -174 -168 -174h-31v72h22c68 0 94 34 94 111v203c0 54 24 92 70 104c-46 13 -70 51 -70 104v203c0 78 -26 112 -94 112h-22v72h31c111 0 168 -51 168 -174v-204c0 -47 22 -77 68 -77h22z" />
    <glyph glyph-name="_95" unicode="~" horiz-adv-x="581" 
d="M384 281c-108 0 -121 102 -183 102c-37 0 -56 -30 -58 -95h-78c1 100 45 164 132 164c108 0 121 -101 183 -101c37 0 56 29 58 95h78c-1 -101 -45 -165 -132 -165z" />
    <glyph glyph-name="_101" unicode="&#x3000;" 
 />
    <glyph glyph-name="_101" unicode="&#x3164;" 
 />
    <glyph glyph-name="_106" unicode="&#x2026;" 
d="M527 485h-95v-119h95v119zM237 485h-95v-119h95v119zM817 485h-95v-119h95v119z" />
    <glyph glyph-name="_107" unicode="&#xa8;" horiz-adv-x="600" 
d="M237 785h-95v-119h95v119zM457 785h-95v-119h95v119z" />
    <glyph glyph-name="_108" unicode="&#x3003;" 
d="M379 661l-169 -472l56 -23l198 459zM664 660l-169 -472l56 -23l198 459z" />
    <glyph glyph-name="_112" unicode="&#xff3c;" 
d="M928 23l-842 804l-54 -57l844 -805z" />
    <glyph glyph-name="_114" unicode="&#x2018;" horiz-adv-x="293" 
d="M204 870c-71 -9 -106 -43 -106 -116v-132h95v119h-45v18c0 40 19 60 56 66v45z" />
    <glyph glyph-name="_115" unicode="&#x2019;" horiz-adv-x="293" 
d="M90 622c69 8 104 43 104 117v131h-95v-119h46v-19c0 -40 -19 -60 -55 -65v-45z" />
    <glyph glyph-name="_116" unicode="&#x201c;" horiz-adv-x="451" 
d="M362 870c-70 -9 -106 -43 -106 -116v-132h96v119h-46v18c0 40 20 60 56 66v45zM204 870c-71 -9 -106 -43 -106 -116v-132h95v119h-45v18c0 40 19 60 56 66v45z" />
    <glyph glyph-name="_117" unicode="&#x201d;" horiz-adv-x="451" 
d="M248 622c69 8 105 43 105 117v131h-96v-119h46v-19c0 -40 -19 -60 -55 -65v-45zM90 622c69 8 104 43 104 117v131h-95v-119h46v-19c0 -40 -19 -60 -55 -65v-45z" />
    <glyph glyph-name="_130" unicode="&#xb1;" horiz-adv-x="583" 
d="M55 415h198v-207h77v207h198v69h-198v208h-77v-208h-198v-69zM55 51h473v69h-473v-69z" />
    <glyph glyph-name="_131" unicode="&#xd7;" horiz-adv-x="583" 
d="M453 150l51 50l-162 166l162 165l-51 50l-162 -165l-162 165l-51 -50l163 -165l-163 -166l51 -50l162 165z" />
    <glyph glyph-name="_132" unicode="&#xf7;" horiz-adv-x="583" 
d="M55 332h473v68h-473v-68zM335 610h-88v-115h88v115zM335 236h-88v-114h88v114z" />
    <glyph glyph-name="_133" unicode="&#x2260;" horiz-adv-x="583" 
d="M55 430h239l-73 -129h-166v-69h126l-82 -145h68l82 145h279v69h-240l73 129h167v70h-127l82 145h-67l-83 -145h-278v-70z" />
    <glyph glyph-name="_134" unicode="&#x2264;" horiz-adv-x="583" 
d="M54 51h474v70h-474v-70zM519 696l-456 -213v-69l456 -212v79l-368 168l368 167v80z" />
    <glyph glyph-name="_135" unicode="&#x2265;" horiz-adv-x="583" 
d="M528 121h-474v-70h474v70zM63 281v-79l456 212v69l-456 213v-80l368 -167z" />
    <glyph glyph-name="_136" unicode="&#x221e;" 
d="M848 372c0 104 -71 169 -179 169c-73 0 -143 -39 -190 -124c-47 85 -117 124 -189 124c-109 0 -179 -65 -179 -169s70 -169 179 -169c72 0 142 39 189 123c47 -84 117 -123 190 -123c108 0 179 65 179 169zM523 372c41 78 91 105 144 105c57 0 107 -37 107 -105
c0 -69 -50 -105 -107 -105c-53 0 -103 26 -144 105zM185 372c0 68 50 105 107 105c53 0 102 -27 144 -105c-42 -79 -91 -105 -144 -105c-57 0 -107 36 -107 105z" />
    <glyph glyph-name="_137" unicode="&#x2234;" 
d="M527 695h-95v-119h95v119zM782 225h-95v-119h95v119zM272 225h-95v-119h95v119z" />
    <glyph glyph-name="_138" unicode="&#xb0;" horiz-adv-x="400" 
d="M349 643c0 87 -56 151 -149 151s-149 -64 -149 -151c0 -88 56 -151 149 -151s149 63 149 151zM287 643c0 -57 -36 -93 -87 -93c-49 0 -86 36 -86 93c0 56 37 92 86 92c51 0 87 -36 87 -92z" />
    <glyph glyph-name="_139" unicode="&#x2032;" horiz-adv-x="199" 
d="M98 536l72 249h-83l-57 -249h68z" />
    <glyph glyph-name="_140" unicode="&#x2033;" horiz-adv-x="347" 
d="M98 536l72 249h-83l-57 -249h68zM246 536l71 249h-83l-57 -249h69z" />
    <glyph glyph-name="_141" unicode="&#x2103;" 
d="M332 653c0 81 -57 141 -144 141s-144 -60 -144 -141c0 -82 57 -141 144 -141s144 59 144 141zM270 653c0 -52 -34 -83 -82 -83c-46 0 -81 31 -81 83c0 51 35 82 81 82c48 0 82 -31 82 -82zM642 -12c168 0 271 108 280 270h-86c-9 -118 -73 -194 -194 -194
c-149 0 -201 126 -201 329c0 196 46 329 201 329c121 0 185 -77 194 -195h86c-9 161 -112 271 -280 271c-221 0 -288 -181 -288 -405c0 -226 66 -405 288 -405z" />
    <glyph glyph-name="_142" unicode="&#x212b;" 
d="M546 740c49 21 78 66 78 123c0 79 -57 136 -144 136s-144 -57 -144 -136c0 -57 29 -102 78 -123l-259 -739h91l63 186h342l63 -186h90zM624 263h-290l146 432zM562 863c0 -49 -34 -78 -82 -78c-46 0 -81 29 -81 78c0 48 35 77 81 77c48 0 82 -29 82 -77z" />
    <glyph glyph-name="_143" unicode="&#xffe0;" 
d="M451 -99h66v88c116 11 186 79 200 192h-84c-9 -68 -49 -111 -116 -122v443c67 -10 107 -55 116 -121h84c-14 113 -84 181 -200 192v88h-66v-88c-140 -14 -208 -120 -208 -292s68 -278 208 -292v-88zM326 281c0 125 34 206 125 221v-442c-91 15 -125 95 -125 221z" />
    <glyph glyph-name="_144" unicode="&#xffe1;" 
d="M240 392v-65h70c2 -16 4 -33 4 -51c0 -82 -24 -153 -71 -206v-69h476v75h-391c46 52 69 115 69 200c0 18 -3 35 -5 51h201v65h-212c-13 54 -30 106 -30 180c0 90 44 150 137 150c91 0 136 -61 136 -150v-16h86v17c0 124 -73 225 -222 225c-150 0 -223 -101 -223 -225
c0 -74 17 -127 32 -181h-57z" />
    <glyph glyph-name="_145" unicode="&#xffe5;" 
d="M266 404v-52h166l4 -8v-59h-170v-52h170v-232h87v232h170v52h-170v60l4 7h166v52h-135l235 381h-93l-221 -364l-220 364h-92l233 -381h-134z" />
    <glyph glyph-name="_146" unicode="&#x2642;" 
d="M209 507l57 -39l178 249v-309c-117 -17 -205 -117 -205 -239c0 -132 108 -240 241 -240c132 0 241 108 241 240c0 122 -88 222 -205 239v309l178 -249l57 39l-271 369zM311 169c0 94 76 170 169 170s169 -76 169 -170c0 -93 -76 -168 -169 -168s-169 75 -169 168z" />
    <glyph glyph-name="_147" unicode="&#x2640;" 
d="M201 556c0 -141 105 -258 243 -276v-120h-135v-65h135v-152h72v152h135v65h-135v120c135 18 243 135 243 276c0 153 -125 278 -279 278c-153 0 -279 -125 -279 -278zM274 556c0 114 93 207 206 207s206 -93 206 -207c0 -113 -93 -206 -206 -206s-206 93 -206 206z" />
    <glyph glyph-name="_148" unicode="&#x2220;" 
d="M793 684l-54 50l-638 -624v-44h757v75h-618z" />
    <glyph glyph-name="_149" unicode="&#x22a5;" 
d="M522 138v620h-84v-620h-333v-73h750v73h-333z" />
    <glyph glyph-name="_150" unicode="&#x2312;" 
d="M30 665l36 -56c109 110 247 172 415 172s303 -63 415 -172l36 56c-115 115 -261 189 -451 189s-337 -73 -451 -189z" />
    <glyph glyph-name="_151" unicode="&#x2202;" 
d="M365 606c17 79 72 119 142 119c91 0 143 -61 143 -223c0 -26 -1 -54 -3 -85c-23 55 -82 92 -168 92c-149 0 -253 -113 -253 -287c0 -148 91 -234 222 -234c202 0 285 154 285 495c0 237 -83 315 -224 315c-117 0 -205 -67 -231 -192h87zM455 61c-90 0 -145 57 -145 161
c0 112 56 214 178 214c89 0 144 -60 144 -162c0 -133 -75 -213 -177 -213z" />
    <glyph glyph-name="_152" unicode="&#x2207;" 
d="M530 1l274 784h-649l275 -784h100zM480 91l-209 618h417z" />
    <glyph glyph-name="_153" unicode="&#x2261;" horiz-adv-x="583" 
d="M55 507h473v69h-473v-69zM55 156h473v69h-473v-69zM55 332h473v68h-473v-68z" />
    <glyph glyph-name="_154" unicode="&#x2252;" horiz-adv-x="583" 
d="M55 420h473v70h-473v-70zM55 242h473v69h-473v-69zM217 705h-88v-115h88v115zM455 142h-88v-115h88v115z" />
    <glyph glyph-name="_155" unicode="&#xa7;" 
d="M474 749c71 0 120 -43 120 -103v-7h84v9c0 100 -78 170 -204 170s-203 -70 -203 -170c0 -69 23 -115 86 -150c-65 -32 -97 -88 -97 -153c0 -118 71 -164 225 -204c85 -22 119 -56 119 -116c0 -63 -47 -103 -120 -103c-71 0 -120 42 -120 103v7h-83v-9
c0 -100 77 -169 203 -169s203 69 203 169c0 68 -24 113 -87 149c66 31 99 87 99 153c0 118 -71 164 -226 204c-86 22 -119 58 -119 117c0 63 48 103 120 103zM343 349c0 49 25 94 84 118c148 -37 188 -62 188 -146c0 -49 -25 -93 -84 -119c-16 5 -32 10 -47 14
c-109 32 -141 56 -141 133z" />
    <glyph glyph-name="_156" unicode="&#x203b;" 
d="M555 689c0 41 -34 75 -75 75s-75 -34 -75 -75s34 -75 75 -75s75 34 75 75zM185 469c-41 0 -75 -34 -75 -75s34 -75 75 -75s75 34 75 75s-34 75 -75 75zM775 319c41 0 75 34 75 75s-34 75 -75 75s-75 -34 -75 -75s34 -75 75 -75zM405 99c0 -41 34 -75 75 -75s75 34 75 75
s-34 75 -75 75s-75 -34 -75 -75zM844 717l-40 41l-323 -324l-323 324l-40 -41l323 -323l-323 -323l40 -40l323 323l323 -323l40 40l-323 323z" />
    <glyph glyph-name="_157" unicode="&#x2606;" 
d="M363 533h-326l-6 -26l264 -194l-131 -340l20 -16l296 223l295 -223l19 17l-129 339l264 194l-6 26h-326l-104 322h-26zM410 467l70 240l72 -236l239 8l-208 -138l110 -256l-213 171l-214 -167l107 248l-208 139z" />
    <glyph glyph-name="_158" unicode="&#x2605;" 
d="M363 533h-326l-4 -19l262 -201l-131 -345l16 -11l300 223l300 -223l14 12l-129 344l262 201l-4 19h-326l-108 322h-18z" />
    <glyph glyph-name="_159" unicode="&#x25cb;" 
d="M916 389c0 244 -196 437 -436 437c-241 0 -437 -193 -437 -437s193 -436 437 -436c242 0 436 192 436 436zM118 389c0 203 157 365 362 365s363 -162 363 -365c0 -202 -158 -365 -363 -365s-362 163 -362 365z" />
    <glyph glyph-name="_160" unicode="&#x25cf;" 
d="M916 389c0 244 -196 437 -436 437c-241 0 -437 -193 -437 -437s193 -436 437 -436c242 0 436 192 436 436z" />
    <glyph glyph-name="_161" unicode="&#x25ce;" 
d="M187 388c0 -165 131 -292 293 -292s293 127 293 292s-131 293 -293 293s-293 -128 -293 -293zM707 388c0 -136 -94 -232 -227 -232s-227 96 -227 232c0 137 94 233 227 233s227 -96 227 -233zM916 389c0 246 -193 437 -436 437c-244 0 -437 -191 -437 -437
c0 -245 190 -436 437 -436c245 0 436 191 436 436zM110 389c0 211 158 377 370 377s370 -166 370 -377s-158 -377 -370 -377s-370 166 -370 377z" />
    <glyph glyph-name="_162" unicode="&#x25c7;" 
d="M480 869l-460 -478l460 -478l460 478zM480 769l361 -378l-361 -377l-362 377z" />
    <glyph glyph-name="_163" unicode="&#x25c6;" 
d="M480 869l-460 -478l460 -478l460 478z" />
    <glyph glyph-name="_164" unicode="&#x25a1;" 
d="M857 17v749h-754v-749h754zM179 87v609h602v-609h-602z" />
    <glyph glyph-name="_165" unicode="&#x25a0;" 
d="M857 17v749h-754v-749h754z" />
    <glyph glyph-name="_166" unicode="&#x25b3;" 
d="M480 802l-451 -782h902zM480 660l328 -573h-656z" />
    <glyph glyph-name="_167" unicode="&#x25b2;" 
d="M480 802l-451 -782h902z" />
    <glyph glyph-name="_168" unicode="&#x25bd;" 
d="M931 767h-902l451 -782zM152 700h656l-328 -573z" />
    <glyph glyph-name="_169" unicode="&#x25bc;" 
d="M931 767h-902l451 -782z" />
    <glyph glyph-name="_170" unicode="&#x2192;" 
d="M38 338h692v-105l191 140l-191 139v-105h-692v-69z" />
    <glyph glyph-name="_171" unicode="&#x2190;" 
d="M921 407h-692v105l-191 -139l191 -140v105h692v69z" />
    <glyph glyph-name="_172" unicode="&#x2191;" 
d="M514 -42v692h105l-139 191l-140 -191h105v-692h69z" />
    <glyph glyph-name="_173" unicode="&#x2193;" 
d="M445 841v-691h-105l140 -192l139 192h-105v691h-69z" />
    <glyph glyph-name="_174" unicode="&#x2194;" 
d="M229 338h501v-105l191 140l-191 139v-105h-501v105l-191 -139l191 -140v105z" />
    <glyph glyph-name="_178" unicode="&#x221a;" 
d="M617 767h294v74h-359l-256 -859l-155 315h-92l209 -419h91z" />
    <glyph glyph-name="_179" unicode="&#x223d;" 
d="M450 393c-50 -74 -108 -126 -158 -126c-57 0 -107 36 -107 105c0 68 50 105 107 105c18 0 36 -3 53 -10l24 57c-25 11 -52 17 -79 17c-109 0 -179 -65 -179 -169s70 -169 179 -169c82 0 154 52 219 151c50 76 103 123 158 123c57 0 107 -37 107 -105
c0 -69 -50 -105 -107 -105c-21 0 -41 4 -60 13l-29 -55c29 -15 60 -22 91 -22c108 0 179 65 179 169s-71 169 -179 169c-83 0 -153 -49 -219 -148z" />
    <glyph glyph-name="_180" unicode="&#x221d;" 
d="M733 286c-18 -13 -42 -19 -66 -19c-53 0 -103 26 -144 105c41 78 91 105 144 105c21 0 41 -5 58 -15l32 61c-25 12 -55 18 -88 18c-73 0 -143 -39 -190 -124c-47 85 -117 124 -189 124c-109 0 -179 -65 -179 -169s70 -169 179 -169c72 0 142 39 189 123
c47 -84 117 -123 190 -123c40 0 74 8 102 25zM185 372c0 68 50 105 107 105c53 0 102 -27 144 -105c-42 -79 -91 -105 -144 -105c-57 0 -107 36 -107 105z" />
    <glyph glyph-name="_181" unicode="&#x2235;" 
d="M527 225h-95v-119h95v119zM782 695h-95v-119h95v119zM272 695h-95v-119h95v119z" />
    <glyph glyph-name="_182" unicode="&#x222b;" 
d="M286 -52v-65c21 -2 41 -3 61 -3c126 0 175 40 175 160v668c0 73 22 97 101 97h51v65c-21 3 -40 4 -61 4c-125 0 -174 -42 -174 -161v-669c0 -73 -23 -96 -101 -96h-52z" />
    <glyph glyph-name="_183" unicode="&#x222c;" 
d="M131 -52v-65c21 -2 41 -3 61 -3c126 0 175 40 175 160v668c0 73 22 97 101 97h51v65c-21 3 -40 4 -61 4c-125 0 -174 -42 -174 -161v-669c0 -73 -23 -96 -101 -96h-52zM441 -52v-65c21 -2 41 -3 61 -3c126 0 175 40 175 160v668c0 73 22 97 101 97h51v65
c-21 3 -40 4 -61 4c-125 0 -174 -42 -174 -161v-669c0 -73 -23 -96 -101 -96h-52z" />
    <glyph glyph-name="_184" unicode="&#x2208;" 
d="M840 353v73h-660c15 128 113 207 312 207h348v73h-349c-229 0 -392 -95 -392 -318s163 -317 392 -317h349v73h-348c-201 0 -298 79 -312 209h660z" />
    <glyph glyph-name="_185" unicode="&#x220b;" 
d="M779 353c-14 -130 -111 -209 -312 -209h-348v-73h349c229 0 392 94 392 317s-163 318 -392 318h-349v-73h348c199 0 297 -79 312 -207h-660v-73h660z" />
    <glyph glyph-name="_186" unicode="&#x2286;" 
d="M121 67v-69h722v69h-722zM97 498c0 -188 138 -267 362 -267h379v73h-378c-196 0 -284 59 -284 194c0 136 88 195 284 195h378v73h-379c-224 0 -362 -80 -362 -268z" />
    <glyph glyph-name="_187" unicode="&#x2287;" 
d="M117 67v-69h722v69h-722zM863 498c0 188 -138 268 -362 268h-379v-73h378c196 0 284 -59 284 -195c0 -135 -88 -194 -284 -194h-378v-73h379c224 0 362 79 362 267z" />
    <glyph glyph-name="_188" unicode="&#x2282;" 
d="M99 388c0 -223 163 -317 392 -317h349v73h-348c-218 0 -314 94 -314 244c0 151 96 245 314 245h348v73h-349c-229 0 -392 -95 -392 -318z" />
    <glyph glyph-name="_189" unicode="&#x2283;" 
d="M860 388c0 223 -163 318 -392 318h-349v-73h348c218 0 314 -94 314 -245c0 -150 -96 -244 -314 -244h-348v-73h349c229 0 392 94 392 317z" />
    <glyph glyph-name="_190" unicode="&#x222a;" 
d="M479 -2c223 0 318 163 318 392v349h-83v-348c0 -226 -94 -324 -235 -324c-140 0 -234 98 -234 324v348h-83v-349c0 -229 94 -392 317 -392z" />
    <glyph glyph-name="_191" unicode="&#x2229;" 
d="M479 759c-223 0 -317 -163 -317 -392v-349h83v348c0 226 94 324 234 324c141 0 235 -98 235 -324v-348h83v349c0 229 -95 392 -318 392z" />
    <glyph glyph-name="_192" unicode="&#x2227;" 
d="M105 37l69 -37l305 629l308 -629l68 37l-363 732h-24z" />
    <glyph glyph-name="_193" unicode="&#x2228;" 
d="M468 -10h24l363 732l-69 37l-307 -629l-304 629l-70 -37z" />
    <glyph glyph-name="_194" unicode="&#xffe2;" 
d="M143 444h586v-254h87v330h-673v-76z" />
    <glyph glyph-name="_195" unicode="&#x21d2;" 
d="M804 370l-93 -74h-667v-65h585l-113 -90l45 -57l355 286l-356 276l-44 -56l111 -85h-583v-66h670z" />
    <glyph glyph-name="_196" unicode="&#x21d4;" 
d="M284 231h390l-104 -92l47 -55l323 286l-324 276l-46 -54l102 -87h-386l103 87l-46 54l-324 -276l323 -286l47 55zM208 439h542l82 -69l-84 -74h-537l-84 74z" />
    <glyph glyph-name="_197" unicode="&#x2200;" 
d="M530 1l274 784h-90l-63 -186h-342l-63 186h-91l275 -784h100zM480 91l-146 432h290z" />
    <glyph glyph-name="_198" unicode="&#x2203;" 
d="M699 785h-458v-75h371v-288h-325v-77h325v-268h-365v-76h452v784z" />
    <glyph glyph-name="_199" unicode="&#xb4;" horiz-adv-x="377" 
d="M293 819h-95l-113 -181h76z" />
    <glyph glyph-name="_201" unicode="&#x2c7;" horiz-adv-x="391" 
d="M231 638l137 181h-78l-95 -115l-95 115h-77l136 -181h72z" />
    <glyph glyph-name="_202" unicode="&#x2d8;" horiz-adv-x="389" 
d="M195 643c98 0 159 60 165 166h-76c-3 -70 -35 -102 -89 -102c-55 0 -87 32 -90 102h-76c6 -106 67 -166 166 -166z" />
    <glyph glyph-name="_203" unicode="&#x2dd;" horiz-adv-x="391" 
d="M208 819h-85l-103 -181h68zM371 819h-85l-119 -181h68z" />
    <glyph glyph-name="_204" unicode="&#x2da;" horiz-adv-x="381" 
d="M310 728c0 73 -52 116 -119 116c-68 0 -120 -43 -120 -116s52 -117 120 -117c67 0 119 44 119 117zM247 728c0 -38 -22 -61 -56 -61c-35 0 -57 23 -57 61s22 61 57 61c34 0 56 -23 56 -61z" />
    <glyph glyph-name="_205" unicode="&#x2d9;" horiz-adv-x="365" 
d="M230 774h-95v-97h95v97z" />
    <glyph glyph-name="_206" unicode="&#xb8;" horiz-adv-x="381" 
d="M66 -228c30 -21 72 -37 117 -37c81 0 131 43 131 107c0 56 -42 98 -109 98h-18l31 61h-64l-45 -90l17 -19c11 5 32 8 45 8c47 0 75 -20 75 -56c0 -30 -21 -50 -68 -50c-30 0 -61 10 -84 29z" />
    <glyph glyph-name="_207" unicode="&#x2db;" horiz-adv-x="381" 
d="M156 1c-55 -28 -89 -79 -89 -129v-7c0 -68 51 -109 133 -109c45 0 86 13 114 41l-31 47c-21 -19 -48 -28 -78 -28c-48 0 -71 24 -71 57v4c0 41 27 87 98 124h-76z" />
    <glyph glyph-name="_208" unicode="&#xa1;" horiz-adv-x="304" 
d="M109 -86v-137h85v137l-8 423h-68zM108 452h88v109h-88v-109z" />
    <glyph glyph-name="_209" unicode="&#xbf;" horiz-adv-x="573" 
d="M66 -18c0 -124 78 -218 224 -218c144 0 222 94 222 218v3h-82c0 -87 -55 -148 -140 -148c-86 0 -141 57 -141 147c0 61 20 99 83 154c84 73 103 112 103 190v30h-82v-24c0 -60 -15 -91 -89 -154c-71 -62 -98 -112 -98 -198zM251 453h86v108h-86v-108z" />
    <glyph glyph-name="_211" unicode="&#x222e;" 
d="M284 -52v-66c21 -2 41 -3 61 -3c126 0 175 41 175 161v145c91 17 156 92 156 189s-65 172 -156 189v145c0 73 22 97 101 97h51v65c-21 3 -40 4 -61 4c-125 0 -174 -42 -174 -161v-150c-89 -18 -153 -93 -153 -189s64 -171 153 -189v-141c0 -73 -23 -96 -101 -96h-52z
M437 259c-48 17 -81 62 -81 115c0 56 33 99 81 115v-230zM520 490c50 -15 84 -59 84 -116s-34 -101 -84 -116v232z" />
    <glyph glyph-name="_212" unicode="&#x2211;" 
d="M229 -1v-72h502v75h-405l175 335v27l-177 345h407v76h-502v-75l186 -359z" />
    <glyph glyph-name="_213" unicode="&#x220f;" 
d="M659 -73h86v858h-531v-858h86v782h359v-782z" />
    <glyph glyph-name="_214" unicode="&#xa4;" horiz-adv-x="703" 
d="M598 366c0 59 -20 109 -52 148l106 108l-54 54l-109 -110c-39 27 -87 42 -137 42c-51 0 -99 -15 -139 -42l-109 110l-54 -54l107 -108c-32 -39 -52 -89 -52 -148s20 -110 52 -149l-107 -107l54 -54l109 108c40 -25 88 -40 139 -40c50 0 98 15 137 40l109 -108l54 54
l-106 107c32 39 52 90 52 149zM521 366c0 -109 -76 -175 -170 -175c-92 0 -170 66 -170 175s78 176 170 176c94 0 170 -67 170 -176z" />
    <glyph glyph-name="_215" unicode="&#x2109;" 
d="M332 653c0 81 -57 141 -144 141s-144 -60 -144 -141c0 -82 57 -141 144 -141s144 59 144 141zM270 653c0 -52 -34 -83 -82 -83c-46 0 -81 31 -81 83c0 51 35 82 81 82c48 0 82 -31 82 -82zM410 1h87v352h325v76h-325v280h360v76h-447v-784z" />
    <glyph glyph-name="_216" unicode="&#x2030;" horiz-adv-x="1242" 
d="M314 1l321 784h-72l-321 -784h72zM377 587c0 141 -58 211 -158 211c-101 0 -159 -70 -159 -211s58 -212 159 -212c100 0 158 71 158 212zM305 587c0 -113 -31 -151 -86 -151c-56 0 -87 38 -87 151c0 112 31 150 87 150c55 0 86 -38 86 -150zM500 199
c0 -141 58 -211 159 -211c100 0 158 70 158 211s-58 212 -158 212c-101 0 -159 -71 -159 -212zM572 199c0 113 31 151 87 151c55 0 86 -38 86 -151c0 -112 -31 -150 -86 -150c-56 0 -87 38 -87 150zM865 199c0 -141 57 -211 158 -211s158 70 158 211s-57 212 -158 212
s-158 -71 -158 -212zM936 199c0 113 31 151 87 151s87 -38 87 -151c0 -112 -31 -150 -87 -150s-87 38 -87 150z" />
    <glyph glyph-name="_217" unicode="&#x25c1;" 
d="M59 391l782 -451v902zM196 391l567 328v-656z" />
    <glyph glyph-name="_218" unicode="&#x25c0;" 
d="M59 391l782 -451v902z" />
    <glyph glyph-name="_219" unicode="&#x25b7;" 
d="M119 842v-902l782 451zM197 63v656l567 -328z" />
    <glyph glyph-name="_220" unicode="&#x25b6;" 
d="M119 842v-902l782 451z" />
    <glyph glyph-name="_221" unicode="&#x2664;" 
d="M56 386c0 -63 22 -107 58 -138s85 -43 138 -44c70 -1 142 33 177 82c-12 -101 -80 -213 -184 -232v-56h468v56c-106 22 -173 129 -185 233c39 -48 109 -84 179 -83c49 1 99 13 135 44c37 31 62 75 62 138c0 83 -56 161 -139 233c-80 72 -188 138 -285 195
c-99 -59 -206 -125 -286 -196c-83 -73 -138 -149 -138 -232zM460 416c-2 -40 -37 -83 -77 -112c-38 -28 -92 -44 -120 -43c-107 -1 -136 57 -136 136c0 60 48 122 121 188c70 63 157 121 232 165c74 -44 164 -105 231 -164c71 -62 123 -127 123 -189
c0 -79 -37 -136 -138 -136c-38 0 -85 17 -123 45c-40 30 -69 71 -72 110h-41zM618 43h-278v4c97 55 130 180 137 294h4c5 -112 43 -241 137 -294v-4z" />
    <glyph glyph-name="_222" unicode="&#x2660;" 
d="M56 385c0 -63 22 -111 58 -143c36 -33 85 -49 138 -49c41 0 82 13 118 36c35 24 64 53 87 84c-11 -59 -36 -121 -75 -170c-37 -49 -85 -88 -137 -100v-45h468v45c-53 12 -102 51 -139 102c-39 51 -65 112 -74 172c20 -33 50 -63 86 -87c37 -23 77 -37 121 -37
c49 0 99 16 135 49c37 32 62 80 62 143c0 83 -62 160 -147 233c-83 71 -190 138 -277 195c-89 -59 -196 -125 -279 -196c-84 -72 -145 -149 -145 -232z" />
    <glyph glyph-name="_223" unicode="&#x2661;" 
d="M904 521c0 77 -23 130 -59 165s-85 50 -137 50s-100 -19 -140 -51s-72 -78 -88 -133c-17 55 -50 101 -90 133s-88 51 -137 51c-51 0 -100 -15 -136 -50c-37 -35 -61 -88 -61 -165c0 -104 50 -208 130 -303c79 -93 185 -175 294 -234c107 60 213 143 292 236
c80 93 132 197 132 301zM512 476c9 51 43 113 77 149c29 30 69 50 113 50c86 0 127 -54 127 -167c0 -77 -40 -166 -110 -251c-65 -79 -155 -149 -239 -197c-86 47 -175 118 -240 196c-70 84 -109 175 -109 252c0 113 47 167 128 167c42 0 78 -19 108 -51
c35 -37 71 -97 80 -148h65z" />
    <glyph glyph-name="_224" unicode="&#x2665;" 
d="M904 521c0 77 -23 130 -59 165s-85 50 -137 50c-53 0 -102 -19 -142 -51c-41 -32 -73 -78 -86 -133c-15 55 -46 100 -86 132c-41 33 -90 51 -141 52c-51 0 -100 -15 -136 -50c-37 -35 -61 -88 -61 -165c0 -104 50 -208 130 -303c79 -93 185 -175 294 -234
c107 60 213 143 292 236c80 93 132 197 132 301z" />
    <glyph glyph-name="_225" unicode="&#x2667;" 
d="M657 634c0 97 -79 178 -178 178c-101 0 -178 -80 -178 -178c0 -99 77 -178 178 -178s178 80 178 178zM713 54c-119 30 -190 129 -206 270h-56c-17 -137 -89 -243 -206 -270v-56h468v56zM598 634c0 -74 -48 -125 -119 -125c-72 0 -119 51 -119 125c0 73 47 124 119 124
c70 0 119 -51 119 -124zM613 48h-268v4c60 27 120 112 132 189h4c11 -78 68 -161 132 -189v-4zM409 334c0 97 -79 178 -178 178c-101 0 -178 -80 -178 -178c0 -99 77 -178 178 -178s178 80 178 178zM350 334c0 -74 -48 -125 -119 -125c-72 0 -119 51 -119 125
c0 73 47 124 119 124c70 0 119 -51 119 -124zM906 334c0 97 -79 178 -178 178c-101 0 -178 -80 -178 -178c0 -99 77 -178 178 -178s178 80 178 178zM847 334c0 -74 -48 -125 -119 -125c-72 0 -119 51 -119 125c0 73 47 124 119 124c70 0 119 -51 119 -124z" />
    <glyph glyph-name="_226" unicode="&#x2663;" 
d="M657 634c0 48 -21 93 -53 125c-32 33 -77 53 -125 53c-49 0 -94 -20 -126 -53c-32 -32 -52 -77 -52 -125c0 -49 20 -94 52 -127c32 -32 77 -51 126 -51c48 0 93 19 125 51c32 33 53 78 53 127zM409 333c0 49 -21 94 -53 126c-32 33 -77 53 -125 53
c-49 0 -94 -20 -126 -53c-32 -32 -52 -77 -52 -126s20 -93 52 -126c32 -32 77 -51 126 -51c48 0 93 19 125 51c32 33 53 77 53 126zM906 333c0 49 -21 94 -53 126c-32 33 -77 53 -125 53c-49 0 -94 -20 -126 -53c-32 -32 -52 -77 -52 -126s20 -93 52 -126
c32 -32 77 -51 126 -51c48 0 93 19 125 51c32 33 53 77 53 126zM713 43c-57 13 -109 53 -148 104s-64 114 -68 177h-36c-4 -61 -30 -125 -69 -177s-91 -92 -147 -104v-45h468v45z" />
    <glyph glyph-name="_228" unicode="&#x25c8;" 
d="M479 580l-187 -191l187 -191l187 191zM480 869l-460 -478l460 -478l460 478zM480 769l361 -378l-361 -377l-362 377z" />
    <glyph glyph-name="_229" unicode="&#x25a3;" 
d="M330 240h300v303h-300v-303zM857 17v749h-754v-749h754zM179 87v609h602v-609h-602z" />
    <glyph glyph-name="_230" unicode="&#x25d0;" 
d="M916 389c0 244 -196 437 -436 437c-241 0 -437 -193 -437 -437s193 -436 437 -436c242 0 436 192 436 436zM480 754c205 0 363 -162 363 -365c0 -202 -158 -365 -363 -365v730z" />
    <glyph glyph-name="_231" unicode="&#x25d1;" 
d="M43 389c0 -244 194 -436 436 -436c244 0 437 192 437 436s-196 437 -437 437c-240 0 -436 -193 -436 -437zM479 24c-205 0 -363 163 -363 365c0 203 158 365 363 365v-730z" />
    <glyph glyph-name="_232" unicode="&#x2592;" 
d="M451 68h54v56h-54v-56zM644 124v-56h52v56h-52zM601 68v56h-54v-56h54zM313 68v56h-52v-56h52zM217 68v56h-53v-56h53zM408 68v56h-53v-56h53zM739 124v-56h53v56h-53zM451 168h54v54h-54v-54zM644 222v-54h52v54h-52zM601 168v54h-54v-54h54zM313 168v54h-52v-54h52z
M217 168v54h-53v-54h53zM408 168v54h-53v-54h53zM739 222v-54h53v54h-53zM451 265h54v55h-54v-55zM644 320v-55h52v55h-52zM601 265v55h-54v-55h54zM313 265v55h-52v-55h52zM217 265v55h-53v-55h53zM408 265v55h-53v-55h53zM739 320v-55h53v55h-53zM451 362h54v58h-54v-58z
M644 420v-58h52v58h-52zM601 362v58h-54v-58h54zM313 362v58h-52v-58h52zM217 362v58h-53v-58h53zM408 362v58h-53v-58h53zM739 420v-58h53v58h-53zM451 463h54v55h-54v-55zM644 518v-55h52v55h-52zM601 463v55h-54v-55h54zM313 463v55h-52v-55h52zM217 463v55h-53v-55h53z
M408 463v55h-53v-55h53zM739 518v-55h53v55h-53zM451 560h54v55h-54v-55zM644 615v-55h52v55h-52zM601 560v55h-54v-55h54zM313 560v55h-52v-55h52zM217 560v55h-53v-55h53zM408 560v55h-53v-55h53zM739 615v-55h53v55h-53zM451 658h54v56h-54v-56zM644 714v-56h52v56h-52z
M601 658v56h-54v-56h54zM313 658v56h-52v-56h52zM217 658v56h-53v-56h53zM408 658v56h-53v-56h53zM739 714v-56h53v56h-53zM868 8v769h-776v-769h776zM139 44v692h680v-692h-680z" />
    <glyph glyph-name="_233" unicode="&#x25a4;" 
d="M868 8v769h-776v-769h776zM819 119v-75h-680v75h680zM819 222v-75h-680v75h680zM819 324v-74h-680v74h680zM819 428v-75h-680v75h680zM819 530v-74h-680v74h680zM819 634v-75h-680v75h680zM819 736v-74h-680v74h680z" />
    <glyph glyph-name="_234" unicode="&#x25a5;" 
d="M868 8v769h-776v-769h776zM751 732h74v-680h-74v680zM647 732h75v-680h-75v680zM544 732h75v-680h-75v680zM441 732h75v-680h-75v680zM338 732h75v-680h-75v680zM235 732h75v-680h-75v680zM132 732h75v-680h-75v680z" />
    <glyph glyph-name="_235" unicode="&#x25a8;" 
d="M868 8v769h-776v-769h776zM710 735h90l-666 -666v91zM245 48h-89l665 666v-90zM821 581v-96l-438 -437h-94zM821 167v-119h-118zM659 48h-94l256 257v-95zM427 48l394 394v-94l-300 -300h-94zM138 616v119h118zM300 735h94l-256 -256v94zM532 735l-394 -394v95l300 299
h94zM134 203v95l438 437h95z" />
    <glyph glyph-name="_236" unicode="&#x25a7;" 
d="M868 8v769h-776v-769h776zM248 735l576 -575v-91l-666 666h90zM713 48l-576 576v90l665 -666h-89zM137 581l532 -533h-94l-438 437v96zM137 167l118 -119h-118v119zM299 48l-162 162v95l256 -257h-94zM531 48h-94l-300 300v94zM820 616l-118 119h118v-119zM658 735
l162 -162v-94l-256 256h94zM426 735h94l300 -299v-95zM824 203l-533 532h95l438 -437v-95z" />
    <glyph glyph-name="_237" unicode="&#x25a6;" 
d="M868 8v769h-776v-769h776zM441 121h76v-75h-76v75zM725 121v-75h-76v75h76zM545 46v75h76v-75h-76zM233 46v75h76v-75h-76zM129 46v75h76v-75h-76zM337 46v75h76v-75h-76zM829 121v-75h-76v75h76zM441 224h76v-75h-76v75zM725 224v-75h-76v75h76zM545 149v75h76v-75h-76z
M233 149v75h76v-75h-76zM129 149v75h76v-75h-76zM337 149v75h76v-75h-76zM829 224v-75h-76v75h76zM441 327h76v-75h-76v75zM725 327v-75h-76v75h76zM545 252v75h76v-75h-76zM233 252v75h76v-75h-76zM129 252v75h76v-75h-76zM337 252v75h76v-75h-76zM829 327v-75h-76v75h76z
M441 430h76v-75h-76v75zM725 430v-75h-76v75h76zM545 355v75h76v-75h-76zM233 355v75h76v-75h-76zM129 355v75h76v-75h-76zM337 355v75h76v-75h-76zM829 430v-75h-76v75h76zM441 532h76v-74h-76v74zM725 532v-74h-76v74h76zM545 458v74h76v-74h-76zM233 458v74h76v-74h-76z
M129 458v74h76v-74h-76zM337 458v74h76v-74h-76zM829 532v-74h-76v74h76zM441 636h76v-75h-76v75zM725 636v-75h-76v75h76zM545 561v75h76v-75h-76zM233 561v75h76v-75h-76zM129 561v75h76v-75h-76zM337 561v75h76v-75h-76zM829 636v-75h-76v75h76zM441 738h76v-74h-76v74z
M725 738v-74h-76v74h76zM545 664v74h76v-74h-76zM233 664v74h76v-74h-76zM129 664v74h76v-74h-76zM337 664v74h76v-74h-76zM829 738v-74h-76v74h76z" />
    <glyph glyph-name="_238" unicode="&#x25a9;" 
d="M868 8v769h-776v-769h776zM748 479l65 65l13 -12v-103l-15 -14zM811 239l-66 67l65 65l16 -16v-101zM490 738h128l14 -13l-64 -63zM213 481l-66 -66l-15 16v101l16 14zM132 183l17 14l55 -56l-72 -74v116zM147 239l-15 15v101l16 16l65 -65zM271 738l11 -11l-56 -59
l-71 70h116zM394 662l-65 64l10 12h106l12 -11zM659 47l71 72l72 -72h-143zM132 604v113l72 -72l-56 -57zM394 123l63 -64l-12 -12h-106l-10 11zM272 47h-116l70 71l57 -60zM490 47l77 78l65 -64l-14 -14h-128zM826 183v-116l-72 74l55 56zM659 738h143l-72 -71zM826 604
l-16 -16l-56 57l72 72v-113zM306 704l65 -65l-58 -57l-65 65zM225 624l66 -65l-57 -58l-65 66zM480 704l65 -65l-64 -66l-64 66zM394 615l64 -64l-57 -57l-65 65zM313 536l65 -65l-56 -57l-65 65zM235 458l66 -65l-66 -65l-65 65zM567 616l57 -57l-65 -64l-55 57zM481 529
l55 -57l-57 -57l-56 57zM400 449l56 -57l-56 -57l-56 58zM323 372l56 -57l-65 -66l-57 57zM648 537l56 -58l-65 -64l-55 57zM561 449l55 -57l-57 -57l-56 57zM480 370l56 -58l-56 -57l-56 58zM403 293l56 -59l-65 -66l-57 59zM727 458l65 -64l-64 -65l-65 64zM640 371
l65 -65l-57 -57l-66 64zM559 291l67 -65l-58 -57l-65 65zM482 213l65 -65l-65 -65l-65 64zM726 284l64 -64l-57 -57l-65 63zM645 204l65 -64l-56 -57l-65 64zM654 704l56 -58l-64 -64l-56 57zM734 624l56 -58l-64 -65l-55 58zM234 284l57 -58l-66 -65l-56 58zM314 204
l57 -58l-66 -65l-56 58z" />
    <glyph glyph-name="_239" unicode="&#x2668;" 
d="M537 356c0 40 -15 87 -29 131s-28 89 -27 134c1 51 17 104 53 153c13 17 -12 32 -27 18c-27 -25 -53 -59 -73 -93c-19 -32 -29 -65 -30 -97c-1 -44 13 -90 28 -133c16 -45 30 -90 29 -133c-1 -55 -13 -110 -41 -151c-11 -16 12 -30 28 -16c52 45 89 119 89 187zM377 356
c0 32 -14 65 -29 97c-14 30 -26 71 -27 109c-1 55 11 111 44 155c18 25 -11 39 -32 18c-46 -48 -93 -114 -89 -193c2 -36 14 -74 28 -105c15 -34 28 -68 30 -101c3 -52 -18 -109 -44 -152c-11 -18 15 -29 34 -10c38 38 85 107 85 182zM242 316c-119 -11 -175 -66 -176 -135
c-2 -116 221 -172 415 -172c195 0 414 61 414 177c0 56 -56 114 -160 121c-14 1 -18 -18 -3 -21c52 -10 92 -38 92 -82c0 -73 -182 -111 -343 -111s-344 33 -344 106c0 49 42 82 109 96c14 3 10 22 -4 21zM697 356c0 32 -14 65 -29 97c-14 30 -26 71 -27 109
c-1 55 11 111 44 155c18 25 -11 39 -32 18c-46 -48 -93 -114 -89 -193c2 -36 14 -74 28 -105c15 -34 28 -68 30 -101c3 -52 -18 -109 -44 -152c-11 -18 15 -29 34 -10c38 38 85 107 85 182z" />
    <glyph glyph-name="_240" unicode="&#x260f;" 
d="M799 87c14 0 22 9 23 24l8 91c0 32 -10 65 -30 100c-18 36 -38 69 -61 97c-48 58 -96 99 -108 100v120h20c26 -1 39 -24 42 -51c2 -19 3 -42 3 -60c0 -12 5 -20 21 -22l160 -17c14 -1 22 5 21 21c-3 40 -13 87 -36 127c-28 47 -75 85 -151 86h-460
c-78 -1 -125 -37 -154 -84c-23 -40 -35 -88 -36 -128c0 -15 9 -23 25 -21l166 16c13 1 18 11 18 24c0 19 -1 41 1 59c3 29 13 49 40 50h20v-120c-14 -1 -62 -43 -110 -102c-47 -58 -89 -135 -89 -200l8 -87c2 -17 9 -23 26 -23h633zM523 504h-84v115h84v-115zM713 674
c50 0 87 -26 111 -63c19 -30 32 -75 32 -109l-126 14c1 21 1 47 -5 73c-8 36 -32 58 -64 58h-361c-32 0 -56 -23 -62 -55c-5 -25 -6 -51 -5 -73l-129 -13c2 33 9 71 26 100c20 34 65 68 118 68h465zM625 294c0 76 -65 139 -142 139c-78 0 -143 -60 -143 -139
c0 -81 63 -140 143 -140c78 0 142 62 142 140zM593 485c36 -16 80 -56 120 -109c42 -55 77 -124 77 -179l-8 -73h-602l-6 69c0 55 33 123 75 178c42 54 84 93 120 114v134h31v-145h161v145h32v-134zM587 294c0 -60 -43 -106 -104 -106c-63 0 -105 46 -105 106
s43 105 105 105c59 0 105 -48 104 -105z" />
    <glyph glyph-name="_241" unicode="&#x260e;" 
d="M877 469c13 -1 22 4 21 20c-2 39 -13 88 -36 128c-28 47 -73 85 -146 86h-470c-76 -1 -122 -37 -150 -84c-23 -40 -33 -89 -35 -130c-1 -16 8 -22 23 -20l163 17c13 1 19 11 18 21c-1 19 -1 41 3 62c5 27 15 50 38 50h40v-120c-32 -6 -77 -44 -125 -104
c-47 -59 -89 -134 -89 -198l8 -89c1 -13 9 -21 23 -21h636c12 0 22 6 23 20l8 95c0 61 -43 135 -91 194s-98 100 -123 103v120h40c20 0 31 -23 36 -51c3 -21 4 -45 4 -64c0 -10 5 -16 20 -18zM544 619v-120h-126v120h126zM622 294c0 -78 -60 -140 -139 -140
c-81 0 -140 59 -140 140c0 79 60 139 140 139c77 0 139 -62 139 -139z" />
    <glyph glyph-name="_242" unicode="&#x261c;" 
d="M938 155v360h-130v-13h-46c-8 0 -12 -7 -12 -14v-38c-17 -1 -40 -1 -55 6c-16 4 -30 14 -45 26s-28 23 -40 34c-41 31 -94 31 -142 31c-25 -1 -49 -1 -69 -6c-20 -7 -32 -19 -33 -43h-291c-37 0 -53 -27 -53 -54s17 -53 50 -53h215c-5 -8 -4 -20 1 -35
c5 -13 11 -25 22 -28c-11 -8 -12 -24 -9 -37c4 -16 12 -31 27 -36c-8 -11 -7 -27 1 -42s21 -30 41 -31c9 -13 23 -21 43 -25c21 -3 38 -5 52 -4c15 0 41 -1 66 0s52 4 68 11c17 7 36 18 55 30s37 23 54 31c13 4 30 4 42 4v-46c0 -8 5 -13 12 -13h46v-15h130zM369 435
c4 8 15 26 18 38c1 5 2 14 3 22s4 15 8 19s16 6 29 6c7 1 14 1 21 1h20c44 0 85 -1 121 -22c15 -11 30 -24 46 -36c16 -13 32 -25 51 -32c20 -8 45 -9 64 -8v-169c-15 0 -33 0 -50 -4c-19 -7 -37 -18 -56 -29c-17 -11 -37 -23 -50 -31c-19 -12 -51 -14 -71 -14
c-15 -1 -40 -2 -64 -2c-25 0 -48 3 -53 11c5 0 15 0 30 1c16 1 28 3 35 5c12 1 28 13 31 32c5 36 -5 90 -14 122c11 -8 29 -19 53 -29c18 -7 26 14 11 23c-47 27 -78 67 -81 120c-1 15 -19 14 -23 0c-9 -31 -34 -43 -71 -40c-8 0 -12 9 -8 16zM362 471c0 -3 -4 -8 -8 -16
c-3 -6 -7 -14 -11 -24c-3 -8 -4 -13 -3 -14h-261c-21 0 -36 18 -29 39c7 11 14 15 31 15h281zM776 196v280h32v-280h-32zM436 324c17 1 28 -9 28 -18c1 -11 -4 -22 -16 -23c-29 -7 -67 -9 -96 -8c-15 0 -22 12 -23 23s4 22 19 22c28 -1 57 0 88 4zM417 393
c17 1 27 -9 28 -18c1 -11 -5 -22 -17 -23c-19 -4 -64 -7 -92 -6c-15 1 -23 12 -23 24c-1 11 4 21 19 21c25 0 58 1 85 2zM450 255c17 0 25 -8 26 -17c1 -11 -4 -23 -15 -24c-28 -4 -61 -7 -86 -6c-13 0 -22 10 -23 21c-3 12 3 22 16 22c27 -1 55 0 82 4z" />
    <glyph glyph-name="_243" unicode="&#x261e;" 
d="M152 155v15h46c7 0 12 5 12 13v46c12 0 29 0 42 -4c17 -8 35 -19 54 -31s38 -23 55 -30c16 -7 43 -10 68 -11s51 0 66 0c14 -1 31 1 52 4c20 4 34 12 43 25c20 1 33 16 41 31s9 31 1 42c15 5 23 20 27 36c3 13 2 29 -9 37c11 3 17 15 22 28c5 15 6 27 1 35h215
c33 0 50 26 50 53s-16 54 -53 54h-291c-1 24 -13 36 -33 43c-20 5 -44 5 -69 6c-48 0 -101 0 -142 -31c-12 -11 -25 -22 -40 -34s-29 -22 -45 -26c-15 -7 -38 -7 -55 -6v38c0 7 -4 14 -12 14h-46v13h-130v-360h130zM591 435c4 -7 0 -16 -8 -16c-37 -3 -62 9 -71 40
c-4 14 -22 15 -23 0c-3 -53 -34 -93 -81 -120c-15 -9 -7 -30 11 -23c24 10 42 21 53 29c-9 -32 -19 -86 -14 -122c3 -19 19 -31 31 -32c7 -2 19 -4 35 -5c15 -1 25 -1 30 -1c-5 -8 -28 -11 -53 -11c-24 0 -49 1 -64 2c-20 0 -52 2 -71 14c-13 8 -33 20 -50 31
c-19 11 -37 22 -56 29c-17 4 -35 4 -50 4v169c19 -1 44 0 64 8c19 7 35 19 51 32c16 12 31 25 46 36c36 21 77 22 121 22h20c7 0 14 0 21 -1c13 0 25 -2 29 -6s7 -11 8 -19s2 -17 3 -22c3 -12 14 -30 18 -38zM879 471c17 0 24 -4 31 -15c7 -21 -8 -39 -29 -39h-261
c1 1 0 6 -3 14c-4 10 -8 18 -11 24c-4 8 -8 13 -8 16h281zM152 196v280h32v-280h-32zM524 324c31 -4 60 -5 88 -4c15 0 20 -11 19 -22s-8 -23 -23 -23c-29 -1 -67 1 -96 8c-12 1 -17 12 -16 23c0 9 11 19 28 18zM543 393c27 -1 60 -2 85 -2c15 0 20 -10 19 -21
c0 -12 -8 -23 -23 -24c-28 -1 -73 2 -92 6c-12 1 -18 12 -17 23c1 9 11 19 28 18zM510 255c27 -4 55 -5 82 -4c13 0 19 -10 16 -22c-1 -11 -10 -21 -23 -21c-25 -1 -58 2 -86 6c-11 1 -16 13 -15 24c1 9 9 17 26 17z" />
    <glyph glyph-name="_244" unicode="&#xb6;" 
d="M477 785c-142 0 -229 -87 -229 -237v-8c0 -151 103 -240 242 -240h31v-446h60v873h51v-873h60v931h-215z" />
    <glyph glyph-name="_245" unicode="&#x2020;" 
d="M715 651h-196v188h-77v-188h-197v-69h197v-728h77v728h196v69z" />
    <glyph glyph-name="_246" unicode="&#x2021;" 
d="M245 42h197v-188h77v188h196v69h-196v471h196v69h-196v188h-77v-188h-197v-69h197v-471h-197v-69z" />
    <glyph glyph-name="_247" unicode="&#x2195;" 
d="M340 149l141 -191l139 191h-105v500h105l-139 192l-141 -192h106v-500h-106z" />
    <glyph glyph-name="_248" unicode="&#x2197;" 
d="M205 36l489 489l74 -74l36 234l-233 -37l74 -74l-489 -489z" />
    <glyph glyph-name="_249" unicode="&#x2199;" 
d="M755 685l-489 -489l-74 74l-36 -234l233 37l-74 74l489 489z" />
    <glyph glyph-name="_250" unicode="&#x2196;" 
d="M804 85l-489 489l74 74l-233 37l36 -234l74 74l489 -489z" />
    <glyph glyph-name="_251" unicode="&#x2198;" 
d="M156 636l489 -489l-74 -74l233 -37l-36 234l-74 -74l-489 489z" />
    <glyph glyph-name="_252" unicode="&#x266d;" 
d="M378 839h-57v-862c182 -2 358 126 358 294c0 99 -56 166 -141 166c-75 0 -131 -41 -160 -98v500zM378 189c0 104 63 186 134 186c51 0 79 -33 79 -118c0 -107 -102 -219 -213 -227v159z" />
    <glyph glyph-name="_253" unicode="&#x2669;" 
d="M530 135c-14 6 -37 9 -61 9c-93 0 -198 -70 -198 -153c0 -54 44 -83 99 -83c125 0 218 80 218 192v740h-58v-705z" />
    <glyph glyph-name="_254" unicode="&#x266a;" 
d="M462 135c-14 6 -37 9 -61 9c-93 0 -198 -70 -198 -153c0 -54 44 -83 99 -83c125 0 218 80 218 192v502c106 -37 205 -127 205 -248c0 -74 -30 -154 -71 -225h29c48 73 94 161 94 263c0 105 -66 185 -144 242c-76 56 -132 108 -130 206h-41v-705z" />
    <glyph glyph-name="_255" unicode="&#x266c;" 
d="M810 660l-480 -108v100l480 107v-99zM330 463l480 108v-324c-16 6 -37 9 -62 9c-93 0 -198 -70 -198 -153c0 -54 45 -83 100 -83c124 0 217 80 217 192v651l-595 -132v-596c-15 6 -37 9 -61 9c-93 0 -198 -70 -198 -153c0 -54 44 -83 99 -83c125 0 218 80 218 192v363z
" />
    <glyph glyph-name="_256" unicode="&#x327f;" 
d="M901 456c-26 217 -204 366 -422 366c-237 0 -426 -172 -424 -455h207v54h-138c9 190 144 342 355 342c193 0 334 -128 358 -307h64zM58 327c26 -217 204 -366 422 -366c237 0 426 172 424 455h-207v-54h138c-9 -190 -144 -342 -355 -342c-193 0 -335 129 -358 307h-64z
M686 661h-90l-155 -226h-43v226h-80v-534h80v239h43l176 -239h93l-206 273z" />
    <glyph glyph-name="_257" unicode="&#x321c;" 
d="M40 387c0 -152 56 -297 145 -420h64c-84 125 -139 276 -139 420c0 143 55 295 139 420h-64c-89 -123 -145 -269 -145 -420zM920 387c0 151 -56 297 -145 420h-64c84 -125 139 -277 139 -420c0 -144 -55 -295 -139 -420h64c89 123 145 268 145 420zM225 630h214v-7
c0 -114 -106 -176 -222 -194v-64c115 16 218 64 262 141c45 -77 145 -125 261 -141v64c-116 18 -222 80 -222 194v7h216v64h-509v-64zM190 223h249v-182h79v182h252v64h-580v-64z" />
    <glyph glyph-name="_258" unicode="&#x2116;" horiz-adv-x="973" 
d="M574 1h349v65h-349v-65zM427 1h81v784h-83v-595l-268 595h-80v-784h83v595zM928 367c0 146 -49 229 -179 229s-179 -83 -179 -229c0 -145 49 -228 179 -228s179 83 179 228zM645 367c0 110 28 163 104 163c75 0 104 -53 104 -163s-29 -163 -104 -163
c-76 0 -104 53 -104 163z" />
    <glyph glyph-name="_259" unicode="&#x33c7;" 
d="M244 -12c133 0 201 104 209 270h-83c-6 -120 -45 -194 -126 -194c-108 0 -132 131 -132 329c0 191 20 329 132 329c82 0 120 -73 126 -195h83c-9 166 -74 271 -209 271c-174 0 -215 -181 -215 -405c0 -226 40 -405 215 -405zM851 281c0 185 -61 293 -180 293
s-179 -108 -179 -293s60 -293 179 -293s180 108 180 293zM770 281c0 -140 -27 -224 -99 -224s-98 84 -98 224c0 139 26 224 98 224s99 -85 99 -224zM941 120h-89v-119h89v119z" />
    <glyph glyph-name="_260" unicode="&#x2122;" horiz-adv-x="729" 
d="M14 732h104v-321h62v321h104v53h-270v-53zM522 411l100 238v-238h60v374h-57l-127 -299l-126 299h-57v-374h60v238l100 -238h47z" />
    <glyph glyph-name="_261" unicode="&#x33c2;" 
d="M247 55c0 -23 3 -38 8 -54h78c-6 20 -11 50 -11 77v308c0 122 -50 188 -144 188c-90 0 -137 -67 -143 -175h78c5 74 22 106 65 106c47 0 69 -36 69 -118v-100c-15 36 -44 57 -92 57c-87 0 -138 -67 -138 -178c0 -112 51 -178 138 -178c49 0 77 27 92 67zM247 166
c0 -67 -21 -109 -77 -109s-77 41 -77 109c0 67 21 109 77 109s77 -43 77 -109zM683 319c0 141 18 186 55 186c22 0 34 -16 34 -108v-396h76v394c0 134 -30 179 -96 179c-42 0 -75 -28 -86 -89c-6 59 -41 89 -78 89c-27 0 -58 -20 -70 -70v57h-76v-560h76v319
c0 141 18 185 55 185c23 0 34 -16 34 -108v-396h76v318zM950 120h-78v-119h78v119zM420 120h-78v-119h78v119z" />
    <glyph glyph-name="_262" unicode="&#x33d8;" 
d="M108 50c14 -38 45 -62 81 -62c101 0 141 98 141 293s-40 293 -141 293c-39 0 -69 -25 -81 -63v50h-76v-804h76v293zM108 281c0 149 7 224 73 224c55 0 72 -75 72 -224c0 -150 -17 -224 -72 -224c-66 0 -73 74 -73 224zM683 319c0 141 18 186 55 186c22 0 34 -16 34 -108
v-396h76v394c0 134 -30 179 -96 179c-42 0 -75 -28 -86 -89c-6 59 -41 89 -78 89c-27 0 -58 -20 -70 -70v57h-76v-560h76v319c0 141 18 185 55 185c23 0 34 -16 34 -108v-396h76v318zM950 120h-78v-119h78v119zM420 120h-78v-119h78v119z" />
    <glyph glyph-name="_263" unicode="&#x2121;" 
d="M759 288c0 206 -80 286 -212 286c-135 0 -213 -82 -213 -293s79 -293 213 -293c114 0 183 57 204 179h-84c-13 -76 -56 -110 -120 -110c-82 0 -127 55 -130 200h342v31zM547 505c79 0 124 -52 128 -185h-256c3 133 49 185 128 185zM12 709h163v-708h87v708h163v76h-413
v-76zM908 1v784h-83v-784h83z" />
    <glyph glyph-name="_265" unicode="&#xff02;" 
d="M588 561v224h-76v-224h76zM449 561v224h-77v-224h77z" />
    <glyph glyph-name="_266" unicode="&#xff03;" 
d="M487 1h78l48 224h156v67h-142l45 202h135v67h-121l49 224h-77l-49 -224h-185l49 224h-78l-49 -224h-154v-67h140l-45 -202h-134v-67h121l-49 -224h77l49 224h186zM409 494h186l-45 -202h-186z" />
    <glyph glyph-name="_267" unicode="&#xff04;" 
d="M442 -96h63v85c154 9 240 100 240 222c0 118 -70 191 -207 220l-33 6v282c79 -12 124 -63 124 -133v-15h87v15c0 106 -74 195 -211 209v87h-63v-85c-149 -8 -227 -101 -227 -211c0 -116 71 -182 195 -209l32 -7v-305c-89 13 -140 70 -140 144v22h-87v-20
c0 -118 81 -209 227 -221v-86zM658 209c0 -78 -56 -135 -153 -144v293c104 -20 153 -73 153 -149zM302 586c0 74 50 127 140 135v-271c-93 26 -140 55 -140 136z" />
    <glyph glyph-name="_268" unicode="&#xff05;" 
d="M355 1l321 784h-72l-321 -784h72zM418 587c0 141 -58 211 -158 211c-101 0 -159 -70 -159 -211s58 -212 159 -212c100 0 158 71 158 212zM346 587c0 -113 -31 -151 -86 -151c-56 0 -87 38 -87 151c0 112 31 150 87 150c55 0 86 -38 86 -150zM541 199
c0 -141 58 -211 159 -211c100 0 158 70 158 211s-58 212 -158 212c-101 0 -159 -71 -159 -212zM613 199c0 113 31 151 87 151c55 0 86 -38 86 -151c0 -112 -31 -150 -86 -150c-56 0 -87 38 -87 150z" />
    <glyph glyph-name="_269" unicode="&#xff06;" 
d="M426 798c-117 0 -199 -67 -199 -181c0 -63 23 -115 82 -174c-95 -58 -140 -137 -140 -230c0 -135 98 -225 254 -225c100 0 176 34 229 91l74 -78h105l-132 139c38 68 59 154 62 250h-85c-3 -70 -14 -133 -37 -186l-259 276c-54 57 -68 91 -68 137c0 69 44 108 114 108
c71 0 115 -39 115 -108v-22h84v24c0 112 -81 179 -199 179zM423 61c-97 0 -170 57 -170 153c0 72 32 130 103 178l241 -255c-38 -49 -97 -76 -174 -76z" />
    <glyph glyph-name="_270" unicode="&#xff07;" 
d="M518 561v224h-77v-224h77z" />
    <glyph glyph-name="_273" unicode="&#xff0a;" 
d="M710 454l-38 66l-161 -102l8 191h-77l8 -191l-162 102l-38 -66l168 -88l-168 -89l38 -66l162 101l-8 -190h77l-8 190l161 -101l38 66l-169 89z" />
    <glyph glyph-name="_274" unicode="&#xff0b;" 
d="M243 332h198v-210h77v210h198v68h-198v210h-77v-210h-198v-68z" />
    <glyph glyph-name="_276" unicode="&#xff0d;" 
d="M315 329h330v74h-330v-74z" />
    <glyph glyph-name="_278" unicode="&#xff0f;" 
d="M50 3l59 -58l801 840l-61 56z" />
    <glyph glyph-name="_279" unicode="&#xff10;" 
d="M733 393c0 180 -24 270 -76 333c-40 47 -100 72 -177 72s-137 -25 -177 -72c-52 -63 -77 -153 -77 -333s25 -270 77 -333c40 -47 100 -72 177 -72s137 25 177 72c52 63 76 153 76 333zM649 393c0 -157 -15 -234 -50 -279c-27 -35 -67 -53 -119 -53c-51 0 -92 18 -119 53
c-36 45 -50 122 -50 279s15 233 50 278c28 35 68 54 119 54c52 0 91 -19 119 -54c35 -45 50 -121 50 -278z" />
    <glyph glyph-name="_280" unicode="&#xff11;" 
d="M570 1v784h-73l-207 -93v-83l195 87v-695h85z" />
    <glyph glyph-name="_281" unicode="&#xff12;" 
d="M710 567c0 126 -84 231 -236 231s-235 -105 -235 -231v-23h85v22c0 92 55 159 150 159c93 0 150 -66 150 -159c0 -51 -16 -92 -59 -141l-314 -357v-67h469v73h-358l271 307c59 67 77 116 77 186z" />
    <glyph glyph-name="_282" unicode="&#xff13;" 
d="M642 221c0 -101 -69 -160 -162 -160c-94 0 -163 60 -163 166v6h-84v-10c0 -145 102 -235 247 -235c146 0 246 88 246 230c0 109 -58 177 -145 200c77 23 122 90 122 178c0 114 -83 202 -223 202c-141 0 -224 -88 -224 -202v-18h85v11c0 81 54 136 139 136
c82 0 139 -55 139 -136c0 -75 -47 -135 -133 -135h-81v-73h79c96 0 158 -61 158 -160z" />
    <glyph glyph-name="_283" unicode="&#xff14;" 
d="M305 249l240 397v-397h-240zM727 249h-97v536h-93l-325 -536v-73h333v-175h85v175h97v73z" />
    <glyph glyph-name="_284" unicode="&#xff15;" 
d="M479 436c99 0 156 -66 156 -187c0 -122 -57 -188 -156 -188c-87 0 -144 50 -154 148h-85c12 -138 100 -221 239 -221c149 0 240 95 240 259c0 172 -91 262 -225 262c-66 0 -117 -30 -141 -70l13 273h311v73h-390l-20 -432h84c24 53 69 83 128 83z" />
    <glyph glyph-name="_285" unicode="&#xff16;" 
d="M320 417c5 216 47 308 161 308c78 0 127 -40 137 -119h88c-16 127 -100 192 -223 192c-83 0 -146 -27 -187 -95c-43 -71 -61 -186 -61 -363c0 -91 9 -162 32 -216c38 -91 112 -136 214 -136c143 0 244 99 244 261c0 161 -93 260 -236 260c-82 0 -142 -37 -169 -92z
M320 249c0 117 64 187 161 187s160 -70 160 -187c0 -119 -63 -188 -160 -188s-161 69 -161 188z" />
    <glyph glyph-name="_286" unicode="&#xff17;" 
d="M246 712h382l-276 -711h89l272 718v66h-467v-73z" />
    <glyph glyph-name="_287" unicode="&#xff18;" 
d="M480 -12c153 0 258 86 258 227c0 104 -58 175 -151 201c79 25 127 95 127 179c0 118 -88 203 -234 203s-235 -85 -235 -203c0 -84 49 -154 128 -179c-93 -26 -151 -97 -151 -201c0 -141 105 -227 258 -227zM630 588c0 -83 -61 -136 -150 -136c-90 0 -150 53 -150 136
s60 137 150 137c89 0 150 -54 150 -137zM306 220c0 99 72 160 174 160s174 -61 174 -160c0 -100 -72 -159 -174 -159s-174 59 -174 159z" />
    <glyph glyph-name="_288" unicode="&#xff19;" 
d="M640 369c-5 -216 -47 -308 -161 -308c-77 0 -127 40 -137 119h-88c15 -127 99 -192 224 -192c82 0 145 27 185 95c44 71 62 186 62 363c0 91 -9 162 -32 216c-38 91 -112 136 -213 136c-144 0 -245 -99 -245 -261c0 -161 94 -260 236 -260c82 0 142 37 169 92zM640 537
c0 -118 -65 -187 -160 -187c-98 0 -161 69 -161 187c0 119 63 188 161 188c95 0 160 -69 160 -188z" />
    <glyph glyph-name="_295" unicode="&#xff20;" 
d="M575 527c-130 0 -209 -93 -209 -258c0 -158 74 -259 222 -259c146 0 227 99 227 272v11c0 368 -94 505 -335 505c-242 0 -336 -137 -336 -505c0 -395 115 -504 336 -504c57 0 113 14 159 37l-24 63c-36 -21 -88 -33 -135 -33c-173 0 -260 71 -260 437
c0 340 67 439 260 439c166 0 238 -79 254 -289c-23 52 -76 84 -159 84zM592 80c-98 0 -148 62 -148 189c0 124 50 189 148 189c99 0 148 -65 148 -189c0 -127 -49 -189 -148 -189z" />
    <glyph glyph-name="_296" unicode="&#xff21;" 
d="M430 785l-275 -784h91l63 186h342l63 -186h90l-274 784h-100zM624 263h-290l146 432z" />
    <glyph glyph-name="_297" unicode="&#xff22;" 
d="M306 442v267h180c111 0 165 -42 165 -134c0 -91 -54 -133 -165 -133h-180zM518 1c161 0 242 72 242 216c0 102 -52 173 -147 190c75 17 124 79 124 174c0 131 -78 204 -232 204h-286v-784h299zM673 221c0 -96 -49 -145 -175 -145h-192v290h192c126 0 175 -48 175 -145z
" />
    <glyph glyph-name="_298" unicode="&#xff23;" 
d="M484 -12c178 0 280 107 290 270h-86c-9 -120 -78 -194 -204 -194c-159 0 -211 121 -211 329c0 201 46 329 211 329c126 0 195 -75 204 -195h86c-10 163 -112 271 -290 271c-231 0 -298 -181 -298 -405c0 -226 66 -405 298 -405z" />
    <glyph glyph-name="_299" unicode="&#xff24;" 
d="M687 393c0 -204 -51 -316 -214 -316h-180v632h180c162 0 214 -113 214 -316zM480 1c241 0 294 185 294 392c0 206 -54 392 -294 392h-274v-784h274z" />
    <glyph glyph-name="_300" unicode="&#xff25;" 
d="M251 1h458v75h-371v288h325v77h-325v268h365v76h-452v-784z" />
    <glyph glyph-name="_301" unicode="&#xff26;" 
d="M266 1h87v352h325v76h-325v280h360v76h-447v-784z" />
    <glyph glyph-name="_302" unicode="&#xff27;" 
d="M185 393c0 -216 61 -405 294 -405c110 0 186 50 216 117l15 -104h64v401h-285v-76h200v-40c0 -139 -80 -222 -206 -222c-152 0 -211 105 -211 329c0 203 49 329 211 329c126 0 195 -75 204 -195h86c-10 163 -112 271 -290 271c-231 0 -298 -181 -298 -405z" />
    <glyph glyph-name="_303" unicode="&#xff28;" 
d="M659 1h87v784h-87v-344h-358v344h-87v-784h87v363h358v-363z" />
    <glyph glyph-name="_304" unicode="&#xff29;" 
d="M523 785h-87v-784h87v784z" />
    <glyph glyph-name="_305" unicode="&#xff2a;" 
d="M450 63c-99 0 -151 60 -153 183h-86v-5c0 -161 84 -253 238 -253c153 0 240 92 240 253v544h-87v-534c0 -127 -56 -188 -152 -188z" />
    <glyph glyph-name="_306" unicode="&#xff2b;" 
d="M753 785h-98l-242 -344h-94v344h-87v-784h87v363h94l274 -363h101l-306 401z" />
    <glyph glyph-name="_307" unicode="&#xff2c;" 
d="M271 1h458v75h-371v709h-87v-784z" />
    <glyph glyph-name="_308" unicode="&#xff2d;" 
d="M526 1l250 600v-600h87v784h-97l-287 -686l-286 686h-97v-784h87v600l250 -600h93z" />
    <glyph glyph-name="_309" unicode="&#xff2e;" 
d="M751 1v784h-87v-626l-369 626h-87v-784h87v626l369 -626h87z" />
    <glyph glyph-name="_310" unicode="&#xff2f;" 
d="M778 393c0 224 -64 405 -299 405c-232 0 -298 -182 -298 -405c0 -226 67 -405 298 -405c233 0 299 178 299 405zM692 393c0 -202 -48 -329 -213 -329c-164 0 -211 126 -211 329c0 202 48 329 211 329c164 0 213 -128 213 -329z" />
    <glyph glyph-name="_311" unicode="&#xff30;" 
d="M316 377v332h199c111 0 168 -62 168 -166c0 -103 -57 -166 -168 -166h-199zM524 301c159 0 246 92 246 242s-87 242 -246 242h-295v-784h87v300h208z" />
    <glyph glyph-name="_312" unicode="&#xff31;" 
d="M778 393c0 224 -65 405 -299 405c-231 0 -298 -180 -298 -405c0 -227 67 -405 298 -405c84 0 148 24 194 67l96 -82l48 54l-98 83c44 73 59 172 59 283zM692 393c0 -96 -10 -171 -38 -228l-111 96l-49 -54l117 -100c-32 -28 -76 -43 -132 -43c-164 0 -211 125 -211 329
c0 205 49 329 211 329c165 0 213 -126 213 -329z" />
    <glyph glyph-name="_313" unicode="&#xff32;" 
d="M763 1c-13 42 -16 116 -21 182c-8 103 -45 151 -127 166c97 25 143 98 143 203c0 146 -81 233 -245 233h-297v-784h87v309h189c163 0 160 -67 171 -238c2 -30 6 -52 12 -71h88zM303 386v323h199c108 0 168 -53 168 -162c0 -108 -60 -161 -168 -161h-199z" />
    <glyph glyph-name="_314" unicode="&#xff33;" 
d="M744 211c0 118 -70 191 -207 220l-101 21c-89 19 -135 60 -135 134c0 81 59 136 164 136s163 -55 163 -136v-15h87v15c0 116 -87 212 -250 212c-164 0 -250 -96 -250 -212s72 -183 194 -208l101 -21c102 -21 148 -74 148 -147c0 -85 -67 -147 -178 -147
c-113 0 -179 62 -179 147v22h-86v-21c0 -127 95 -223 265 -223c169 0 264 96 264 223z" />
    <glyph glyph-name="_315" unicode="&#xff34;" 
d="M207 709h229v-708h87v708h229v76h-545v-76z" />
    <glyph glyph-name="_316" unicode="&#xff35;" 
d="M480 -12c195 0 282 121 282 303v494h-87v-483c0 -153 -56 -239 -195 -239c-140 0 -197 86 -197 239v483h-86v-494c0 -182 88 -303 283 -303z" />
    <glyph glyph-name="_317" unicode="&#xff36;" 
d="M530 1l274 784h-90l-234 -676l-234 676h-91l275 -784h100z" />
    <glyph glyph-name="_318" unicode="&#xff37;" 
d="M748 1l197 784h-90l-162 -663l-170 663h-86l-170 -663l-162 663h-90l196 -784h104l165 641l164 -641h104z" />
    <glyph glyph-name="_319" unicode="&#xff38;" 
d="M695 1h95l-257 402l243 382h-94l-202 -319l-201 319h-94l241 -382l-257 -402h96l215 339z" />
    <glyph glyph-name="_320" unicode="&#xff39;" 
d="M479 394l-220 391h-92l269 -475v-309h87v309l270 475h-92z" />
    <glyph glyph-name="_321" unicode="&#xff3a;" 
d="M230 70v-69h499v75h-395l390 640v69h-483v-76h379z" />
    <glyph glyph-name="_323" unicode="&#xffe6;" 
d="M738 1l89 374h113v51h-101l86 359h-90l-82 -359h-143l-87 359h-86l-87 -359h-143l-82 359h-90l85 -359h-100v-51h112l89 -374h104l90 374h129l90 -374h104zM532 426h-104l52 216zM219 375h119l-61 -253zM622 375h119l-58 -253z" />
    <glyph glyph-name="_325" unicode="&#xff3e;" 
d="M443 785l-173 -260h83l127 191l126 -191h84l-173 260h-74z" />
    <glyph glyph-name="_327" unicode="&#xff40;" 
d="M507 638h77l-114 181h-94z" />
    <glyph glyph-name="_328" unicode="&#xff41;" 
d="M626 60c0 -23 4 -43 11 -59h84c-7 20 -13 50 -13 77v288c0 127 -75 208 -224 208c-139 0 -214 -69 -223 -175h85c7 64 50 106 138 106c94 0 142 -54 142 -138v-95c-24 46 -84 72 -171 72c-133 0 -216 -67 -216 -178c0 -112 83 -178 216 -178c89 0 148 26 171 72zM626 166
c0 -68 -51 -109 -152 -109s-152 41 -152 109c0 67 51 109 152 109s152 -42 152 -109z" />
    <glyph glyph-name="_329" unicode="&#xff42;" 
d="M342 785h-83v-784h83v88c24 -61 82 -101 171 -101c146 0 228 97 228 293c0 195 -82 293 -228 293c-89 0 -147 -40 -171 -101v312zM342 281c0 139 43 224 159 224c114 0 158 -85 158 -224c0 -140 -44 -224 -158 -224c-116 0 -159 84 -159 224z" />
    <glyph glyph-name="_330" unicode="&#xff43;" 
d="M243 281c0 -185 78 -293 241 -293c136 0 218 70 233 193h-84c-10 -77 -61 -124 -149 -124c-116 0 -158 84 -158 224c0 139 42 224 158 224c88 0 139 -47 149 -124h84c-15 123 -97 193 -233 193c-163 0 -241 -108 -241 -293z" />
    <glyph glyph-name="_331" unicode="&#xff44;" 
d="M618 473c-24 61 -83 101 -171 101c-146 0 -229 -98 -229 -293c0 -196 83 -293 229 -293c88 0 147 40 171 101v-88h83v784h-83v-312zM618 281c0 -140 -43 -224 -159 -224s-158 84 -158 224c0 139 42 224 158 224s159 -85 159 -224z" />
    <glyph glyph-name="_332" unicode="&#xff45;" 
d="M624 166c-11 -64 -64 -109 -142 -109c-110 0 -158 73 -161 200h400v24c0 185 -78 293 -241 293s-241 -108 -241 -293c0 -186 78 -293 243 -293c129 0 207 67 227 178h-85zM322 320c6 116 54 185 158 185s151 -69 157 -185h-315z" />
    <glyph glyph-name="_333" unicode="&#xff46;" 
d="M649 724v65c-22 3 -42 4 -62 4c-126 0 -174 -41 -174 -161v-71h-83v-69h83v-491h83v491h153v69h-153v66c0 73 22 97 100 97h53z" />
    <glyph glyph-name="_334" unicode="&#xff47;" 
d="M638 -32c0 -100 -51 -158 -146 -158c-78 0 -129 37 -139 99h-84c13 -102 93 -167 223 -167c158 0 229 99 229 232v587h-83v-88c-24 61 -82 101 -170 101c-147 0 -229 -98 -229 -293s82 -293 229 -293c88 0 146 40 170 100v-120zM638 281c0 -140 -43 -224 -158 -224
c-116 0 -159 84 -159 224c0 139 43 224 159 224c115 0 158 -85 158 -224z" />
    <glyph glyph-name="_335" unicode="&#xff48;" 
d="M720 349c0 142 -69 225 -196 225c-96 0 -154 -45 -181 -112v323h-83v-784h83v288c0 138 69 216 161 216c88 0 134 -51 134 -176v-328h82v348z" />
    <glyph glyph-name="_336" unicode="&#xff49;" 
d="M521 1v560h-83v-560h83zM521 676v109h-83v-109h83z" />
    <glyph glyph-name="_337" unicode="&#xff4a;" 
d="M537 561h-83v-649c0 -61 -28 -85 -80 -85h-32v-68c9 0 27 -1 38 -1c109 0 157 54 157 162v641zM537 676v109h-83v-109h83z" />
    <glyph glyph-name="_338" unicode="&#xff4b;" 
d="M360 1v258h63l201 -258h98l-228 292l202 268h-95l-177 -233h-64v457h-83v-784h83z" />
    <glyph glyph-name="_339" unicode="&#xff4c;" 
d="M521 1v784h-83v-784h83z" />
    <glyph glyph-name="_340" unicode="&#xff4d;" 
d="M521 289c0 141 65 216 149 216c78 0 121 -46 121 -138v-366h83v364c0 134 -66 209 -186 209c-95 0 -153 -46 -182 -119c-24 78 -87 119 -171 119s-141 -41 -166 -110v97h-83v-560h83v289c0 141 64 215 148 215c78 0 122 -46 122 -138v-366h82v288z" />
    <glyph glyph-name="_341" unicode="&#xff4e;" 
d="M710 349c0 142 -69 225 -196 225c-96 0 -154 -45 -181 -112v99h-83v-560h83v288c0 138 69 216 161 216c88 0 134 -51 134 -176v-328h82v348z" />
    <glyph glyph-name="_342" unicode="&#xff4f;" 
d="M721 281c0 185 -79 293 -242 293s-241 -108 -241 -293s78 -293 241 -293s242 108 242 293zM638 281c0 -140 -43 -224 -159 -224s-158 84 -158 224c0 139 42 224 158 224s159 -85 159 -224z" />
    <glyph glyph-name="_343" unicode="&#xff50;" 
d="M341 88c25 -60 83 -100 171 -100c146 0 229 98 229 293s-83 293 -229 293c-88 0 -146 -40 -171 -101v88h-82v-803h82v330zM341 281c0 139 43 224 159 224c115 0 158 -85 158 -224c0 -140 -43 -224 -158 -224c-116 0 -159 84 -159 224z" />
    <glyph glyph-name="_344" unicode="&#xff51;" 
d="M618 -242h83v803h-83v-88c-24 61 -82 101 -170 101c-147 0 -229 -98 -229 -293s82 -293 229 -293c88 0 146 40 170 100v-330zM618 281c0 -140 -43 -224 -158 -224c-116 0 -159 84 -159 224c0 139 43 224 159 224c115 0 158 -85 158 -224z" />
    <glyph glyph-name="_345" unicode="&#xff52;" 
d="M598 504c18 0 35 -1 44 -2l1 68c-9 3 -26 4 -42 4c-89 0 -140 -41 -162 -112v99h-83v-560h83v285c0 146 64 218 159 218z" />
    <glyph glyph-name="_346" unicode="&#xff53;" 
d="M470 574c-131 0 -203 -69 -203 -159c0 -85 51 -132 171 -156l69 -14c74 -15 105 -41 105 -94c0 -56 -54 -95 -133 -95c-78 0 -132 37 -132 96v19h-83v-19c0 -97 86 -164 215 -164c132 0 216 69 216 164s-51 140 -168 164l-68 14c-78 16 -109 40 -109 87
c0 49 43 89 120 89c78 0 121 -40 121 -90v-15h83v14c0 92 -75 159 -204 159z" />
    <glyph glyph-name="_347" unicode="&#xff54;" 
d="M491 492h163v69h-163v159h-83v-159h-83v-69h83v-343c0 -119 55 -156 178 -156c21 0 47 0 68 2v67h-55c-75 0 -108 19 -108 100v330z" />
    <glyph glyph-name="_348" unicode="&#xff55;" 
d="M250 213c0 -142 69 -225 196 -225c96 0 154 45 182 112v-99h82v560h-82v-288c0 -138 -70 -216 -162 -216c-88 0 -133 51 -133 176v328h-83v-348z" />
    <glyph glyph-name="_349" unicode="&#xff56;" 
d="M528 1l214 560h-88l-174 -465l-174 465h-88l214 -560h96z" />
    <glyph glyph-name="_350" unicode="&#xff57;" 
d="M436 561l-149 -458l-147 458h-86l187 -560h91l147 458l149 -458h90l188 560h-87l-147 -458l-148 458h-88z" />
    <glyph glyph-name="_351" unicode="&#xff58;" 
d="M638 1h92l-199 287l188 273h-92l-147 -215l-147 215h-92l189 -273l-200 -287h91l159 228z" />
    <glyph glyph-name="_352" unicode="&#xff59;" 
d="M397 -107c-21 -55 -47 -67 -88 -67h-28v-67c10 -1 22 -1 35 -1c76 0 120 18 156 110l270 693h-88l-173 -457l-176 457h-88l221 -561z" />
    <glyph glyph-name="_353" unicode="&#xff5a;" 
d="M679 561h-397v-69h294l-303 -428v-63h414v69h-312l304 428v63z" />
    <glyph glyph-name="_358" unicode="&#x3131;" 
d="M185 643v-70h500v-407h80v477h-580z" />
    <glyph glyph-name="_359" unicode="&#x3132;" 
d="M145 643v-70h221v-407h80v477h-301zM500 643v-70h225v-407h80v477h-305z" />
    <glyph glyph-name="_360" unicode="&#x3133;" 
d="M130 643v-70h211v-407h80v477h-291zM606 643v-191c0 -127 -57 -190 -135 -217v-69c80 18 149 72 175 133c29 -61 96 -114 175 -133v69c-77 27 -135 91 -135 217v191h-80z" />
    <glyph glyph-name="_361" unicode="&#x3134;" 
d="M775 166v70h-500v407h-80v-477h580z" />
    <glyph glyph-name="_362" unicode="&#x3135;" 
d="M405 236h-182v407h-80v-477h262v70zM812 643h-357v-70h138v-167c0 -97 -74 -156 -144 -170v-69c81 13 155 62 184 121c29 -58 107 -108 185 -121v69c-70 14 -145 74 -145 170v167h139v70z" />
    <glyph glyph-name="_363" unicode="&#x3136;" 
d="M415 236h-192v407h-80v-477h272v70zM415 589v-68h426v68h-172v99h-83v-99h-171zM517 310c0 25 8 47 24 63c19 20 49 31 86 31s67 -11 86 -31c16 -16 24 -38 24 -63s-8 -47 -24 -63c-19 -20 -49 -31 -86 -31s-67 11 -86 31c-16 16 -24 38 -24 63zM440 310
c0 -47 19 -85 49 -112c35 -31 84 -47 138 -47s103 16 138 47c30 27 49 65 49 112s-19 85 -49 112c-35 31 -84 47 -138 47s-103 -16 -138 -47c-30 -27 -49 -65 -49 -112z" />
    <glyph glyph-name="_364" unicode="&#x3137;" 
d="M275 236v337h490v70h-570v-477h580v70h-500z" />
    <glyph glyph-name="_365" unicode="&#x3138;" 
d="M584 236v337h216v70h-296v-477h306v70h-226zM238 573h205v70h-285v-477h296v70h-216v337z" />
    <glyph glyph-name="_366" unicode="&#x3139;" 
d="M280 226v145h480v282h-560v-70h480v-142h-480v-285h580v70h-500z" />
    <glyph glyph-name="_367" unicode="&#x313a;" 
d="M519 232h-289v142h228v269h-305v-66h227v-139h-227v-272h366v66zM812 643h-303v-68h224v-409h79v477z" />
    <glyph glyph-name="_368" unicode="&#x313b;" 
d="M508 643v-477h304v477h-304zM585 576h150v-343h-150v343zM464 232h-234v142h213v269h-290v-66h212v-139h-212v-272h311v66z" />
    <glyph glyph-name="_369" unicode="&#x313c;" 
d="M585 473v170h-77v-477h304v477h-77v-170h-150zM585 407h150v-174h-150v174zM464 232h-234v142h213v269h-290v-66h212v-139h-212v-272h311v66z" />
    <glyph glyph-name="_370" unicode="&#x313d;" 
d="M454 232h-224v142h213v269h-290v-66h212v-139h-212v-272h301v66zM611 447c0 -124 -55 -187 -130 -212v-69c78 17 145 69 170 128c29 -59 93 -110 170 -128v69c-74 25 -130 89 -130 212v196h-80v-196z" />
    <glyph glyph-name="_371" unicode="&#x313e;" 
d="M586 232v142h216v64h-216v139h226v66h-304v-477h311v66h-233zM464 166v66h-234v142h213v269h-290v-66h212v-139h-212v-272h311z" />
    <glyph glyph-name="_372" unicode="&#x313f;" 
d="M614 576h72v-343h-72v343zM763 233v343h49v67h-324v-67h49v-343h-52v-67h332v67h-54zM454 166v66h-224v142h208v269h-285v-66h207v-139h-207v-272h301z" />
    <glyph glyph-name="_373" unicode="&#x3140;" 
d="M464 232h-234v142h203v269h-280v-66h202v-139h-202v-272h311v66zM470 589v-68h366v68h-143v99h-83v-99h-140zM562 310c0 26 8 48 22 65c15 18 38 29 68 29s53 -11 68 -29c14 -17 22 -39 22 -65s-8 -48 -22 -65c-15 -18 -38 -29 -68 -29s-53 11 -68 29
c-14 17 -22 39 -22 65zM485 310c0 -45 17 -84 45 -112c30 -30 73 -47 122 -47s92 17 122 47c28 28 45 67 45 112s-17 84 -45 112c-30 30 -73 47 -122 47s-92 -17 -122 -47c-28 -28 -45 -67 -45 -112z" />
    <glyph glyph-name="_374" unicode="&#x3141;" 
d="M195 643v-477h570v477h-570zM685 573v-337h-410v337h410z" />
    <glyph glyph-name="_375" unicode="&#x3142;" 
d="M275 465v178h-80v-477h570v477h-80v-178h-410zM685 395v-159h-410v159h410z" />
    <glyph glyph-name="_376" unicode="&#x3143;" 
d="M254 464v179h-79v-477h610v477h-79v-179h-183v179h-78v-179h-191zM706 396v-162h-183v162h183zM445 396v-162h-191v162h191z" />
    <glyph glyph-name="_377" unicode="&#x3144;" 
d="M230 473v170h-77v-477h304v477h-77v-170h-150zM230 407h150v-174h-150v174zM611 447c0 -124 -55 -187 -130 -212v-69c78 17 145 69 170 128c29 -59 93 -110 170 -128v69c-74 25 -130 89 -130 212v196h-80v-196z" />
    <glyph glyph-name="_378" unicode="&#x3145;" 
d="M479 365c50 -102 174 -182 322 -205v72c-162 24 -282 132 -282 317v104h-81v-104c0 -185 -125 -291 -281 -317v-72c149 20 271 104 322 205z" />
    <glyph glyph-name="_379" unicode="&#x3146;" 
d="M479 165c72 31 132 92 161 154c34 -64 112 -128 203 -154v71c-89 33 -161 115 -161 231v176h-81v-175c0 -103 -59 -189 -123 -227c-66 37 -122 124 -122 227v175h-81v-176c0 -116 -74 -200 -162 -231v-71c91 26 170 90 204 154c30 -62 91 -125 162 -154z" />
    <glyph glyph-name="_380" unicode="&#x3147;" 
d="M256 405c0 53 20 97 56 129c39 34 97 54 168 54s129 -20 168 -54c36 -32 56 -76 56 -129s-20 -97 -56 -129c-39 -34 -97 -54 -168 -54s-129 20 -168 54c-36 32 -56 76 -56 129zM176 405c0 -79 32 -144 90 -189c52 -41 126 -64 214 -64s162 23 214 64c58 45 90 110 90 189
s-32 144 -90 189c-52 41 -126 64 -214 64s-162 -23 -214 -64c-58 -45 -90 -110 -90 -189z" />
    <glyph glyph-name="_381" unicode="&#x3148;" 
d="M438 573v-43c0 -170 -130 -270 -269 -296v-72c133 22 255 103 310 205c56 -101 173 -183 308 -205v72c-142 26 -268 126 -268 296v43h260v70h-599v-70h258z" />
    <glyph glyph-name="_382" unicode="&#x3149;" 
d="M827 573v70h-683v-70h136v-106c0 -116 -73 -202 -157 -231v-71c89 25 165 90 199 154c30 -62 89 -126 157 -154c69 30 127 92 156 154c34 -64 109 -129 198 -154v71c-85 32 -156 115 -156 231v106h150zM596 573v-105c0 -103 -57 -190 -118 -227c-62 36 -117 124 -117 227
v105h235z" />
    <glyph glyph-name="_383" unicode="&#x314a;" 
d="M779 578h-260v130h-81v-130h-258v-70h258v-3c0 -149 -130 -253 -269 -276v-72c131 19 255 98 310 195c56 -96 175 -176 308 -195v72c-142 23 -268 127 -268 276v3h260v70z" />
    <glyph glyph-name="_384" unicode="&#x314b;" 
d="M195 643v-70h490v-146c-73 -11 -172 -16 -253 -16h-237v-70h236c85 0 182 6 254 19v-194h80v477h-570z" />
    <glyph glyph-name="_385" unicode="&#x314c;" 
d="M280 226v145h470v70h-470v142h480v70h-560v-497h580v70h-500z" />
    <glyph glyph-name="_386" unicode="&#x314d;" 
d="M598 427c0 -68 -6 -141 -25 -191h-208v337h233v-146zM678 573h107v70h-610v-70h110v-337h-130v-70h650v70h-153c19 50 26 125 26 198v139z" />
    <glyph glyph-name="_387" unicode="&#x314e;" 
d="M162 603v-70h636v70h-278v114h-82v-114h-276zM685 305c0 -22 -10 -41 -28 -56c-33 -28 -95 -42 -177 -42s-144 14 -177 42c-18 15 -28 34 -28 56s10 41 28 56c33 28 95 42 177 42s144 -14 177 -42c18 -15 28 -34 28 -56zM195 305c0 -41 18 -76 50 -103
c49 -42 131 -65 235 -65s186 23 235 65c32 27 50 62 50 103s-18 76 -50 103c-49 42 -131 65 -235 65s-186 -23 -235 -65c-32 -27 -50 -62 -50 -103z" />
    <glyph glyph-name="_388" unicode="&#x314f;" 
d="M419 842v-895h80v449h176v70h-176v376h-80z" />
    <glyph glyph-name="_389" unicode="&#x3150;" 
d="M633 842h-78v-369h-151v364h-78v-880h78v446h151v-456h78v895z" />
    <glyph glyph-name="_390" unicode="&#x3151;" 
d="M419 842v-894h80v290h174v70h-174v232h174v70h-174v232h-80z" />
    <glyph glyph-name="_391" unicode="&#x3152;" 
d="M633 842h-78v-216h-151v211h-78v-880h78v274h151v-283h78v894zM555 557v-256h-151v256h151z" />
    <glyph glyph-name="_392" unicode="&#x3153;" 
d="M459 842v-376h-176v-70h176v-449h80v895h-80z" />
    <glyph glyph-name="_393" unicode="&#x3154;" 
d="M452 837h-78v-363h-163v-69h163v-448h78v880zM644 842h-78v-895h78v895z" />
    <glyph glyph-name="_394" unicode="&#x3155;" 
d="M459 842v-232h-174v-70h174v-222h-174v-70h174v-300h80v894h-80z" />
    <glyph glyph-name="_395" unicode="&#x3156;" 
d="M452 837h-78v-227h-160v-70h160v-222h-160v-69h160v-292h78v880zM644 842h-78v-895h78v895z" />
    <glyph glyph-name="_396" unicode="&#x3157;" 
d="M878 187v70h-359v375h-81v-375h-356v-70h796z" />
    <glyph glyph-name="_397" unicode="&#x3158;" 
d="M683 842v-677c-43 -36 -118 -56 -207 -56h-131v325h-80v-325h-220v-70h419c96 0 175 19 219 59v-150h80v448h156v70h-156v376h-80z" />
    <glyph glyph-name="_398" unicode="&#x3159;" 
d="M256 109h-171v-70h282c87 0 156 17 194 52v-132h78v449h121v-460h78v894h-78v-363h-121v358h-78v-680c-37 -32 -102 -48 -181 -48h-46v324h-78v-324z" />
    <glyph glyph-name="_399" unicode="&#x315a;" 
d="M815 842h-81v-677c-53 -43 -140 -56 -228 -56h-118v325h-81v-325h-232v-70h402c115 0 208 14 257 59v-151h81v895z" />
    <glyph glyph-name="_400" unicode="&#x315b;" 
d="M878 187v70h-197v355h-79v-355h-242v355h-79v-355h-199v-70h796z" />
    <glyph glyph-name="_401" unicode="&#x315c;" 
d="M438 362v-370h81v370h359v71h-796v-71h356z" />
    <glyph glyph-name="_402" unicode="&#x315d;" 
d="M735 842v-660h-215v-70h215v-164h80v894h-80zM471 315c71 0 141 8 189 32v67c-50 -18 -123 -29 -186 -29h-409v-70h219v-368h80v368h107z" />
    <glyph glyph-name="_403" unicode="&#x315e;" 
d="M760 -53h78v895h-78v-895zM351 322c66 0 125 5 169 27v66c-46 -19 -104 -23 -166 -23h-269v-70h155v-376h80v376h31zM652 837h-78v-642h-146v-70h146v-168h78v880z" />
    <glyph glyph-name="_404" unicode="&#x315f;" 
d="M512 299c99 0 177 21 223 58v-410h80v895h-80v-418c-49 -38 -123 -55 -203 -55h-467v-70h233v-353h80v353h134z" />
    <glyph glyph-name="_405" unicode="&#x3160;" 
d="M275 362v-358h79v358h255v-358h79v358h190v71h-796v-71h193z" />
    <glyph glyph-name="_406" unicode="&#x3161;" 
d="M878 187v70h-796v-70h796z" />
    <glyph glyph-name="_407" unicode="&#x3162;" 
d="M805 842h-81v-677c-53 -43 -140 -56 -228 -56h-431v-70h402c115 0 208 14 257 59v-151h81v895z" />
    <glyph glyph-name="_408" unicode="&#x3163;" 
d="M439 842v-894h81v894h-81z" />
    <glyph glyph-name="_409" unicode="&#x3165;" 
d="M455 236h-222v407h-80v-477h302v70zM815 236h-232v407h-80v-477h312v70z" />
    <glyph glyph-name="_410" unicode="&#x3166;" 
d="M583 236v337h221v70h-301v-477h307v70h-227zM455 166v70h-222v407h-80v-477h302z" />
    <glyph glyph-name="_411" unicode="&#x3167;" 
d="M435 236h-202v407h-80v-477h282v70zM606 452c0 -127 -57 -190 -135 -217v-69c80 18 149 72 175 133c29 -61 96 -114 175 -133v69c-77 27 -135 91 -135 217v191h-80v-191z" />
    <glyph glyph-name="_412" unicode="&#x3168;" 
d="M635 491l80 -257h-163zM635 683l-188 -517h374zM435 166v70h-202v407h-80v-477h282z" />
    <glyph glyph-name="_413" unicode="&#x3169;" 
d="M717 447c0 -125 -44 -188 -104 -213v-70c64 18 118 64 141 117c26 -49 80 -99 141 -117v70c-59 25 -104 89 -104 213v196h-74v-196zM365 234h-204v139h164v270h-236v-68h163v-137h-163v-272h276v68zM583 643h-221v-68h148v-409h73v477z" />
    <glyph glyph-name="_414" unicode="&#x316a;" 
d="M474 232h-244v142h223v269h-300v-66h222v-139h-222v-272h321v66zM598 236v337h214v70h-294v-477h300v70h-220z" />
    <glyph glyph-name="_415" unicode="&#x316b;" 
d="M435 474v169h-72v-477h239v477h-73v-169h-94zM435 406h94v-172h-94v172zM720 447c0 -123 -41 -188 -101 -213v-70c63 18 116 65 138 117c25 -48 78 -99 138 -117v70c-59 25 -101 91 -101 213v196h-74v-196zM330 234h-169v139h154v270h-226v-68h153v-137h-153v-272h241v68
z" />
    <glyph glyph-name="_416" unicode="&#x316c;" 
d="M642 498l84 -264h-171zM153 166h675l-186 516l-178 -491v41h-234v142h213v269h-290v-66h212v-139h-212v-272z" />
    <glyph glyph-name="_417" unicode="&#x316d;" 
d="M735 321c0 -35 -10 -64 -31 -82c-13 -11 -31 -18 -52 -18c-23 0 -41 7 -54 18c-21 18 -31 47 -31 82s10 64 31 82c13 11 31 18 54 18c21 0 39 -7 52 -18c21 -18 31 -47 31 -82zM825 573v70h-345v-70h345zM464 232h-234v142h203v269h-280v-66h202v-139h-202v-272h311v66z
M489 321c0 -58 23 -106 62 -136c26 -20 60 -32 100 -32s74 12 100 32c39 30 62 78 62 136s-23 106 -62 136c-26 20 -60 32 -100 32s-74 -12 -100 -32c-39 -30 -62 -78 -62 -136z" />
    <glyph glyph-name="_418" unicode="&#x316e;" 
d="M589 473v170h-77v-477h300v477h-77v-170h-146zM589 407h146v-174h-146v174zM153 643v-477h300v477h-300zM230 576h146v-343h-146v343z" />
    <glyph glyph-name="_419" unicode="&#x316f;" 
d="M153 643v-477h300v477h-300zM230 576h146v-343h-146v343zM611 447c0 -124 -55 -187 -130 -212v-69c78 17 145 69 170 128c29 -59 93 -110 170 -128v69c-74 25 -130 89 -130 212v196h-80v-196z" />
    <glyph glyph-name="_420" unicode="&#x3170;" 
d="M153 643v-477h300v477h-300zM230 576h146v-343h-146v343zM642 498l84 -264h-171zM642 682l-187 -516h373z" />
    <glyph glyph-name="_421" unicode="&#x3171;" 
d="M235 746v-347h490v347h-490zM645 676v-207h-330v207h330zM362 188c0 20 7 38 21 52c19 18 51 29 97 29s78 -11 97 -29c14 -14 21 -32 21 -52s-7 -38 -21 -52c-19 -18 -51 -29 -97 -29s-78 11 -97 29c-14 14 -21 32 -21 52zM282 188c0 -40 16 -75 46 -101
c35 -30 87 -48 152 -48s117 18 152 48c30 26 46 61 46 101s-16 75 -46 101c-35 30 -87 48 -152 48s-117 -18 -152 -48c-30 -26 -46 -61 -46 -101z" />
    <glyph glyph-name="_422" unicode="&#x3172;" 
d="M230 473v170h-77v-477h314v477h-77v-170h-160zM230 407h160v-174h-160v174zM812 643h-293v-68h214v-409h79v477z" />
    <glyph glyph-name="_423" unicode="&#x3173;" 
d="M230 473v170h-77v-477h304v477h-77v-170h-150zM230 407h150v-174h-150v174zM598 236v337h214v70h-294v-477h300v70h-220z" />
    <glyph glyph-name="_424" unicode="&#x3174;" 
d="M181 474v169h-72v-477h244v477h-73v-169h-99zM181 406h99v-172h-99v172zM476 447c0 -123 -41 -188 -101 -213v-70c63 18 116 65 138 117c25 -48 78 -99 138 -117v70c-59 25 -101 91 -101 213v196h-74v-196zM843 643h-221v-68h148v-409h73v477z" />
    <glyph glyph-name="_425" unicode="&#x3175;" 
d="M843 643h-200v-477h210v68h-137v341h127v68zM181 474v169h-72v-477h234v477h-73v-169h-89zM181 406h89v-172h-89v172zM456 437c0 -118 -35 -178 -91 -203v-70c59 19 104 59 128 109c24 -47 72 -90 128 -109v70c-55 25 -91 86 -91 203v206h-74v-206z" />
    <glyph glyph-name="_426" unicode="&#x3176;" 
d="M818 573v70h-318v-70h116v-126c0 -124 -55 -188 -125 -212v-69c74 17 139 70 165 128c29 -57 90 -110 165 -128v69c-69 24 -125 89 -125 212v126h122zM230 473v170h-77v-477h304v477h-77v-170h-150zM230 407h150v-174h-150v174z" />
    <glyph glyph-name="_427" unicode="&#x3177;" 
d="M230 473v170h-77v-477h304v477h-77v-170h-150zM230 407h150v-174h-150v174zM600 232v142h202v64h-202v139h212v66h-290v-477h297v66h-219z" />
    <glyph glyph-name="_428" unicode="&#x3178;" 
d="M315 633v113h-80v-347h490v347h-80v-113h-330zM645 563v-94h-330v94h330zM362 188c0 20 7 38 21 52c19 18 51 29 97 29s78 -11 97 -29c14 -14 21 -32 21 -52s-7 -38 -21 -52c-19 -18 -51 -29 -97 -29s-78 11 -97 29c-14 14 -21 32 -21 52zM282 188c0 -40 16 -75 46 -101
c35 -30 87 -48 152 -48s117 18 152 48c30 26 46 61 46 101s-16 75 -46 101c-35 30 -87 48 -152 48s-117 -18 -152 -48c-30 -26 -46 -61 -46 -101z" />
    <glyph glyph-name="_429" unicode="&#x3179;" 
d="M294 632v114h-79v-347h530v347h-78v-114h-144v114h-77v-114h-152zM667 564v-97h-144v97h144zM446 564v-97h-152v97h152zM362 188c0 20 7 38 21 52c19 18 51 29 97 29s78 -11 97 -29c14 -14 21 -32 21 -52s-7 -38 -21 -52c-19 -18 -51 -29 -97 -29s-78 11 -97 29
c-14 14 -21 32 -21 52zM282 188c0 -40 16 -75 46 -101c35 -30 87 -48 152 -48s117 18 152 48c30 26 46 61 46 101s-16 75 -46 101c-35 30 -87 48 -152 48s-117 -18 -152 -48c-30 -26 -46 -61 -46 -101z" />
    <glyph glyph-name="_430" unicode="&#x317a;" 
d="M296 452c0 -127 -57 -190 -135 -217v-69c80 18 149 72 175 133c29 -61 96 -114 175 -133v69c-77 27 -135 91 -135 217v191h-80v-191zM505 643v-70h211v-407h80v477h-291z" />
    <glyph glyph-name="_431" unicode="&#x317b;" 
d="M805 236h-202v407h-80v-477h282v70zM271 447c0 -124 -55 -187 -130 -212v-69c78 17 145 69 170 128c29 -59 93 -110 170 -128v69c-74 25 -130 89 -130 212v196h-80v-196z" />
    <glyph glyph-name="_432" unicode="&#x317c;" 
d="M261 447c0 -124 -55 -187 -130 -212v-69c78 17 145 69 170 128c29 -59 93 -110 170 -128v69c-74 25 -130 89 -130 212v196h-80v-196zM588 236v337h214v70h-294v-477h300v70h-220z" />
    <glyph glyph-name="_433" unicode="&#x317d;" 
d="M261 447c0 -124 -55 -187 -130 -212v-69c78 17 145 69 170 128c29 -59 93 -110 170 -128v69c-74 25 -130 89 -130 212v196h-80v-196zM585 473v170h-77v-477h304v477h-77v-170h-150zM585 407h150v-174h-150v174z" />
    <glyph glyph-name="_434" unicode="&#x317e;" 
d="M827 573v70h-363v-70h137v-105c0 -103 -59 -189 -123 -227c-66 37 -122 124 -122 227v175h-81v-176c0 -116 -69 -200 -152 -231v-71c86 26 160 90 194 154c30 -62 91 -125 162 -154c72 31 132 92 161 154c34 -64 107 -128 193 -154v71c-84 33 -151 115 -151 231v106h145z
" />
    <glyph glyph-name="_435" unicode="&#x317f;" 
d="M165 166h631l-318 539zM477 558l190 -324h-375z" />
    <glyph glyph-name="_436" unicode="&#x3180;" 
d="M210 405c0 75 12 133 40 161c13 13 29 20 48 20s35 -7 48 -20c28 -28 40 -86 40 -161s-12 -133 -40 -161c-13 -13 -29 -20 -48 -20s-35 7 -48 20c-28 28 -40 86 -40 161zM133 405c0 -101 25 -174 70 -214c25 -22 58 -34 95 -34s70 12 95 34c45 40 70 113 70 214
s-25 174 -70 214c-25 22 -58 34 -95 34s-70 -12 -95 -34c-45 -40 -70 -113 -70 -214zM579 405c0 75 12 133 40 161c13 13 29 20 48 20s35 -7 48 -20c28 -28 40 -86 40 -161s-12 -133 -40 -161c-13 -13 -29 -20 -48 -20s-35 7 -48 20c-28 28 -40 86 -40 161zM502 405
c0 -101 25 -174 70 -214c25 -22 58 -34 95 -34s70 12 95 34c45 40 70 113 70 214s-25 174 -70 214c-25 22 -58 34 -95 34s-70 -12 -95 -34c-45 -40 -70 -113 -70 -214z" />
    <glyph glyph-name="_437" unicode="&#x3181;" 
d="M520 717h-81v-140c-79 -6 -145 -30 -191 -68c-47 -38 -73 -91 -73 -154s26 -116 73 -154c53 -44 134 -69 231 -69s178 25 231 69c47 38 73 91 73 154s-26 116 -73 154c-45 38 -111 61 -190 67v141zM255 355c0 41 17 76 48 102c39 32 100 51 176 51s137 -19 176 -51
c31 -26 48 -61 48 -102s-17 -76 -48 -102c-39 -32 -100 -51 -176 -51s-137 19 -176 51c-31 26 -48 61 -48 102z" />
    <glyph glyph-name="_438" unicode="&#x3182;" 
d="M341 668h-82v-119c-26 -6 -49 -17 -68 -34c-38 -34 -58 -89 -58 -160s20 -126 58 -160c28 -25 65 -38 109 -38s81 13 109 38c38 34 58 89 58 160s-20 126 -58 160c-19 17 -42 28 -68 34v119zM606 643v-191c0 -127 -57 -190 -135 -217v-69c80 18 149 72 175 133
c29 -61 96 -114 175 -133v69c-77 27 -135 91 -135 217v191h-80zM210 355c0 50 11 87 31 108c15 16 35 23 59 23s44 -7 59 -23c20 -21 31 -58 31 -108s-11 -87 -31 -108c-15 -16 -35 -23 -59 -23s-44 7 -59 23c-20 21 -31 58 -31 108z" />
    <glyph glyph-name="_439" unicode="&#x3183;" 
d="M341 668h-82v-119c-26 -6 -49 -17 -68 -34c-38 -34 -58 -89 -58 -160s20 -126 58 -160c28 -25 65 -38 109 -38s81 13 109 38c38 34 58 89 58 160s-20 126 -58 160c-19 17 -42 28 -68 34v119zM210 355c0 50 11 87 31 108c15 16 35 23 59 23s44 -7 59 -23
c20 -21 31 -58 31 -108s-11 -87 -31 -108c-15 -16 -35 -23 -59 -23s-44 7 -59 23c-20 21 -31 58 -31 108zM642 491l80 -257h-163zM642 683l-188 -517h374z" />
    <glyph glyph-name="_440" unicode="&#x3184;" 
d="M195 399h570v70h-128c15 37 20 90 20 140v67h88v70h-530v-70h91v-207h-111v-70zM386 676h191v-75c0 -47 -3 -95 -19 -132h-172v207zM362 188c0 20 7 38 21 52c19 18 51 29 97 29s78 -11 97 -29c14 -14 21 -32 21 -52s-7 -38 -21 -52c-19 -18 -51 -29 -97 -29
s-78 11 -97 29c-14 14 -21 32 -21 52zM282 188c0 -40 16 -75 46 -101c35 -30 87 -48 152 -48s117 18 152 48c30 26 46 61 46 101s-16 75 -46 101c-35 30 -87 48 -152 48s-117 -18 -152 -48c-30 -26 -46 -61 -46 -101z" />
    <glyph glyph-name="_441" unicode="&#x3185;" 
d="M738 306c0 -30 -8 -56 -25 -73c-13 -13 -32 -20 -56 -20s-43 7 -56 20c-17 17 -25 43 -25 73s8 56 25 73c13 13 32 20 56 20s43 -7 56 -20c17 -17 25 -43 25 -73zM825 521v68h-128v99h-83v-99h-114v-68h325zM499 306c0 -54 20 -98 54 -125c27 -22 62 -33 104 -33
s77 11 104 33c34 27 54 71 54 125s-20 98 -54 125c-27 22 -62 33 -104 33s-77 -11 -104 -33c-34 -27 -54 -71 -54 -125zM222 306c0 30 8 56 25 73c13 13 32 20 56 20s43 -7 56 -20c17 -17 25 -43 25 -73s-8 -56 -25 -73c-13 -13 -32 -20 -56 -20s-43 7 -56 20
c-17 17 -25 43 -25 73zM460 521v68h-114v99h-83v-99h-128v-68h325zM461 306c0 54 -20 98 -54 125c-27 22 -62 33 -104 33s-77 -11 -104 -33c-34 -27 -54 -71 -54 -125s20 -98 54 -125c27 -22 62 -33 104 -33s77 11 104 33c34 27 54 71 54 125z" />
    <glyph glyph-name="_442" unicode="&#x3186;" 
d="M185 643v-70h590v70h-590zM655 325c0 -25 -9 -46 -27 -62c-29 -26 -79 -41 -148 -41s-119 15 -148 41c-18 16 -27 37 -27 62s9 46 27 62c29 26 79 41 148 41s119 -15 148 -41c18 -16 27 -37 27 -62zM225 325c0 -47 17 -85 50 -114c44 -39 115 -59 205 -59s161 20 205 59
c33 29 50 67 50 114s-17 85 -50 114c-44 39 -115 59 -205 59s-161 -20 -205 -59c-33 -29 -50 -67 -50 -114z" />
    <glyph glyph-name="_443" unicode="&#x3187;" 
d="M683 842v-677c-42 -35 -113 -55 -198 -56v325h-80v-325h-140v325h-80v-325h-140v-70h419c96 0 175 19 219 59v-150h80v318h156v70h-156v180h156v70h-156v256h-80z" />
    <glyph glyph-name="_444" unicode="&#x3188;" 
d="M838 -52v894h-78v-263h-121v258h-78v-680c-28 -24 -73 -39 -127 -45v321h-78v-324h-92v324h-78v-324h-101v-70h282c87 0 156 17 194 52v-132h78v299h121v-310h78zM760 329h-121v179h121v-179z" />
    <glyph glyph-name="_445" unicode="&#x3189;" 
d="M815 842h-81v-677c-47 -38 -119 -52 -196 -55v324h-81v-325h-139v325h-81v-325h-162v-70h402c115 0 208 14 257 59v-151h81v895z" />
    <glyph glyph-name="_446" unicode="&#x318a;" 
d="M735 842v-570h-205v-70h205v-80h-205v-70h205v-104h80v894h-80zM471 335c71 0 141 8 189 32v67c-50 -18 -123 -29 -186 -29h-409v-70h119v-388h80v388h110v-388h80v388h17z" />
    <glyph glyph-name="_447" unicode="&#x318b;" 
d="M760 -53h78v895h-78v-895zM320 342v-396h80v397c50 2 95 8 130 26v66c-46 -19 -104 -23 -166 -23h-279v-70h85v-396h80v396h70zM662 837h-78v-552h-136v-70h136v-80h-136v-70h136v-108h78v880z" />
    <glyph glyph-name="_448" unicode="&#x318c;" 
d="M453 299v-353h80v353c89 3 159 24 202 58v-410h80v895h-80v-418c-49 -38 -123 -55 -203 -55h-467v-70h158v-353h80v353h150z" />
    <glyph glyph-name="_449" unicode="&#x318d;" 
d="M527 475h-95v-119h95v119z" />
    <glyph glyph-name="_450" unicode="&#x318e;" 
d="M416 476h-95v-119h95v119zM549 842v-894h81v894h-81z" />
    <glyph glyph-name="_451" unicode="&#x2170;" 
d="M521 1v560h-83v-560h83zM521 676v109h-83v-109h83z" />
    <glyph glyph-name="_452" unicode="&#x2171;" 
d="M381 1v560h-83v-560h83zM381 676v109h-83v-109h83zM661 1v560h-83v-560h83zM661 676v109h-83v-109h83z" />
    <glyph glyph-name="_453" unicode="&#x2172;" 
d="M521 1v560h-83v-560h83zM521 676v109h-83v-109h83zM301 1v560h-83v-560h83zM301 676v109h-83v-109h83zM741 1v560h-83v-560h83zM741 676v109h-83v-109h83z" />
    <glyph glyph-name="_454" unicode="&#x2173;" 
d="M311 1v560h-83v-560h83zM311 676v109h-83v-109h83zM638 1l204 560h-88l-164 -466l-164 466h-88l204 -560h96z" />
    <glyph glyph-name="_455" unicode="&#x2174;" 
d="M528 1l214 560h-88l-174 -465l-174 465h-88l214 -560h96z" />
    <glyph glyph-name="_456" unicode="&#x2175;" 
d="M438 1l204 560h-88l-164 -466l-164 466h-88l204 -560h96zM751 1v560h-83v-560h83zM751 676v109h-83v-109h83z" />
    <glyph glyph-name="_457" unicode="&#x2176;" 
d="M348 1l164 560h-88l-124 -466l-124 466h-88l164 -560h96zM631 1v560h-83v-560h83zM631 676v109h-83v-109h83zM801 1v560h-83v-560h83zM801 676v109h-83v-109h83z" />
    <glyph glyph-name="_458" unicode="&#x2177;" 
d="M275 1l141 560h-88l-101 -466l-101 466h-88l141 -560h96zM531 1v560h-83v-560h83zM531 676v109h-83v-109h83zM701 1v560h-83v-560h83zM701 676v109h-83v-109h83zM871 1v560h-83v-560h83zM871 676v109h-83v-109h83z" />
    <glyph glyph-name="_459" unicode="&#x2178;" 
d="M758 1h92l-202 291l187 269h-92l-141 -203l-141 203h-92l187 -269l-202 -291h92l156 225zM311 1v560h-83v-560h83zM311 676v109h-83v-109h83z" />
    <glyph glyph-name="_460" unicode="&#x2179;" 
d="M638 1h92l-199 287l188 273h-92l-147 -215l-147 215h-92l189 -273l-200 -287h91l159 228z" />
    <glyph glyph-name="_461" unicode="&#x2160;" 
d="M589 1v75h-66v634h66v75h-219v-75h66v-634h-66v-75h219z" />
    <glyph glyph-name="_462" unicode="&#x2161;" 
d="M434 1v75h-61v634h61v75h-209v-75h61v-634h-61v-75h209zM734 1v75h-61v634h61v75h-209v-75h61v-634h-61v-75h209z" />
    <glyph glyph-name="_463" unicode="&#x2162;" 
d="M819 1v75h-56v634h56v75h-199v-75h56v-634h-56v-75h199zM579 1v75h-56v634h56v75h-199v-75h56v-634h-56v-75h199zM339 1v75h-56v634h56v75h-199v-75h56v-634h-56v-75h199z" />
    <glyph glyph-name="_464" unicode="&#x2163;" 
d="M331 1v75h-61v634h61v75h-209v-75h61v-634h-61v-75h209zM670 1l210 784h-91l-173 -685l-173 685h-89l208 -784h108z" />
    <glyph glyph-name="_465" unicode="&#x2164;" 
d="M530 1l274 784h-90l-234 -676l-234 676h-91l275 -784h100z" />
    <glyph glyph-name="_466" unicode="&#x2165;" 
d="M840 1v75h-61v634h61v75h-209v-75h61v-634h-61v-75h209zM400 1l210 784h-91l-173 -685l-173 685h-89l208 -784h108z" />
    <glyph glyph-name="_467" unicode="&#x2166;" 
d="M909 1v75h-51v634h51v75h-189v-75h51v-634h-51v-75h189zM689 1v75h-51v634h51v75h-189v-75h51v-634h-51v-75h189zM308 1l172 784h-89l-135 -676l-135 676h-87l170 -784h104z" />
    <glyph glyph-name="_468" unicode="&#x2167;" 
d="M929 1v75h-42v634h42v75h-169v-75h42v-634h-42v-75h169zM739 1v75h-42v634h42v75h-169v-75h42v-634h-42v-75h169zM549 1v75h-42v634h42v75h-169v-75h42v-634h-42v-75h169zM249 1l111 784h-87l-82 -679l-82 679h-85l109 -784h116z" />
    <glyph glyph-name="_469" unicode="&#x2168;" 
d="M311 1v75h-61v634h61v75h-209v-75h61v-634h-61v-75h209zM892 785h-93l-184 -306l-183 306h-94l231 -384l-241 -400h93l194 323l194 -323h93l-240 401z" />
    <glyph glyph-name="_470" unicode="&#x2169;" 
d="M695 1h95l-257 402l243 382h-94l-202 -319l-201 319h-94l241 -382l-257 -402h96l215 339z" />
    <glyph glyph-name="_471" unicode="&#x391;" horiz-adv-x="671" 
d="M285 785l-275 -784h91l63 186h342l63 -186h90l-274 784h-100zM479 263h-290l146 432z" />
    <glyph glyph-name="_472" unicode="&#x392;" horiz-adv-x="660" 
d="M164 442v267h180c111 0 165 -42 165 -134c0 -91 -54 -133 -165 -133h-180zM376 1c161 0 242 72 242 216c0 102 -52 173 -147 190c75 17 124 79 124 174c0 131 -78 204 -232 204h-286v-784h299zM531 221c0 -96 -49 -145 -175 -145h-192v290h192c126 0 175 -48 175 -145z
" />
    <glyph glyph-name="_473" unicode="&#x393;" horiz-adv-x="537" 
d="M77 785v-784h87v708h362v76h-449z" />
    <glyph glyph-name="_474" unicode="&#x394;" horiz-adv-x="671" 
d="M285 785l-275 -784h649l-274 784h-100zM543 77h-417l209 618z" />
    <glyph glyph-name="_475" unicode="&#x395;" horiz-adv-x="579" 
d="M77 1h458v75h-371v288h325v77h-325v268h365v76h-452v-784z" />
    <glyph glyph-name="_476" unicode="&#x396;" horiz-adv-x="588" 
d="M44 70v-69h499v75h-395l390 640v69h-483v-76h379z" />
    <glyph glyph-name="_477" unicode="&#x397;" horiz-adv-x="686" 
d="M522 1h87v784h-87v-344h-358v344h-87v-784h87v363h358v-363z" />
    <glyph glyph-name="_478" unicode="&#x398;" horiz-adv-x="706" 
d="M651 393c0 224 -64 405 -299 405c-232 0 -298 -182 -298 -405c0 -226 67 -405 298 -405c233 0 299 178 299 405zM565 393c0 -202 -48 -329 -213 -329c-164 0 -211 126 -211 329c0 202 48 329 211 329c164 0 213 -128 213 -329zM231 355h243v75h-243v-75z" />
    <glyph glyph-name="_479" unicode="&#x399;" horiz-adv-x="241" 
d="M164 785h-87v-784h87v784z" />
    <glyph glyph-name="_480" unicode="&#x39a;" horiz-adv-x="630" 
d="M598 785h-98l-242 -344h-94v344h-87v-784h87v363h94l274 -363h101l-306 401z" />
    <glyph glyph-name="_481" unicode="&#x39b;" horiz-adv-x="671" 
d="M569 1h90l-274 784h-100l-275 -784h91l234 694z" />
    <glyph glyph-name="_482" unicode="&#x39c;" horiz-adv-x="921" 
d="M507 1l250 600v-600h87v784h-97l-287 -686l-286 686h-97v-784h87v600l250 -600h93z" />
    <glyph glyph-name="_483" unicode="&#x39d;" horiz-adv-x="697" 
d="M620 1v784h-87v-626l-369 626h-87v-784h87v626l369 -626h87z" />
    <glyph glyph-name="_484" unicode="&#x39e;" horiz-adv-x="618" 
d="M50 709h518v76h-518v-76zM44 1h529v75h-529v-75zM90 364h438v77h-438v-77z" />
    <glyph glyph-name="_485" unicode="&#x39f;" horiz-adv-x="706" 
d="M651 393c0 224 -64 405 -299 405c-232 0 -298 -182 -298 -405c0 -226 67 -405 298 -405c233 0 299 178 299 405zM565 393c0 -202 -48 -329 -213 -329c-164 0 -211 126 -211 329c0 202 48 329 211 329c164 0 213 -128 213 -329z" />
    <glyph glyph-name="_486" unicode="&#x3a0;" horiz-adv-x="686" 
d="M522 1h87v784h-532v-784h87v708h358v-708z" />
    <glyph glyph-name="_487" unicode="&#x3a1;" horiz-adv-x="650" 
d="M164 377v332h199c111 0 168 -62 168 -166c0 -103 -57 -166 -168 -166h-199zM372 301c159 0 246 92 246 242s-87 242 -246 242h-295v-784h87v300h208z" />
    <glyph glyph-name="_488" unicode="&#x3a3;" horiz-adv-x="572" 
d="M55 78v-77h479v75h-378l191 313v31l-189 289h376v76h-479v-77l200 -303z" />
    <glyph glyph-name="_489" unicode="&#x3a4;" horiz-adv-x="579" 
d="M17 709h229v-708h87v708h229v76h-545v-76z" />
    <glyph glyph-name="_490" unicode="&#x3a5;" horiz-adv-x="660" 
d="M329 394l-220 391h-92l269 -475v-309h87v309l270 475h-92z" />
    <glyph glyph-name="_491" unicode="&#x3a6;" horiz-adv-x="800" 
d="M443 785h-86v-118c-189 -7 -317 -91 -317 -274c0 -184 128 -268 317 -274v-118h86v118c189 6 318 90 318 274c0 183 -129 267 -318 274v118zM126 393c0 135 94 194 231 199v-399c-137 5 -231 64 -231 200zM443 592c137 -5 230 -64 230 -199c0 -136 -93 -195 -230 -200
v399z" />
    <glyph glyph-name="_492" unicode="&#x3a7;" horiz-adv-x="658" 
d="M544 1h95l-257 402l243 382h-94l-202 -319l-201 319h-94l241 -382l-257 -402h96l215 339z" />
    <glyph glyph-name="_493" unicode="&#x3a8;" horiz-adv-x="755" 
d="M334 785v-537c-121 14 -181 92 -181 230v307h-87v-316c0 -167 92 -282 268 -297v-171h86v171c176 15 268 130 268 297v316h-86v-307c0 -138 -61 -216 -182 -230v537h-86z" />
    <glyph glyph-name="_494" unicode="&#x3a9;" horiz-adv-x="706" 
d="M353 798c-103 0 -176 -35 -223 -98c-56 -74 -75 -177 -75 -298c0 -163 46 -283 147 -326h-129v-75h234v75c-125 38 -166 153 -166 317c0 123 16 206 58 263c34 42 86 66 154 66s121 -24 153 -66c43 -57 59 -140 59 -263c0 -164 -42 -279 -166 -317v-75h234v75h-129
c101 43 147 163 147 326c0 121 -19 224 -75 298c-47 63 -120 98 -223 98z" />
    <glyph glyph-name="_495" unicode="&#x3b1;" horiz-adv-x="605" 
d="M446 89c3 -63 31 -96 102 -96c12 0 29 1 39 2v68h-17c-31 0 -41 11 -41 48v450h-83v-88c-24 61 -83 101 -171 101c-146 0 -229 -98 -229 -293c0 -196 83 -293 229 -293c88 0 147 40 171 101zM446 281c0 -140 -43 -224 -159 -224s-158 84 -158 224c0 139 42 224 158 224
s159 -85 159 -224z" />
    <glyph glyph-name="_496" unicode="&#x3b2;" horiz-adv-x="607" 
d="M535 578c0 128 -83 220 -235 220c-151 0 -234 -91 -234 -224v-816h83v326c32 -63 97 -96 181 -96c146 0 238 87 238 227c0 113 -70 183 -165 198c84 19 132 85 132 165zM452 575c0 -72 -47 -127 -143 -127h-31v-69h31c113 0 176 -68 176 -160c0 -99 -60 -162 -168 -162
c-109 0 -168 68 -168 173v342c0 98 56 157 151 157s152 -59 152 -154z" />
    <glyph glyph-name="_497" unicode="&#x3b3;" horiz-adv-x="559" 
d="M321 -242v238l220 565h-88l-174 -459l-173 459h-88l220 -564v-239h83z" />
    <glyph glyph-name="_498" unicode="&#x3b4;" horiz-adv-x="574" 
d="M215 715h271v70h-387v-70l182 -148c-5 1 -11 1 -16 1c-145 0 -219 -114 -219 -287c0 -186 78 -293 241 -293s241 107 241 293c0 114 -30 197 -91 248zM128 281c0 139 43 224 159 224c115 0 158 -85 158 -224c0 -140 -43 -224 -158 -224c-116 0 -159 84 -159 224z" />
    <glyph glyph-name="_499" unicode="&#x3b5;" horiz-adv-x="529" 
d="M269 322c-87 0 -129 39 -129 92s43 91 129 91s130 -38 130 -91v-11h83v11c0 90 -71 160 -213 160s-212 -70 -212 -157c0 -64 44 -116 109 -130c-72 -12 -122 -62 -122 -137c0 -99 85 -162 229 -162c142 0 228 66 228 165v6h-83v-4c0 -62 -58 -98 -145 -98
c-88 0 -146 33 -146 97s58 99 146 99h73v69h-77z" />
    <glyph glyph-name="_500" unicode="&#x3b6;" horiz-adv-x="489" 
d="M412 53c-214 0 -287 60 -287 177c0 183 124 362 332 483v72h-358v-69h251c-182 -111 -308 -297 -308 -491c0 -149 101 -238 333 -237c-6 -47 -29 -102 -63 -162l62 -19c49 72 83 154 83 207c0 29 -10 39 -45 39z" />
    <glyph glyph-name="_501" unicode="&#x3b7;" horiz-adv-x="590" 
d="M148 1v248c0 164 53 256 166 256c87 0 129 -73 129 -191v-556h83v590c0 144 -70 226 -194 226c-93 0 -157 -50 -184 -131v118h-82v-560h82z" />
    <glyph glyph-name="_502" unicode="&#x3b8;" horiz-adv-x="627" 
d="M574 393c0 303 -87 405 -260 405c-174 0 -261 -102 -261 -405s87 -405 261 -405c173 0 260 102 260 405zM314 729c140 0 173 -125 177 -302h-355c3 177 37 302 178 302zM314 57c-141 0 -175 125 -178 302h355c-4 -177 -37 -302 -177 -302z" />
    <glyph glyph-name="_503" unicode="&#x3b9;" horiz-adv-x="239" 
d="M149 561h-83v-459c0 -78 28 -109 103 -109c13 0 28 1 39 2v68h-16c-33 0 -43 11 -43 48v450z" />
    <glyph glyph-name="_504" unicode="&#x3ba;" horiz-adv-x="516" 
d="M149 1v258h63l201 -258h98l-228 292l202 268h-95l-177 -233h-64v233h-83v-560h83z" />
    <glyph glyph-name="_505" unicode="&#x3bb;" horiz-adv-x="536" 
d="M226 556l-220 -555h87l176 450l174 -450h88l-271 686c-36 93 -80 111 -156 111c-13 0 -25 0 -36 -1v-68h29c42 0 68 -12 88 -67z" />
    <glyph glyph-name="_506" unicode="&#x3bc;" horiz-adv-x="592" 
d="M277 -12c82 0 139 42 167 112v-99h82v560h-82v-296c-2 -133 -75 -208 -166 -208c-84 0 -129 55 -129 156v348h-83v-803h83v309c20 -50 66 -79 128 -79z" />
    <glyph glyph-name="_507" unicode="&#x3bd;" horiz-adv-x="560" 
d="M328 1l214 560h-88l-174 -465l-174 465h-88l214 -560h96z" />
    <glyph glyph-name="_508" unicode="&#x3be;" horiz-adv-x="513" 
d="M479 14c0 29 -9 39 -45 39c-206 2 -309 68 -309 186c0 110 91 190 187 190h60v69h-88c-71 0 -124 42 -124 115c0 72 42 116 121 116c76 0 117 -42 122 -100h83c-4 92 -68 169 -205 169s-204 -79 -204 -179c0 -87 56 -143 135 -160c-99 -36 -170 -114 -170 -228
c0 -153 135 -243 356 -243c-7 -47 -30 -102 -63 -162l62 -19c49 72 82 154 82 207z" />
    <glyph glyph-name="_509" unicode="&#x3bf;" horiz-adv-x="574" 
d="M529 281c0 185 -79 293 -242 293s-241 -108 -241 -293s78 -293 241 -293s242 108 242 293zM446 281c0 -140 -43 -224 -159 -224s-158 84 -158 224c0 139 42 224 158 224s159 -85 159 -224z" />
    <glyph glyph-name="_510" unicode="&#x3c0;" horiz-adv-x="603" 
d="M197 492h208v-491h83v491h88v69h-549v-69h87v-491h83v491z" />
    <glyph glyph-name="_511" unicode="&#x3c1;" horiz-adv-x="583" 
d="M137 281c0 139 43 224 158 224c116 0 159 -85 159 -224c0 -140 -43 -224 -159 -224c-115 0 -158 84 -158 224zM137 88c24 -60 83 -100 170 -100c147 0 230 98 230 293c0 185 -78 293 -242 293c-162 0 -241 -108 -241 -293v-523h83v330z" />
    <glyph glyph-name="_512" unicode="&#x3c3;" horiz-adv-x="583" 
d="M287 -12c161 0 242 108 242 286c0 116 -40 192 -104 218h135v69h-273c-161 0 -241 -108 -241 -287c0 -178 80 -286 241 -286zM446 274c0 -132 -45 -217 -159 -217s-158 85 -158 217c0 133 44 218 158 218s159 -85 159 -218z" />
    <glyph glyph-name="_513" unicode="&#x3c4;" horiz-adv-x="496" 
d="M474 561h-457v-69h180v-363c0 -99 28 -136 129 -136c17 0 37 1 49 3v66h-35c-45 0 -60 11 -60 63v367h194v69z" />
    <glyph glyph-name="_514" unicode="&#x3c5;" horiz-adv-x="579" 
d="M290 -12c143 0 229 74 229 227v346h-83v-345c0 -111 -55 -159 -146 -159c-92 0 -147 48 -147 159v345h-83v-346c0 -153 86 -227 230 -227z" />
    <glyph glyph-name="_515" unicode="&#x3c6;" horiz-adv-x="764" 
d="M637 274c0 -160 -58 -217 -213 -217v435c155 -2 213 -56 213 -218zM719 274c0 190 -81 286 -298 287h-80v-504c-155 0 -213 57 -213 217c0 132 40 186 119 207l-13 69c-134 -29 -189 -117 -189 -276c0 -188 79 -283 296 -286v-230h83v230c217 3 295 98 295 286z" />
    <glyph glyph-name="_516" unicode="&#x3c7;" horiz-adv-x="544" 
d="M450 -242h89l-217 411l206 392h-89l-167 -321l-167 321h-89l206 -392l-217 -411h89l178 339z" />
    <glyph glyph-name="_517" unicode="&#x3c8;" horiz-adv-x="725" 
d="M321 561v-501c-109 6 -178 65 -178 173v328h-83v-329c0 -148 100 -233 261 -243v-231h82v231c162 10 262 95 262 243v329h-83v-328c0 -108 -69 -167 -179 -173v501h-82z" />
    <glyph glyph-name="_518" unicode="&#x3c9;" horiz-adv-x="832" 
d="M375 451v-211c0 -129 -44 -183 -119 -183c-78 0 -123 58 -123 211c0 88 22 193 58 293h-83c-38 -103 -58 -205 -58 -298c0 -204 83 -275 200 -275c85 0 146 42 166 116c20 -74 81 -116 166 -116c117 0 200 71 200 275c0 93 -20 195 -58 298h-83c36 -100 58 -205 58 -293
c0 -153 -45 -211 -124 -211c-74 0 -118 54 -118 183v211h-82z" />
    <glyph glyph-name="_519" unicode="&#x2500;" 
d="M960 417h-960v-59h960v59z" />
    <glyph glyph-name="_520" unicode="&#x2502;" 
d="M451 888v-1000h59v1000h-59z" />
    <glyph glyph-name="_521" unicode="&#x250c;" 
d="M451 -112h59v470h450v59h-509v-529z" />
    <glyph glyph-name="_522" unicode="&#x2510;" 
d="M510 417h-510v-59h451v-470h59v529z" />
    <glyph glyph-name="_523" unicode="&#x2518;" 
d="M510 888h-59v-471h-451v-59h510v530z" />
    <glyph glyph-name="_524" unicode="&#x2514;" 
d="M451 358h509v59h-450v471h-59v-530z" />
    <glyph glyph-name="_525" unicode="&#x251c;" 
d="M451 888v-1000h59v470h450v59h-450v471h-59z" />
    <glyph glyph-name="_526" unicode="&#x252c;" 
d="M960 417h-960v-59h451v-470h59v470h450v59z" />
    <glyph glyph-name="_527" unicode="&#x2524;" 
d="M510 888h-59v-471h-451v-59h451v-470h59v1000z" />
    <glyph glyph-name="_528" unicode="&#x2534;" 
d="M960 358v59h-450v471h-59v-471h-451v-59h960z" />
    <glyph glyph-name="_529" unicode="&#x253c;" 
d="M451 888v-471h-451v-59h451v-470h59v470h450v59h-450v471h-59z" />
    <glyph glyph-name="_530" unicode="&#x2501;" 
d="M0 435v-94h960v94h-960z" />
    <glyph glyph-name="_531" unicode="&#x2503;" 
d="M433 888v-1000h94v1000h-94z" />
    <glyph glyph-name="_532" unicode="&#x250f;" 
d="M433 435v-547h94v453h433v94h-527z" />
    <glyph glyph-name="_533" unicode="&#x2513;" 
d="M0 435v-94h433v-453h94v547h-527z" />
    <glyph glyph-name="_534" unicode="&#x251b;" 
d="M433 888v-453h-433v-94h527v547h-94z" />
    <glyph glyph-name="_535" unicode="&#x2517;" 
d="M433 888v-547h527v94h-433v453h-94z" />
    <glyph glyph-name="_536" unicode="&#x2523;" 
d="M433 888v-1000h94v453h433v94h-433v453h-94z" />
    <glyph glyph-name="_537" unicode="&#x2533;" 
d="M0 341h433v-453h94v453h433v94h-960v-94z" />
    <glyph glyph-name="_538" unicode="&#x252b;" 
d="M0 341h433v-453h94v1000h-94v-453h-433v-94z" />
    <glyph glyph-name="_539" unicode="&#x253b;" 
d="M433 435h-433v-94h960v94h-433v453h-94v-453z" />
    <glyph glyph-name="_540" unicode="&#x254b;" 
d="M433 435h-433v-94h433v-453h94v453h433v94h-433v453h-94v-453z" />
    <glyph glyph-name="_541" unicode="&#x2520;" 
d="M960 405h-433v483h-94v-1000h94v481h433v36z" />
    <glyph glyph-name="_542" unicode="&#x252f;" 
d="M960 435h-960v-94h461v-453h37v453h462v94z" />
    <glyph glyph-name="_543" unicode="&#x2528;" 
d="M527 -112v1000h-94v-483h-433v-36h433v-481h94z" />
    <glyph glyph-name="_544" unicode="&#x2537;" 
d="M461 435h-461v-94h960v94h-462v453h-37v-453z" />
    <glyph glyph-name="_545" unicode="&#x253f;" 
d="M461 435h-461v-94h461v-453h37v453h462v94h-462v453h-37v-453z" />
    <glyph glyph-name="_546" unicode="&#x251d;" 
d="M960 435h-462v453h-37v-1000h37v453h462v94z" />
    <glyph glyph-name="_547" unicode="&#x2530;" 
d="M960 405h-960v-36h433v-481h94v481h433v36z" />
    <glyph glyph-name="_548" unicode="&#x2525;" 
d="M461 435h-461v-94h461v-453h37v1000h-37v-453z" />
    <glyph glyph-name="_549" unicode="&#x2538;" 
d="M433 405h-433v-36h960v36h-433v483h-94v-483z" />
    <glyph glyph-name="_550" unicode="&#x2542;" 
d="M433 405h-433v-36h433v-481h94v481h433v36h-433v483h-94v-483z" />
    <glyph glyph-name="_551" unicode="&#x2512;" 
d="M433 369v-481h94v517h-527v-36h433z" />
    <glyph glyph-name="_552" unicode="&#x2511;" 
d="M461 341v-453h37v547h-498v-94h461z" />
    <glyph glyph-name="_553" unicode="&#x251a;" 
d="M433 405h-433v-36h527v519h-94v-483z" />
    <glyph glyph-name="_554" unicode="&#x2519;" 
d="M461 435h-461v-94h498v547h-37v-453z" />
    <glyph glyph-name="_555" unicode="&#x2516;" 
d="M527 405v483h-94v-519h527v36h-433z" />
    <glyph glyph-name="_556" unicode="&#x2515;" 
d="M498 435v453h-37v-547h499v94h-462z" />
    <glyph glyph-name="_557" unicode="&#x250e;" 
d="M527 369h433v36h-527v-517h94v481z" />
    <glyph glyph-name="_558" unicode="&#x250d;" 
d="M461 435v-547h37v453h462v94h-499z" />
    <glyph glyph-name="_559" unicode="&#x251e;" 
d="M433 888v-519h28v-481h37v481h462v36h-433v483h-94z" />
    <glyph glyph-name="_560" unicode="&#x251f;" 
d="M461 888v-483h-28v-517h94v481h433v36h-462v483h-37z" />
    <glyph glyph-name="_561" unicode="&#x2521;" 
d="M461 -112h37v453h462v94h-433v453h-94v-547h28v-453z" />
    <glyph glyph-name="_562" unicode="&#x2522;" 
d="M433 -112h94v453h433v94h-462v453h-37v-453h-28v-547z" />
    <glyph glyph-name="_563" unicode="&#x2526;" 
d="M433 888v-483h-433v-36h461v-481h37v481h29v519h-94z" />
    <glyph glyph-name="_564" unicode="&#x2527;" 
d="M0 405v-36h433v-481h94v517h-29v483h-37v-483h-461z" />
    <glyph glyph-name="_565" unicode="&#x2529;" 
d="M0 341h461v-453h37v453h29v547h-94v-453h-433v-94z" />
    <glyph glyph-name="_566" unicode="&#x252a;" 
d="M0 341h433v-453h94v547h-29v453h-37v-453h-461v-94z" />
    <glyph glyph-name="_567" unicode="&#x252d;" 
d="M0 341h461v-453h37v481h462v36h-462v30h-498v-94z" />
    <glyph glyph-name="_568" unicode="&#x252e;" 
d="M0 369h461v-481h37v453h462v94h-499v-30h-461v-36z" />
    <glyph glyph-name="_569" unicode="&#x2531;" 
d="M0 341h433v-453h94v481h433v36h-433v30h-527v-94z" />
    <glyph glyph-name="_570" unicode="&#x2532;" 
d="M0 369h433v-481h94v453h433v94h-527v-30h-433v-36z" />
    <glyph glyph-name="_571" unicode="&#x2535;" 
d="M0 341h498v28h462v36h-462v483h-37v-453h-461v-94z" />
    <glyph glyph-name="_572" unicode="&#x2536;" 
d="M0 369h461v-28h499v94h-462v453h-37v-483h-461v-36z" />
    <glyph glyph-name="_573" unicode="&#x2539;" 
d="M0 341h527v28h433v36h-433v483h-94v-453h-433v-94z" />
    <glyph glyph-name="_574" unicode="&#x253a;" 
d="M0 369h433v-28h527v94h-433v453h-94v-483h-433v-36z" />
    <glyph glyph-name="_575" unicode="&#x253d;" 
d="M0 341h461v-453h37v481h462v36h-462v483h-37v-453h-461v-94z" />
    <glyph glyph-name="_576" unicode="&#x253e;" 
d="M498 888h-37v-483h-461v-36h461v-481h37v453h462v94h-462v453z" />
    <glyph glyph-name="_577" unicode="&#x2540;" 
d="M527 888h-94v-483h-433v-36h461v-481h37v481h462v36h-433v483z" />
    <glyph glyph-name="_578" unicode="&#x2541;" 
d="M498 888h-37v-483h-461v-36h433v-481h94v481h433v36h-462v483z" />
    <glyph glyph-name="_579" unicode="&#x2543;" 
d="M527 888h-94v-453h-433v-94h461v-453h37v453h29v28h433v36h-433v483z" />
    <glyph glyph-name="_580" unicode="&#x2544;" 
d="M498 -112v453h462v94h-433v453h-94v-483h-433v-36h433v-28h28v-453h37z" />
    <glyph glyph-name="_581" unicode="&#x2545;" 
d="M498 888h-37v-453h-461v-94h433v-453h94v481h433v36h-433v30h-29v453z" />
    <glyph glyph-name="_582" unicode="&#x2546;" 
d="M498 888h-37v-453h-28v-30h-433v-36h433v-481h94v452h433v95h-462v453z" />
    <glyph glyph-name="_583" unicode="&#x2547;" 
d="M527 888h-94v-453h-433v-94h461v-453h37v453h462v94h-433v453z" />
    <glyph glyph-name="_584" unicode="&#x2548;" 
d="M498 888h-37v-453h-461v-94h433v-453h94v453h433v94h-462v453z" />
    <glyph glyph-name="_585" unicode="&#x2549;" 
d="M527 888h-94v-453h-433v-94h433v-453h94v481h433v36h-433v483z" />
    <glyph glyph-name="_586" unicode="&#x254a;" 
d="M527 888h-94v-483h-433v-36h433v-481h94v453h433v94h-433v453z" />
    <glyph glyph-name="_587" unicode="&#x3395;" 
d="M265 -12c52 0 95 28 121 70v-57h84v560h-84v-296c0 -133 -54 -208 -120 -208c-60 0 -92 55 -92 156v348h-85v-803h85v273c20 -27 52 -43 91 -43zM735 -12c88 0 145 55 160 161l-82 19c-9 -75 -40 -108 -78 -108c-46 0 -79 42 -85 135h-1c159 81 234 213 234 386v9
c0 132 -56 208 -157 208c-103 0 -159 -76 -159 -208v-352c-22 -9 -50 -18 -76 -27l23 -70c18 6 38 13 55 19c16 -108 79 -172 166 -172zM651 591c0 89 27 135 75 135c47 0 74 -46 74 -135v-10c0 -123 -41 -226 -149 -298v308z" />
    <glyph glyph-name="_588" unicode="&#x3396;" 
d="M779 -12c83 0 135 54 149 160l-83 22c-9 -77 -35 -110 -66 -110c-39 0 -65 40 -70 136c135 80 208 214 208 385v9c0 132 -51 208 -146 208c-96 0 -147 -76 -147 -208v-353c-21 -10 -45 -20 -68 -27l20 -71c18 6 39 15 51 20c13 -110 71 -171 152 -171zM709 591
c0 89 22 135 62 135c39 0 62 -46 62 -135v-10c0 -116 -40 -219 -124 -290v300zM334 289c0 141 25 216 66 216c35 0 50 -46 50 -138v-366h85v364c0 134 -42 209 -124 209c-49 0 -81 -25 -102 -66c-21 42 -55 66 -100 66c-32 0 -60 -18 -77 -44v31h-85v-560h85v289
c0 141 26 215 66 215c35 0 50 -46 50 -138v-366h86v288z" />
    <glyph glyph-name="_589" unicode="&#x3397;" 
d="M380 516c-24 36 -64 58 -118 58c-115 0 -182 -98 -182 -293c0 -196 67 -293 182 -293c54 0 94 21 118 57v-44h83v784h-83v-269zM380 281c0 -140 -29 -224 -109 -224s-108 84 -108 224c0 139 28 224 108 224s109 -85 109 -224zM737 -12c88 0 145 55 160 161l-82 19
c-9 -75 -40 -108 -78 -108c-46 0 -79 42 -85 135h-1c159 81 234 213 234 386v9c0 132 -56 208 -157 208c-103 0 -159 -76 -159 -208v-352c-22 -9 -50 -18 -76 -27l23 -70c18 6 38 13 55 19c16 -108 79 -172 166 -172zM653 591c0 89 27 135 75 135c47 0 74 -46 74 -135v-10
c0 -123 -41 -226 -149 -298v308z" />
    <glyph glyph-name="_590" unicode="&#x2113;" horiz-adv-x="551" 
d="M318 -12c105 0 174 55 194 162l-82 16c-12 -74 -56 -106 -112 -106c-67 0 -111 41 -119 133c202 82 298 213 298 388v9c0 132 -68 208 -190 208c-125 0 -192 -76 -192 -208v-349c-31 -10 -62 -20 -98 -28l28 -69c24 6 50 13 72 20c16 -115 94 -176 201 -176zM199 591
c0 89 38 135 108 135c68 0 106 -46 106 -135v-10c0 -125 -62 -232 -214 -306v316z" />
    <glyph glyph-name="_591" unicode="&#x3398;" 
d="M203 1v258h38l161 -258h92l-181 292l162 268h-91l-142 -233h-39v457h-84v-784h84zM723 -12c88 0 145 55 160 161l-82 19c-9 -75 -40 -108 -78 -108c-46 0 -79 42 -85 135h-1c159 81 234 213 234 386v9c0 132 -56 208 -157 208c-103 0 -159 -76 -159 -208v-352
c-22 -9 -50 -18 -76 -27l23 -70c18 6 38 13 55 19c16 -108 79 -172 166 -172zM639 591c0 89 27 135 75 135c47 0 74 -46 74 -135v-10c0 -123 -41 -226 -149 -298v308z" />
    <glyph glyph-name="_592" unicode="&#x33c4;" 
d="M65 281c0 -185 65 -293 202 -293c114 0 183 70 195 193h-85c-8 -77 -47 -124 -110 -124c-84 0 -118 84 -118 224c0 139 34 224 118 224c63 0 102 -47 110 -124h85c-12 123 -81 193 -195 193c-137 0 -202 -108 -202 -293zM503 281c0 -185 66 -293 202 -293
c115 0 183 70 195 193h-85c-8 -77 -47 -124 -110 -124c-84 0 -117 84 -117 224c0 139 33 224 117 224c63 0 102 -47 110 -124h85c-12 123 -80 193 -195 193c-136 0 -202 -108 -202 -293z" />
    <glyph glyph-name="_593" unicode="&#x33a3;" 
d="M878 679c0 -21 -10 -31 -31 -31c-17 0 -30 13 -30 43h-54c0 -58 36 -87 84 -87c50 0 84 28 84 74c0 27 -9 47 -27 56c13 11 21 31 21 50c0 39 -28 71 -78 71c-48 0 -77 -30 -77 -69v-11h53c0 26 10 35 24 35c17 0 24 -12 24 -28c0 -14 -6 -28 -22 -28h-38v-44h38
c19 0 29 -10 29 -31zM287 289c0 151 16 216 50 216c28 0 35 -46 35 -138v-366h81v364c0 154 -36 209 -108 209c-40 0 -68 -24 -84 -55c-15 35 -44 55 -82 55c-24 0 -49 -14 -62 -33v20h-75v-560h80v289c0 151 15 215 49 215c27 0 36 -46 36 -138v-366h80v288zM752 289
c0 151 16 216 49 216c28 0 36 -46 36 -138v-366h81v364c0 154 -36 209 -108 209c-40 0 -68 -24 -84 -55c-16 35 -45 55 -82 55c-24 0 -48 -15 -62 -33v20h-75v-560h79v289c0 151 16 215 49 215c28 0 37 -46 37 -138v-366h80v288z" />
    <glyph glyph-name="_594" unicode="&#x33a4;" 
d="M719 289c0 141 27 216 65 216c34 0 49 -46 49 -138v-366h84v364c0 134 -39 209 -123 209c-48 0 -80 -25 -100 -64c-20 41 -55 64 -98 64c-31 0 -61 -18 -79 -44v31h-79v-560h84v299c0 141 26 205 65 205c33 0 49 -46 49 -138v-366h83v288zM35 281
c0 -185 55 -293 182 -293c105 0 165 70 176 193h-85c-7 -77 -38 -124 -91 -124c-72 0 -98 84 -98 224c0 139 26 224 98 224c53 0 84 -47 91 -124h85c-11 123 -71 193 -176 193c-127 0 -182 -108 -182 -293zM878 679c0 -21 -10 -31 -31 -31c-17 0 -30 13 -30 43h-54
c0 -58 36 -87 84 -87c50 0 84 28 84 74c0 27 -9 47 -27 56c13 11 21 31 21 50c0 39 -28 71 -78 71c-48 0 -77 -30 -77 -69v-11h53c0 26 10 35 24 35c17 0 24 -12 24 -28c0 -14 -6 -28 -22 -28h-38v-44h38c19 0 29 -10 29 -31z" />
    <glyph glyph-name="_595" unicode="&#x33a5;" 
d="M511 289c0 141 65 216 149 216c78 0 121 -46 121 -138v-366h83v364c0 134 -66 209 -186 209c-95 0 -153 -46 -182 -119c-24 78 -87 119 -171 119s-141 -41 -166 -110v97h-83v-560h83v289c0 141 64 215 148 215c78 0 122 -46 122 -138v-366h82v288zM878 679
c0 -21 -10 -31 -31 -31c-17 0 -30 13 -30 43h-54c0 -58 36 -87 84 -87c50 0 84 28 84 74c0 27 -9 47 -27 56c13 11 21 31 21 50c0 39 -28 71 -78 71c-48 0 -77 -30 -77 -69v-11h53c0 26 10 35 24 35c17 0 24 -12 24 -28c0 -14 -6 -28 -22 -28h-38v-44h38c19 0 29 -10 29 -31
z" />
    <glyph glyph-name="_596" unicode="&#x33a6;" 
d="M712 289c0 141 25 216 66 216c35 0 50 -46 50 -138v-366h85v364c0 134 -42 209 -124 209c-49 0 -81 -25 -102 -66c-21 42 -55 66 -100 66c-32 0 -60 -18 -77 -44v31h-85v-560h85v289c0 141 26 215 66 215c35 0 50 -46 50 -138v-366h86v288zM878 679
c0 -21 -10 -31 -31 -31c-17 0 -30 13 -30 43h-54c0 -58 36 -87 84 -87c50 0 84 28 84 74c0 27 -9 47 -27 56c13 11 21 31 21 50c0 39 -28 71 -78 71c-48 0 -77 -30 -77 -69v-11h53c0 26 10 35 24 35c17 0 24 -12 24 -28c0 -14 -6 -28 -22 -28h-38v-44h38c19 0 29 -10 29 -31
zM128 1v258h28l161 -258h92l-181 292l162 268h-91l-142 -233h-29v457h-84v-784h84z" />
    <glyph glyph-name="_597" unicode="&#x3399;" 
d="M686 289c0 141 25 216 66 216c35 0 50 -46 50 -138v-366h85v364c0 134 -42 209 -124 209c-49 0 -81 -25 -102 -66c-21 42 -55 66 -100 66c-32 0 -60 -18 -77 -44v31h-85v-560h85v289c0 141 26 215 66 215c35 0 50 -46 50 -138v-366h86v288zM352 724v65c-22 3 -42 4 -62 4
c-126 0 -174 -41 -174 -161v-71h-83v-69h83v-491h83v491h153v69h-153v66c0 73 22 97 100 97h53z" />
    <glyph glyph-name="_598" unicode="&#x339a;" 
d="M368 349c0 152 -44 225 -138 225c-46 0 -80 -18 -101 -49v36h-84v-560h84v288c0 138 38 216 88 216c47 0 67 -51 67 -176v-328h84v348zM719 289c0 141 27 216 65 216c34 0 49 -46 49 -138v-366h84v364c0 134 -39 209 -123 209c-48 0 -80 -25 -100 -64
c-20 41 -55 64 -98 64c-31 0 -61 -18 -79 -44v31h-79v-560h84v299c0 141 26 205 65 205c33 0 49 -46 49 -138v-366h83v288z" />
    <glyph glyph-name="_599" unicode="&#x339b;" 
d="M719 289c0 141 27 216 65 216c34 0 49 -46 49 -138v-366h84v364c0 134 -39 209 -123 209c-48 0 -80 -25 -100 -64c-20 41 -55 64 -98 64c-31 0 -61 -18 -79 -44v31h-79v-560h84v299c0 141 26 205 65 205c33 0 49 -46 49 -138v-366h83v288zM194 -12c37 0 69 21 90 51v-38
h84v560h-84v-306c0 -133 -41 -198 -90 -198c-42 0 -65 45 -65 146v358h-84v-803h84v257c15 -17 40 -27 65 -27z" />
    <glyph glyph-name="_600" unicode="&#x339c;" 
d="M285 289c0 151 16 216 50 216c28 0 35 -46 35 -138v-366h81v364c0 154 -36 209 -108 209c-40 0 -68 -24 -84 -55c-15 35 -44 55 -82 55c-24 0 -49 -14 -62 -33v20h-75v-560h80v289c0 151 15 215 49 215c27 0 36 -46 36 -138v-366h80v288zM754 289c0 151 16 216 49 216
c28 0 36 -46 36 -138v-366h81v364c0 154 -36 209 -108 209c-40 0 -68 -24 -84 -55c-16 35 -45 55 -82 55c-24 0 -48 -15 -62 -33v20h-75v-560h79v289c0 151 16 215 49 215c28 0 37 -46 37 -138v-366h80v288z" />
    <glyph glyph-name="_601" unicode="&#x339d;" 
d="M719 289c0 141 27 216 65 216c34 0 49 -46 49 -138v-366h84v364c0 134 -39 209 -123 209c-48 0 -80 -25 -100 -64c-20 41 -55 64 -98 64c-31 0 -61 -18 -79 -44v31h-79v-560h84v299c0 141 26 205 65 205c33 0 49 -46 49 -138v-366h83v288zM35 281
c0 -185 55 -293 182 -293c105 0 165 70 176 193h-85c-7 -77 -38 -124 -91 -124c-72 0 -98 84 -98 224c0 139 26 224 98 224c53 0 84 -47 91 -124h85c-11 123 -71 193 -176 193c-127 0 -182 -108 -182 -293z" />
    <glyph glyph-name="_602" unicode="&#x339e;" 
d="M714 289c0 141 25 216 66 216c35 0 50 -46 50 -138v-366h85v364c0 134 -42 209 -124 209c-49 0 -81 -25 -102 -66c-21 42 -55 66 -100 66c-32 0 -60 -18 -77 -44v31h-85v-560h85v289c0 141 26 215 66 215c35 0 50 -46 50 -138v-366h86v288zM130 1v258h28l161 -258h92
l-181 292l162 268h-91l-142 -233h-29v457h-84v-784h84z" />
    <glyph glyph-name="_603" unicode="&#x339f;" 
d="M927 779c0 41 -29 77 -81 77c-53 0 -81 -36 -81 -77v-18h54v18c0 19 10 32 27 32s27 -13 27 -32c0 -12 -4 -22 -13 -32l-92 -105v-33h162v44h-87l58 66c20 22 26 38 26 60zM287 289c0 151 16 216 50 216c28 0 35 -46 35 -138v-366h81v364c0 154 -36 209 -108 209
c-40 0 -68 -24 -84 -55c-15 35 -44 55 -82 55c-24 0 -49 -14 -62 -33v20h-75v-560h80v289c0 151 15 215 49 215c27 0 36 -46 36 -138v-366h80v288zM752 289c0 151 16 216 49 216c28 0 36 -46 36 -138v-366h81v364c0 154 -36 209 -108 209c-40 0 -68 -24 -84 -55
c-16 35 -45 55 -82 55c-24 0 -48 -15 -62 -33v20h-75v-560h79v289c0 151 16 215 49 215c28 0 37 -46 37 -138v-366h80v288z" />
    <glyph glyph-name="_604" unicode="&#x33a0;" 
d="M719 289c0 141 27 216 65 216c34 0 49 -46 49 -138v-366h84v364c0 134 -39 209 -123 209c-48 0 -80 -25 -100 -64c-20 41 -55 64 -98 64c-31 0 -61 -18 -79 -44v31h-79v-560h84v299c0 141 26 205 65 205c33 0 49 -46 49 -138v-366h83v288zM35 281
c0 -185 55 -293 182 -293c105 0 165 70 176 193h-85c-7 -77 -38 -124 -91 -124c-72 0 -98 84 -98 224c0 139 26 224 98 224c53 0 84 -47 91 -124h85c-11 123 -71 193 -176 193c-127 0 -182 -108 -182 -293zM927 779c0 41 -29 77 -81 77c-53 0 -81 -36 -81 -77v-18h54v18
c0 19 10 32 27 32s27 -13 27 -32c0 -12 -4 -22 -13 -32l-92 -105v-33h162v44h-87l58 66c20 22 26 38 26 60z" />
    <glyph glyph-name="_605" unicode="&#x33a1;" 
d="M927 779c0 41 -29 77 -81 77c-53 0 -81 -36 -81 -77v-18h54v18c0 19 10 32 27 32s27 -13 27 -32c0 -12 -4 -22 -13 -32l-92 -105v-33h162v44h-87l58 66c20 22 26 38 26 60zM511 289c0 141 65 216 149 216c78 0 121 -46 121 -138v-366h83v364c0 134 -66 209 -186 209
c-95 0 -153 -46 -182 -119c-24 78 -87 119 -171 119s-141 -41 -166 -110v97h-83v-560h83v289c0 141 64 215 148 215c78 0 122 -46 122 -138v-366h82v288z" />
    <glyph glyph-name="_606" unicode="&#x33a2;" 
d="M927 779c0 41 -29 77 -81 77c-53 0 -81 -36 -81 -77v-18h54v18c0 19 10 32 27 32s27 -13 27 -32c0 -12 -4 -22 -13 -32l-92 -105v-33h162v44h-87l58 66c20 22 26 38 26 60zM712 289c0 141 25 216 66 216c35 0 50 -46 50 -138v-366h85v364c0 134 -42 209 -124 209
c-49 0 -81 -25 -102 -66c-21 42 -55 66 -100 66c-32 0 -60 -18 -77 -44v31h-85v-560h85v289c0 141 26 215 66 215c35 0 50 -46 50 -138v-366h86v288zM128 1v258h28l161 -258h92l-181 292l162 268h-91l-142 -233h-29v457h-84v-784h84z" />
    <glyph glyph-name="_607" unicode="&#x33ca;" 
d="M438 349c0 142 -54 225 -157 225c-57 0 -100 -27 -125 -66v53h-83v-560h83v288c0 138 47 216 110 216c59 0 91 -51 91 -176v-328h81v348zM812 1h83c-5 20 -10 50 -10 77v288c0 127 -59 208 -178 208c-111 0 -170 -69 -177 -175h84c5 64 34 106 93 106
c64 0 97 -54 97 -138v-64c-24 26 -63 41 -119 41c-105 0 -172 -67 -172 -178c0 -112 67 -178 172 -178c56 0 96 15 120 43c2 -11 4 -21 7 -30zM804 166c0 -68 -36 -109 -104 -109c-69 0 -104 41 -104 109c0 67 35 109 104 109c68 0 104 -42 104 -109z" />
    <glyph glyph-name="_608" unicode="&#x338d;" 
d="M815 -32c0 -100 -35 -157 -100 -157c-52 0 -87 37 -94 98h-83c10 -101 74 -167 177 -167c126 0 182 100 182 232v587h-82v-45c-24 36 -64 58 -118 58c-116 0 -182 -98 -182 -293s66 -293 182 -293c54 0 94 21 118 57v-77zM815 281c0 -140 -30 -224 -109 -224
c-80 0 -109 84 -109 224c0 139 29 224 109 224c79 0 109 -85 109 -224zM239 -12c52 0 95 28 121 70v-57h82v560h-82v-296c-1 -133 -54 -208 -120 -208c-60 0 -92 55 -92 156v348h-83v-803h83v273c20 -27 52 -43 91 -43z" />
    <glyph glyph-name="_609" unicode="&#x338e;" 
d="M840 -32c0 -100 -32 -157 -91 -157c-46 0 -78 37 -85 98h-83c9 -101 69 -167 168 -167c119 0 173 100 173 232v587h-82v-37c-23 33 -59 50 -107 50c-111 0 -173 -98 -173 -293s62 -293 173 -293c48 0 84 18 107 50v-70zM840 281c0 -140 -28 -224 -99 -224
c-72 0 -99 84 -99 224c0 139 27 224 99 224c71 0 99 -85 99 -224zM319 289c0 141 27 216 65 216c34 0 49 -46 49 -138v-366h84v364c0 134 -39 209 -123 209c-48 0 -80 -25 -100 -64c-20 41 -55 64 -98 64c-31 0 -61 -18 -79 -44v31h-79v-560h84v299c0 141 26 205 65 205
c33 0 49 -46 49 -138v-366h83v288z" />
    <glyph glyph-name="_610" unicode="&#x338f;" 
d="M782 -32c0 -100 -35 -157 -100 -157c-52 0 -87 37 -94 98h-83c10 -101 74 -167 177 -167c126 0 182 100 182 232v587h-82v-45c-24 36 -64 58 -118 58c-116 0 -182 -98 -182 -293s66 -293 182 -293c54 0 94 21 118 57v-77zM782 281c0 -140 -30 -224 -109 -224
c-80 0 -109 84 -109 224c0 139 29 224 109 224c79 0 109 -85 109 -224zM180 1v258h38l161 -258h92l-181 292l162 268h-91l-142 -233h-39v457h-84v-784h84z" />
    <glyph glyph-name="_611" unicode="&#x33cf;" 
d="M194 1v258h53l181 -258h98l-208 292l182 268h-95l-157 -233h-54v457h-83v-784h83zM718 492h163v69h-163v159h-83v-159h-83v-69h83v-343c0 -119 55 -156 178 -156c21 0 47 0 68 2v67h-55c-75 0 -108 19 -108 100v330z" />
    <glyph glyph-name="_612" unicode="&#x3388;" 
d="M41 281c0 -185 57 -293 173 -293c99 0 158 70 168 193h-83c-7 -77 -36 -124 -85 -124c-66 0 -90 84 -90 224c0 139 24 224 90 224c49 0 78 -47 85 -124h83c-10 123 -69 193 -168 193c-116 0 -173 -108 -173 -293zM685 1h82c-4 20 -8 50 -8 77v288c0 127 -55 208 -162 208
c-101 0 -157 -68 -161 -175h84c2 65 29 106 77 106c53 0 80 -54 80 -138v-56c-23 23 -54 33 -99 33c-97 0 -157 -67 -157 -178c0 -112 60 -178 157 -178c46 0 80 15 102 39c1 -9 3 -19 5 -26zM677 166c0 -68 -29 -109 -87 -109c-57 0 -86 41 -86 109c0 67 29 109 86 109
c58 0 87 -42 87 -109zM908 1v784h-82v-784h82z" />
    <glyph glyph-name="_613" unicode="&#x3389;" 
d="M131 1v236l82 -236h80l-103 292l91 268h-79l-71 -213v437h-75v-784h75zM282 281c0 -185 41 -293 127 -293c75 0 117 70 124 193h-76c-4 -77 -20 -124 -48 -124c-38 0 -52 84 -52 224c0 139 14 224 52 224c28 0 44 -47 48 -124h76c-7 123 -49 193 -124 193
c-86 0 -127 -108 -127 -293zM726 1h76c-3 20 -6 50 -6 77v288c0 127 -40 208 -120 208c-75 0 -115 -69 -119 -175h76c3 64 17 106 43 106c30 0 45 -54 45 -138v-48c-13 15 -34 25 -58 25c-72 0 -116 -67 -116 -178c0 -112 44 -178 116 -178c25 0 48 13 61 28
c0 -5 1 -11 2 -15zM721 166c0 -68 -17 -109 -49 -109c-33 0 -50 41 -50 109c0 67 17 109 50 109c32 0 49 -42 49 -109zM919 1v784h-75v-784h75z" />
    <glyph glyph-name="_614" unicode="&#x33c8;" 
d="M332 526c-24 30 -61 48 -107 48c-111 0 -174 -98 -174 -293c0 -196 63 -293 174 -293c46 0 83 18 107 48v-35h83v784h-83v-259zM332 281c0 -140 -27 -224 -99 -224s-99 84 -99 224c0 139 27 224 99 224s99 -85 99 -224zM592 442v267h113c69 0 103 -42 103 -134
c0 -91 -34 -133 -103 -133h-113zM728 1c121 0 182 72 182 216c0 100 -39 171 -113 190h1c58 19 96 81 96 174c0 131 -61 204 -176 204h-213v-784h223zM823 221c0 -96 -30 -145 -109 -145h-122v290h122c79 0 109 -48 109 -145z" />
    <glyph glyph-name="_615" unicode="&#x33a7;" 
d="M787 574c-77 0 -119 -65 -119 -159c0 -82 28 -129 96 -156c11 -4 25 -10 35 -14c29 -12 41 -38 41 -94s-18 -95 -48 -95s-48 37 -48 96v19h-78v-19c0 -101 50 -164 126 -164c77 0 126 65 126 164c0 91 -30 136 -96 164c-11 4 -23 9 -34 14c-30 13 -43 36 -43 87
c0 49 13 89 42 89s43 -40 43 -90v-15h77v14c0 96 -44 159 -120 159zM274 289c0 151 13 216 43 216c23 0 29 -46 29 -138v-366h77v364c0 154 -33 209 -99 209c-33 0 -61 -24 -76 -50c-14 32 -39 50 -74 50c-20 0 -42 -11 -54 -29v16h-71v-560h76v289c0 151 13 215 42 215
c23 0 31 -46 31 -138v-366h76v288zM597 785l-172 -1014h72l172 1014h-72z" />
    <glyph glyph-name="_616" unicode="&#x33a8;" 
d="M787 574c-77 0 -119 -65 -119 -159c0 -82 28 -129 96 -156c11 -4 25 -10 35 -14c29 -12 41 -38 41 -94s-18 -95 -48 -95s-48 37 -48 96v19h-78v-19c0 -101 50 -164 126 -164c77 0 126 65 126 164c0 91 -30 136 -96 164c-11 4 -23 9 -34 14c-30 13 -43 36 -43 87
c0 49 13 89 42 89s43 -40 43 -90v-15h77v14c0 96 -44 159 -120 159zM274 289c0 151 13 216 43 216c23 0 29 -46 29 -138v-366h77v364c0 154 -33 209 -99 209c-33 0 -61 -24 -76 -50c-14 32 -39 50 -74 50c-20 0 -42 -11 -54 -29v16h-71v-560h76v289c0 151 13 215 42 215
c23 0 31 -46 31 -138v-366h76v288zM597 785l-172 -1014h72l172 1014h-72zM927 779c0 41 -29 77 -81 77c-53 0 -81 -36 -81 -77v-18h54v18c0 19 10 32 27 32s27 -13 27 -32c0 -12 -4 -22 -13 -32l-92 -105v-33h162v44h-87l58 66c20 22 26 38 26 60z" />
    <glyph glyph-name="_617" unicode="&#x33b0;" 
d="M156 49c26 -38 69 -61 127 -61c123 0 193 98 193 293s-70 293 -193 293c-59 0 -101 -22 -127 -60v47h-85v-803h85v291zM156 281c0 139 32 224 118 224c85 0 116 -85 116 -224c0 -140 -31 -224 -116 -224c-86 0 -118 84 -118 224zM709 574c-111 0 -172 -69 -172 -159
c0 -84 43 -131 145 -156c18 -4 37 -10 55 -14c50 -14 76 -41 76 -94c0 -56 -39 -95 -97 -95c-56 0 -95 37 -95 96v19h-87v-19c0 -97 73 -164 182 -164c112 0 183 69 183 164c0 94 -43 139 -142 164c-18 5 -37 9 -55 14c-52 14 -79 41 -79 87c0 49 31 89 86 89
c57 0 87 -40 87 -90v-15h86v14c0 92 -64 159 -173 159z" />
    <glyph glyph-name="_618" unicode="&#x33b1;" 
d="M458 349c0 142 -59 225 -167 225c-65 0 -109 -26 -135 -70v57h-86v-560h86v288c0 138 51 216 119 216c63 0 97 -51 97 -176v-328h86v348zM709 574c-111 0 -172 -69 -172 -159c0 -84 43 -131 145 -156c18 -4 37 -10 55 -14c50 -14 76 -41 76 -94c0 -56 -39 -95 -97 -95
c-56 0 -95 37 -95 96v19h-87v-19c0 -97 73 -164 182 -164c112 0 183 69 183 164c0 94 -43 139 -142 164c-18 5 -37 9 -55 14c-52 14 -79 41 -79 87c0 49 31 89 86 89c57 0 87 -40 87 -90v-15h86v14c0 92 -64 159 -173 159z" />
    <glyph glyph-name="_619" unicode="&#x33b2;" 
d="M255 -12c52 0 95 28 121 70v-57h84v560h-84v-296c0 -133 -54 -208 -120 -208c-60 0 -92 55 -92 156v348h-85v-803h85v273c20 -27 52 -43 91 -43zM709 574c-111 0 -172 -69 -172 -159c0 -84 43 -131 145 -156c18 -4 37 -10 55 -14c50 -14 76 -41 76 -94
c0 -56 -39 -95 -97 -95c-56 0 -95 37 -95 96v19h-87v-19c0 -97 73 -164 182 -164c112 0 183 69 183 164c0 94 -43 139 -142 164c-18 5 -37 9 -55 14c-52 14 -79 41 -79 87c0 49 31 89 86 89c57 0 87 -40 87 -90v-15h86v14c0 92 -64 159 -173 159z" />
    <glyph glyph-name="_620" unicode="&#x33b3;" 
d="M748 574c-100 0 -156 -69 -156 -159c0 -83 39 -129 130 -156c16 -5 33 -9 49 -14c44 -13 63 -39 63 -94c0 -56 -32 -95 -79 -95s-79 37 -79 96v19h-86v-19c0 -97 66 -164 165 -164c101 0 165 69 165 164c0 94 -39 139 -128 164c-15 4 -32 9 -47 14c-47 15 -67 38 -67 87
s26 89 70 89c46 0 71 -40 71 -90v-15h86v14c0 92 -57 159 -157 159zM330 289c0 141 27 216 65 216c34 0 49 -46 49 -138v-366h84v364c0 134 -39 209 -123 209c-48 0 -80 -25 -100 -64c-20 41 -55 64 -98 64c-31 0 -61 -18 -79 -44v31h-79v-560h84v299c0 141 26 205 65 205
c33 0 49 -46 49 -138v-366h83v288z" />
    <glyph glyph-name="_621" unicode="&#x33b4;" 
d="M156 49c26 -38 69 -61 127 -61c123 0 193 98 193 293s-70 293 -193 293c-59 0 -101 -22 -127 -60v47h-85v-803h85v291zM156 281c0 139 32 224 118 224c85 0 116 -85 116 -224c0 -140 -31 -224 -116 -224c-86 0 -118 84 -118 224zM749 1l192 784h-90l-154 -676l-154 676
h-91l193 -784h104z" />
    <glyph glyph-name="_622" unicode="&#x33b5;" 
d="M749 1l192 784h-90l-154 -676l-154 676h-91l193 -784h104zM458 349c0 142 -59 225 -167 225c-65 0 -109 -26 -135 -70v57h-86v-560h86v288c0 138 51 216 119 216c63 0 97 -51 97 -176v-328h86v348z" />
    <glyph glyph-name="_623" unicode="&#x33b6;" 
d="M749 1l192 784h-90l-154 -676l-154 676h-91l193 -784h104zM250 -12c52 0 95 28 121 70v-57h84v560h-84v-296c0 -133 -54 -208 -120 -208c-60 0 -92 55 -92 156v348h-85v-803h85v273c20 -27 52 -43 91 -43z" />
    <glyph glyph-name="_624" unicode="&#x33b7;" 
d="M781 1l175 784h-90l-139 -676l-139 676h-91l176 -784h108zM330 289c0 141 27 216 65 216c34 0 49 -46 49 -138v-366h84v364c0 134 -39 209 -123 209c-48 0 -80 -25 -100 -64c-20 41 -55 64 -98 64c-31 0 -61 -18 -79 -44v31h-79v-560h84v299c0 141 26 205 65 205
c33 0 49 -46 49 -138v-366h83v288z" />
    <glyph glyph-name="_625" unicode="&#x33b8;" 
d="M749 1l192 784h-90l-154 -676l-154 676h-91l193 -784h104zM183 1v258h38l161 -258h92l-181 292l162 268h-91l-142 -233h-39v457h-84v-784h84z" />
    <glyph glyph-name="_626" unicode="&#x33b9;" 
d="M332 1l104 452v-452h83v784h-82l-149 -601l-148 601h-83v-784h83v460l106 -460h86zM793 1l151 784h-89l-109 -573l-109 573h-90l151 -784h95z" />
    <glyph glyph-name="_627" unicode="&#x3380;" 
d="M147 44c24 -35 63 -56 117 -56c117 0 183 98 183 293s-66 293 -183 293c-53 0 -92 -20 -117 -55v42h-84v-803h84v286zM147 281c0 139 29 224 108 224c78 0 108 -85 108 -224c0 -140 -30 -224 -108 -224c-79 0 -108 84 -108 224zM647 785l-206 -784h90l48 186h234l47 -186
h90l-206 784h-97zM793 263h-196l99 388z" />
    <glyph glyph-name="_628" unicode="&#x3381;" 
d="M647 785l-206 -784h90l48 186h234l47 -186h90l-206 784h-97zM793 263h-196l99 388zM422 349c0 142 -55 225 -158 225c-59 0 -99 -23 -124 -63v50h-85v-560h85v288c0 138 46 216 109 216c59 0 90 -51 90 -176v-328h83v348z" />
    <glyph glyph-name="_629" unicode="&#x3382;" 
d="M228 -12c51 0 89 22 114 63v-50h83v560h-83v-296c-2 -133 -51 -208 -114 -208c-56 0 -85 55 -85 156v348h-85v-803h85v267c20 -26 47 -37 85 -37zM647 785l-206 -784h90l48 186h234l47 -186h90l-206 784h-97zM793 263h-196l99 388z" />
    <glyph glyph-name="_630" unicode="&#x3383;" 
d="M313 289c0 141 27 216 64 216c31 0 46 -46 46 -138v-366h84v364c0 134 -37 209 -119 209c-48 0 -79 -25 -99 -68c-20 49 -51 68 -95 68c-33 0 -56 -11 -75 -36v23h-83v-560h83v289c0 141 27 215 64 215c31 0 47 -46 47 -138v-366h83v288zM694 785l-170 -784h88l39 186
h180l40 -186h87l-170 784h-94zM815 263h-148l74 356z" />
    <glyph glyph-name="_631" unicode="&#x3384;" 
d="M783 263h-196l99 388zM350 1h171l48 186h234l47 -186h90l-206 784h-97l-203 -771l-163 279l163 268h-92l-142 -233h-27v457h-85v-784h85v258h26z" />
    <glyph glyph-name="_632" unicode="&#x33ba;" 
d="M836 1l121 784h-85l-87 -564l-84 564h-79l-84 -564l-87 564h-85l121 -784h89l86 546l85 -546h89zM142 22c20 -21 48 -34 85 -34c99 0 155 98 155 293s-56 293 -155 293c-35 0 -65 -14 -85 -36v23h-84v-803h84v264zM142 281c0 139 21 224 78 224c56 0 78 -85 78 -224
c0 -140 -22 -224 -78 -224c-57 0 -78 84 -78 224z" />
    <glyph glyph-name="_633" unicode="&#x33bb;" 
d="M362 349c0 142 -47 225 -135 225c-40 0 -70 -15 -91 -40v27h-84v-560h84v288c0 138 34 216 79 216c42 0 64 -51 64 -176v-328h83v348zM836 1l121 784h-85l-87 -564l-84 564h-79l-84 -564l-87 564h-85l121 -784h89l86 546l85 -546h89z" />
    <glyph glyph-name="_634" unicode="&#x33bc;" 
d="M197 -12c32 0 65 18 84 38v-25h82v560h-82v-296c0 -133 -38 -208 -84 -208c-39 0 -60 55 -60 156v348h-84v-803h84v251c15 -16 32 -21 60 -21zM836 1l121 784h-85l-87 -564l-84 564h-79l-84 -564l-87 564h-85l121 -784h89l86 546l85 -546h89z" />
    <glyph glyph-name="_635" unicode="&#x33bd;" 
d="M850 1l104 784h-84l-66 -521l-69 521h-75l-71 -522l-65 522h-84l105 -784h84l69 498l68 -498h84zM285 289c0 141 18 216 48 216c24 0 34 -46 34 -138v-366h83v364c0 136 -32 209 -107 209c-40 0 -67 -19 -84 -53c-18 36 -45 53 -81 53c-25 0 -47 -11 -63 -31v18h-77v-560
h82v289c0 141 18 215 49 215c23 0 33 -46 33 -138v-366h83v288z" />
    <glyph glyph-name="_636" unicode="&#x33be;" 
d="M138 1v258h16l151 -258h92l-171 292l163 268h-92l-142 -233h-17v457h-85v-784h85zM836 1l121 784h-85l-87 -564l-84 564h-79l-84 -564l-87 564h-85l121 -784h89l86 546l85 -546h89z" />
    <glyph glyph-name="_637" unicode="&#x33bf;" 
d="M280 1l75 405v-405h79v784h-82l-111 -582l-111 582h-81v-784h79v404l74 -404h78zM853 1l99 784h-81l-61 -521l-67 521h-77l-66 -521l-62 521h-81l99 -784h84l64 507l65 -507h84z" />
    <glyph glyph-name="_638" unicode="&#x3390;" 
d="M420 1h83v784h-83v-344h-266v344h-83v-784h83v363h266v-363zM914 561h-338v-69h242l-249 -430v-61h351v69h-256l250 430v61z" />
    <glyph glyph-name="_639" unicode="&#x3391;" 
d="M552 1h82v784h-82v-344h-122v344h-82v-784h82v363h122v-363zM930 561h-261v-69h171l-175 -432v-59h269v69h-180l176 432v59zM138 1v258h14l103 -258h86l-119 292l106 268h-86l-89 -233h-15v457h-82v-784h82z" />
    <glyph glyph-name="_640" unicode="&#x3392;" 
d="M601 1h82v784h-82v-344h-99v344h-82v-784h82v363h99v-363zM938 561h-225v-69h138l-141 -435v-56h231v69h-145l142 435v56zM236 1l64 350v-350h78v784h-66l-108 -562l-106 562h-68v-784h79v370l65 -370h62z" />
    <glyph glyph-name="_641" unicode="&#x3393;" 
d="M28 393c0 -226 34 -405 166 -405c40 0 71 23 94 55l2 -42h70v401h-180v-76h100v-40c0 -139 -33 -222 -84 -222c-62 0 -87 105 -87 329c0 203 21 329 87 329c50 0 78 -75 83 -195h81c-5 163 -63 271 -164 271c-131 0 -168 -171 -168 -405zM599 1h82v784h-82v-344h-121v344
h-81v-784h81v363h121v-363zM936 561h-226v-69h138l-143 -431v-60h235v69h-147l143 431v60z" />
    <glyph glyph-name="_642" unicode="&#x3394;" 
d="M564 1h82v784h-82v-344h-131v344h-81v-784h81v363h131v-363zM921 561h-236v-69h148l-153 -431v-60h245v69h-157l153 431v60zM17 709h111v-708h83v708h111v76h-305v-76z" />
    <glyph glyph-name="_643" unicode="&#x2126;" horiz-adv-x="706" 
d="M353 798c-103 0 -176 -35 -223 -98c-56 -74 -75 -177 -75 -298c0 -163 46 -283 147 -326h-129v-75h234v75c-125 38 -166 153 -166 317c0 123 16 206 58 263c34 42 86 66 154 66s121 -24 153 -66c43 -57 59 -140 59 -263c0 -164 -42 -279 -166 -317v-75h234v75h-129
c101 43 147 163 147 326c0 121 -19 224 -75 298c-47 63 -120 98 -223 98z" />
    <glyph glyph-name="_644" unicode="&#x33c0;" 
d="M674 722c132 0 149 -164 149 -329s-30 -281 -124 -319v-73h195v75h-101c74 48 115 169 115 326c0 200 -41 396 -234 396s-234 -196 -234 -396c0 -157 41 -278 115 -326h-101v-75h195v73c-94 38 -124 154 -124 319s17 329 149 329zM163 1v258h26l151 -258h92l-171 292
l163 268h-92l-142 -233h-27v457h-85v-784h85z" />
    <glyph glyph-name="_645" unicode="&#x33c1;" 
d="M737 722c88 0 98 -164 98 -329c0 -168 -22 -275 -81 -323v-69h156v75h-79c54 54 90 178 90 326c0 210 -34 396 -184 396s-183 -186 -183 -396c0 -146 35 -271 89 -326h-80v-75h157v69c-59 48 -82 155 -82 323c0 165 13 329 99 329zM316 1l104 452v-452h83v784h-82
l-149 -601l-148 601h-83v-784h83v460l106 -460h86z" />
    <glyph glyph-name="_646" unicode="&#x338a;" 
d="M146 49c26 -38 69 -61 127 -61c123 0 193 98 193 293s-70 293 -193 293c-59 0 -101 -22 -127 -60v47h-85v-803h85v291zM146 281c0 139 32 224 118 224c85 0 116 -85 116 -224c0 -140 -31 -224 -116 -224c-86 0 -118 84 -118 224zM531 1h86v352h286v76h-286v280h311v76
h-397v-784z" />
    <glyph glyph-name="_647" unicode="&#x338b;" 
d="M531 1h86v352h286v76h-286v280h311v76h-397v-784zM449 349c0 142 -59 225 -167 225c-65 0 -109 -26 -135 -70v57h-86v-560h86v288c0 138 51 216 119 216c63 0 97 -51 97 -176v-328h86v348z" />
    <glyph glyph-name="_648" unicode="&#x338c;" 
d="M238 -12c52 0 95 28 121 70v-57h84v560h-84v-296c0 -133 -54 -208 -120 -208c-60 0 -92 55 -92 156v348h-85v-803h85v273c20 -27 52 -43 91 -43zM531 1h86v352h286v76h-286v280h311v76h-397v-784z" />
    <glyph glyph-name="_649" unicode="&#x33d6;" 
d="M287 289c0 141 24 216 55 216c26 0 40 -46 40 -138v-366h82v364c0 144 -40 209 -113 209c-42 0 -71 -19 -90 -56c-19 37 -50 56 -87 56c-25 0 -48 -14 -65 -34v21h-79v-560h81v289c0 141 23 215 54 215c26 0 41 -46 41 -138v-366h81v288zM784 281c0 185 -35 293 -141 293
c-105 0 -140 -108 -140 -293s35 -293 140 -293c106 0 141 108 141 293zM703 281c0 -140 -15 -224 -60 -224s-59 84 -59 224c0 139 14 224 59 224s60 -85 60 -224zM909 1v784h-82v-784h82z" />
    <glyph glyph-name="_650" unicode="&#x33c5;" 
d="M55 281c0 -185 65 -293 202 -293c114 0 183 70 195 193h-85c-8 -77 -47 -124 -110 -124c-84 0 -118 84 -118 224c0 139 34 224 118 224c63 0 102 -47 110 -124h85c-12 123 -81 193 -195 193c-137 0 -202 -108 -202 -293zM809 516c-24 36 -64 58 -118 58
c-115 0 -182 -98 -182 -293c0 -196 67 -293 182 -293c54 0 94 21 118 57v-44h83v784h-83v-269zM809 281c0 -140 -29 -224 -109 -224s-108 84 -108 224c0 139 28 224 108 224s109 -85 109 -224z" />
    <glyph glyph-name="_651" unicode="&#x33ad;" 
d="M492 1h82c-4 20 -7 50 -7 77v288c0 137 -48 208 -143 208c-90 0 -140 -67 -143 -175h83c2 66 22 106 60 106c41 0 61 -49 61 -138v-54c-18 19 -44 31 -78 31c-85 0 -138 -67 -138 -178c0 -112 53 -178 138 -178c33 0 64 15 82 34c1 -15 0 -6 3 -21zM485 166
c0 -68 -22 -109 -67 -109s-68 41 -68 109c0 67 23 109 68 109s67 -42 67 -109zM840 544c-19 18 -48 30 -78 30c-93 0 -146 -98 -146 -293c0 -196 53 -293 146 -293c30 0 60 15 78 40v-27h82v784h-82v-241zM840 281c0 -140 -19 -224 -71 -224s-71 84 -71 224
c0 139 19 224 71 224s71 -85 71 -224zM219 504c13 0 31 -2 43 -4l1 67c-12 5 -28 7 -42 7c-47 0 -82 -24 -101 -60v47h-82v-560h82v285c0 146 39 218 99 218z" />
    <glyph glyph-name="_652" unicode="&#x33ae;" 
d="M767 265c-89 0 -138 -39 -138 -91c0 -50 34 -77 117 -89c14 -2 30 -5 44 -7c41 -6 59 -15 59 -31c0 -19 -31 -32 -76 -32s-75 13 -75 32v20h-71v-20c0 -55 59 -93 146 -93c90 0 146 39 146 93c0 55 -34 81 -115 93c-14 2 -29 5 -43 7c-41 7 -61 15 -61 28
c0 16 24 29 67 29c44 0 68 -13 68 -29v-17h71v16c0 53 -51 91 -139 91zM481 392c-6 16 -10 36 -10 53v144c0 77 -40 118 -118 118c-74 0 -116 -40 -118 -106h72c2 27 17 43 46 43c31 0 46 -19 46 -55v-13c-16 11 -36 16 -59 16c-70 0 -114 -39 -114 -103
c0 -65 44 -103 114 -103c22 0 47 9 64 21c0 -5 2 -11 4 -15h73zM399 489c0 -25 -17 -41 -51 -41s-51 16 -51 41c0 24 17 40 51 40s51 -16 51 -40zM683 688c-17 12 -37 19 -59 19c-77 0 -120 -54 -120 -161s43 -160 120 -160c22 0 43 11 59 29v-23h72v420h-72v-124zM683 546
c0 -61 -14 -98 -54 -98c-39 0 -54 37 -54 98s15 98 54 98c40 0 54 -37 54 -98zM189 644c13 0 28 -1 38 -2v59c-11 5 -23 6 -36 6c-33 0 -61 -12 -78 -29v22h-72v-308h72v157c0 64 30 95 76 95zM916 384l-16 47l-843 -341l19 -47z" />
    <glyph glyph-name="_653" unicode="&#x33af;" 
d="M954 291c0 29 -21 52 -55 52c-37 0 -57 -23 -57 -52v-14h44v14c0 11 5 18 13 18s12 -7 12 -18c0 -6 -4 -14 -11 -22l-56 -62v-25h112v34h-50l31 34c13 15 17 26 17 41zM906 389l-16 47l-843 -341l19 -47zM697 265c-89 0 -138 -39 -138 -91c0 -50 34 -77 117 -89
c14 -2 30 -5 44 -7c41 -6 59 -15 59 -31c0 -19 -31 -32 -76 -32s-75 13 -75 32v20h-71v-20c0 -55 59 -93 146 -93c90 0 146 39 146 93c0 55 -34 81 -115 93c-14 2 -29 5 -43 7c-41 7 -61 15 -61 28c0 16 24 29 67 29c44 0 68 -13 68 -29v-17h71v16c0 53 -51 91 -139 91z
M471 392c-6 16 -10 36 -10 53v144c0 77 -40 118 -118 118c-74 0 -116 -40 -118 -106h72c2 27 17 43 46 43c31 0 46 -19 46 -55v-13c-16 11 -36 16 -59 16c-70 0 -114 -39 -114 -103c0 -65 44 -103 114 -103c22 0 47 9 64 21c0 -5 2 -11 4 -15h73zM389 489
c0 -25 -17 -41 -51 -41s-51 16 -51 41c0 24 17 40 51 40s51 -16 51 -40zM673 688c-17 12 -37 19 -59 19c-77 0 -120 -54 -120 -161s43 -160 120 -160c22 0 43 11 59 29v-23h72v420h-72v-124zM673 546c0 -61 -14 -98 -54 -98c-39 0 -54 37 -54 98s15 98 54 98
c40 0 54 -37 54 -98zM179 644c13 0 28 -1 38 -2v59c-11 5 -23 6 -36 6c-33 0 -61 -12 -78 -29v22h-72v-308h72v157c0 64 30 95 76 95z" />
    <glyph glyph-name="_654" unicode="&#x33db;" 
d="M290 574c-111 0 -172 -69 -172 -159c0 -84 43 -131 145 -156c18 -4 37 -10 55 -14c50 -14 76 -41 76 -94c0 -56 -39 -95 -97 -95c-56 0 -95 37 -95 96v19h-87v-19c0 -97 73 -164 182 -164c112 0 183 69 183 164c0 94 -43 139 -142 164c-18 5 -37 9 -55 14
c-52 14 -79 41 -79 87c0 49 31 89 86 89c57 0 87 -40 87 -90v-15h86v14c0 92 -64 159 -173 159zM815 504c18 0 35 -1 44 -2l1 68c-9 3 -26 4 -42 4c-89 0 -140 -41 -162 -112v99h-83v-560h83v285c0 146 64 218 159 218z" />
    <glyph glyph-name="_655" unicode="&#x33a9;" 
d="M155 377v332h132c84 0 127 -62 127 -166c0 -103 -43 -166 -127 -166h-132zM294 301c132 0 204 92 204 242s-72 242 -204 242h-223v-784h84v300h139zM817 1h83c-5 20 -10 50 -10 77v288c0 127 -59 208 -178 208c-111 0 -170 -69 -177 -175h84c5 64 34 106 93 106
c64 0 97 -54 97 -138v-64c-24 26 -63 41 -119 41c-105 0 -172 -67 -172 -178c0 -112 67 -178 172 -178c56 0 96 15 120 43c2 -11 4 -21 7 -30zM809 166c0 -68 -36 -109 -104 -109c-69 0 -104 41 -104 109c0 67 35 109 104 109c68 0 104 -42 104 -109z" />
    <glyph glyph-name="_656" unicode="&#x33aa;" 
d="M445 377v332h63c40 0 60 -62 60 -166c0 -103 -20 -166 -60 -166h-63zM512 301c90 0 139 92 139 242s-49 242 -139 242h-149v-784h82v300h67zM833 1h81c-3 20 -6 50 -6 77v288c0 127 -40 208 -123 208c-77 0 -118 -69 -122 -175h82c3 64 16 106 40 106
c28 0 42 -54 42 -138v-35c-14 8 -32 12 -55 12c-73 0 -119 -67 -119 -178c0 -112 46 -178 119 -178c21 0 45 10 59 24c0 -4 1 -8 2 -11zM827 166c0 -68 -16 -109 -46 -109s-46 41 -46 109c0 67 16 109 46 109s46 -42 46 -109zM138 1v258h14l103 -258h86l-119 292l106 268
h-86l-89 -233h-15v457h-82v-784h82z" />
    <glyph glyph-name="_657" unicode="&#x33ab;" 
d="M848 166c0 -68 -13 -109 -37 -109s-38 41 -38 109c0 67 14 109 38 109s37 -42 37 -109zM504 377v332h43c43 0 60 -62 60 -166c0 -103 -17 -166 -60 -166h-43zM551 301c94 0 139 92 139 242s-45 242 -139 242h-128v-784h81v300h47zM857 1h78c-3 20 -6 50 -6 77v288
c0 127 -37 208 -115 208c-72 0 -110 -69 -113 -175h81c3 64 14 106 32 106c23 0 34 -54 34 -138v-41c-11 10 -26 18 -45 18c-68 0 -111 -67 -111 -178c0 -112 43 -178 111 -178c20 0 42 14 54 34v-21zM236 1l64 350v-350h78v784h-66l-108 -562l-106 562h-68v-784h79v370
l65 -370h62z" />
    <glyph glyph-name="_658" unicode="&#x33ac;" 
d="M33 393c0 -226 34 -405 166 -405c40 0 71 23 94 55l2 -42h70v401h-180v-76h100v-40c0 -139 -33 -222 -84 -222c-62 0 -87 105 -87 329c0 203 21 329 87 329c50 0 78 -75 83 -195h81c-5 163 -63 271 -164 271c-131 0 -168 -171 -168 -405zM842 166
c0 -68 -13 -109 -37 -109s-38 41 -38 109c0 67 14 109 38 109s37 -42 37 -109zM498 377v332h43c43 0 60 -62 60 -166c0 -103 -17 -166 -60 -166h-43zM545 301c94 0 139 92 139 242s-45 242 -139 242h-128v-784h81v300h47zM851 1h78c-3 20 -6 50 -6 77v288
c0 127 -37 208 -115 208c-72 0 -110 -69 -113 -175h81c3 64 14 106 32 106c23 0 34 -54 34 -138v-41c-11 10 -26 18 -45 18c-68 0 -111 -67 -111 -178c0 -112 43 -178 111 -178c20 0 42 14 54 34v-21z" />
    <glyph glyph-name="_659" unicode="&#x33dd;" 
d="M642 785h-84v-784h84v40c22 -33 59 -53 106 -53c111 0 173 97 173 293c0 195 -62 293 -173 293c-47 0 -86 -21 -106 -54v265zM642 281c0 139 26 224 98 224c71 0 98 -85 98 -224c0 -140 -27 -224 -98 -224c-72 0 -98 84 -98 224zM416 1l104 784h-84l-66 -521l-69 521h-75
l-71 -522l-65 522h-84l105 -784h84l69 498l68 -498h84z" />
    <glyph glyph-name="_660" unicode="&#x33d0;" 
d="M628 289c0 141 39 216 91 216c47 0 72 -46 72 -138v-366h84v364c0 134 -51 209 -143 209c-62 0 -103 -31 -127 -82c-22 57 -64 82 -120 82c-45 0 -81 -19 -104 -51v38h-84v-560h84v289c0 141 39 215 91 215c46 0 72 -46 72 -138v-366h84v288zM187 1v784h-83v-784h83z" />
    <glyph glyph-name="_661" unicode="&#x33d3;" 
d="M227 1v784h-83v-784h83zM743 1h92l-199 287l188 273h-92l-147 -215l-147 215h-92l189 -273l-200 -287h91l159 228z" />
    <glyph glyph-name="_662" unicode="&#x33c3;" 
d="M158 442v267h124c70 0 103 -42 103 -134c0 -91 -33 -133 -103 -133h-124zM304 1c121 0 182 72 182 216c0 101 -40 171 -112 190h1c57 19 95 81 95 174c0 131 -59 204 -175 204h-222v-784h231zM401 221c0 -96 -32 -145 -111 -145h-132v290h132c79 0 111 -48 111 -145z
M816 -241h82v803h-82v-37c-23 33 -58 50 -107 50c-111 0 -172 -98 -172 -293s61 -293 172 -293c49 0 84 18 107 50v-280zM816 282c0 -140 -27 -224 -99 -224s-99 84 -99 224c0 139 27 224 99 224s99 -85 99 -224z" />
    <glyph glyph-name="_663" unicode="&#x33c9;" 
d="M55 393c0 -216 46 -405 218 -405c65 0 115 30 143 75l6 -62h69v401h-223v-76h140v-40c0 -139 -51 -222 -133 -222c-97 0 -135 105 -135 329c0 203 31 329 135 329c81 0 125 -75 131 -195h84c-7 163 -82 271 -215 271c-170 0 -220 -181 -220 -405zM668 -107
c-13 -49 -30 -66 -50 -66h-32v-67c14 -2 25 -2 37 -2c60 0 97 22 121 110l189 693h-85l-110 -412l-111 412h-85l154 -561z" />
    <glyph glyph-name="_664" unicode="&#x33dc;" 
d="M483 211c0 117 -54 190 -160 220l-75 21c-60 17 -93 60 -93 134c0 81 40 136 112 136c71 0 110 -55 110 -136v-15h85v15c0 116 -69 212 -195 212c-129 0 -195 -96 -195 -212c0 -112 60 -183 150 -208l75 -21c70 -20 103 -73 103 -147c0 -85 -46 -147 -122 -147
c-78 0 -123 62 -123 147v22h-83v-21c0 -127 74 -223 206 -223c131 0 205 96 205 223zM759 1l159 560h-85l-119 -430l-119 430h-85l158 -560h91z" />
    <glyph glyph-name="_665" unicode="&#x33c6;" 
d="M511 1v129h1l91 -129h84l-113 160l100 148h-82l-79 -116h-2v218h-71v-410h71zM844 -1c0 -41 -17 -65 -48 -65c-25 0 -43 18 -48 49h-72c8 -68 51 -112 120 -112c83 0 120 56 120 131v307h-72v-17c-16 15 -35 24 -59 24c-77 0 -120 -54 -120 -161c0 -106 43 -160 120 -160
c24 0 45 8 59 26v-22zM844 155c0 -61 -14 -98 -54 -98s-54 37 -54 98s14 98 54 98s54 -37 54 -98zM191 386c91 0 143 64 148 163h-72c-4 -60 -30 -97 -76 -97c-59 0 -78 55 -78 150c0 92 17 151 78 151c45 0 72 -38 76 -98h72c-5 99 -57 164 -148 164
c-117 0 -151 -97 -151 -217c0 -121 33 -216 151 -216zM33 26l45 -36l609 763l-46 34z" />
    <glyph glyph-name="_666" unicode="&#xc6;" horiz-adv-x="969" 
d="M924 1v76h-371v287h326v76h-326v269h366v76h-503l-427 -784h95l101 186h281v-186h458zM466 263h-240l240 443v-443z" />
    <glyph glyph-name="_667" unicode="&#xd0;" horiz-adv-x="706" 
d="M10 425v-64h73v-360h274c241 0 294 185 294 392c0 206 -54 392 -294 392h-274v-360h-73zM564 393c0 -204 -51 -316 -214 -316h-180v284h156v64h-156v284h180c162 0 214 -113 214 -316z" />
    <glyph glyph-name="_668" unicode="&#xaa;" horiz-adv-x="443" 
d="M192 364c57 0 104 20 120 57c0 -17 3 -35 8 -47h74c-4 13 -9 36 -9 57v222c0 82 -55 141 -161 141c-103 0 -156 -53 -160 -131h74c2 48 32 73 86 73c60 0 88 -30 88 -82v-88c-17 39 -63 58 -122 58c-86 0 -147 -44 -147 -130s60 -130 149 -130zM312 494
c0 -46 -35 -73 -98 -73c-62 0 -97 27 -97 73s35 72 97 72c63 0 98 -26 98 -72zM37 241h370v62h-370v-62z" />
    <glyph glyph-name="_669" unicode="&#x126;" horiz-adv-x="700" 
d="M10 659v-64h74v-594h87v363h358v-363h87v594h74v64h-74v126h-87v-126h-358v126h-87v-126h-74zM171 441v154h358v-154h-358z" />
    <glyph glyph-name="_670" unicode="&#x132;" horiz-adv-x="826" 
d="M164 785h-87v-784h87v784zM515 63c-99 0 -151 60 -153 183h-86v-5c0 -161 84 -253 238 -253c152 0 240 92 240 253v544h-87v-534c0 -127 -56 -188 -152 -188z" />
    <glyph glyph-name="_671" unicode="&#x13f;" horiz-adv-x="551" 
d="M77 1h458v75h-371v709h-87v-784zM409 471h-95v-97h95v97z" />
    <glyph glyph-name="_672" unicode="&#x141;" horiz-adv-x="558" 
d="M16 257l67 35v-291h459v76h-372v261l212 111v72l-212 -111v375h-87v-421l-67 -35v-72z" />
    <glyph glyph-name="_673" unicode="&#xd8;" horiz-adv-x="706" 
d="M150 -35l37 66c43 -28 97 -43 165 -43c230 0 299 175 299 405c0 118 -17 223 -70 298c-4 6 -7 12 -12 17l64 113h-78l-37 -67c-43 29 -97 44 -166 44c-230 0 -298 -178 -298 -405c0 -119 18 -225 70 -299c3 -6 8 -11 11 -16l-62 -113h77zM141 393c0 201 46 329 211 329
c52 0 95 -13 126 -39l-297 -525c-30 56 -40 134 -40 235zM565 393c0 -201 -47 -329 -213 -329c-51 0 -93 13 -125 37l297 526c29 -57 41 -135 41 -234z" />
    <glyph glyph-name="_674" unicode="&#x152;" horiz-adv-x="1027" 
d="M349 1h633v76h-371v287h325v76h-325v269h366v76h-628c-241 0 -294 -187 -294 -392c0 -206 52 -392 294 -392zM141 393c0 203 53 316 216 316h167v-632h-167c-164 0 -216 112 -216 316z" />
    <glyph glyph-name="_675" unicode="&#xba;" horiz-adv-x="444" 
d="M400 578c0 142 -62 216 -178 216s-178 -74 -178 -216c0 -143 62 -216 178 -216s178 73 178 216zM327 578c0 -114 -34 -158 -105 -158s-105 44 -105 158c0 113 34 157 105 157s105 -44 105 -157zM37 241h370v62h-370v-62z" />
    <glyph glyph-name="_676" unicode="&#xde;" horiz-adv-x="650" 
d="M164 785h-87v-784h87v150h208c159 0 246 92 246 242s-87 242 -246 242h-208v150zM164 227v332h199c111 0 168 -62 168 -166s-57 -166 -168 -166h-199z" />
    <glyph glyph-name="_677" unicode="&#x166;" horiz-adv-x="579" 
d="M120 369h126v-368h86v368h127v64h-127v276h230v76h-546v-76h230v-276h-126v-64z" />
    <glyph glyph-name="_678" unicode="&#x14a;" horiz-adv-x="697" 
d="M533 -80c0 -61 -27 -87 -79 -87h-29v-73c10 -1 28 -2 40 -2c108 0 155 55 155 163v864h-87v-631l-369 631h-87v-784h87v630l369 -632v-79z" />
    <glyph glyph-name="_679" unicode="&#x3260;" 
d="M27 393c0 -254 201 -451 453 -451s453 197 453 451s-201 451 -453 451s-453 -197 -453 -451zM86 393c0 222 174 396 394 396s394 -174 394 -396s-174 -396 -394 -396s-394 174 -394 396zM248 582v-70h375v-306h80v376h-455z" />
    <glyph glyph-name="_680" unicode="&#x3261;" 
d="M27 393c0 -254 201 -451 453 -451s453 197 453 451s-201 451 -453 451s-453 -197 -453 -451zM86 393c0 222 174 396 394 396s394 -174 394 -396s-174 -396 -394 -396s-394 174 -394 396zM710 206v71h-375v305h-80v-376h455z" />
    <glyph glyph-name="_681" unicode="&#x3262;" 
d="M27 393c0 -254 201 -451 453 -451s453 197 453 451s-201 451 -453 451s-453 -197 -453 -451zM86 393c0 222 174 396 394 396s394 -174 394 -396s-174 -396 -394 -396s-394 174 -394 396zM335 277v235h368v70h-448v-376h455v71h-375z" />
    <glyph glyph-name="_682" unicode="&#x3263;" 
d="M27 393c0 -254 201 -451 453 -451s453 197 453 451s-201 451 -453 451s-453 -197 -453 -451zM86 393c0 222 174 396 394 396s394 -174 394 -396s-174 -396 -394 -396s-394 174 -394 396zM338 268v91h360v230h-440v-71h360v-88h-360v-232h455v70h-375z" />
    <glyph glyph-name="_683" unicode="&#x3264;" 
d="M27 393c0 -254 201 -451 453 -451s453 197 453 451s-201 451 -453 451s-453 -197 -453 -451zM86 393c0 222 174 396 394 396s394 -174 394 -396s-174 -396 -394 -396s-394 174 -394 396zM255 582v-376h448v376h-448zM623 512v-235h-288v235h288z" />
    <glyph glyph-name="_684" unicode="&#x3265;" 
d="M27 393c0 -254 201 -451 453 -451s453 197 453 451s-201 451 -453 451s-453 -197 -453 -451zM86 393c0 222 174 396 394 396s394 -174 394 -396s-174 -396 -394 -396s-394 174 -394 396zM335 449v133h-80v-376h448v376h-80v-133h-288zM623 378v-101h-288v101h288z" />
    <glyph glyph-name="_685" unicode="&#x3266;" 
d="M27 393c0 -254 201 -451 453 -451s453 197 453 451s-201 451 -453 451s-453 -197 -453 -451zM86 393c0 222 174 396 394 396s394 -174 394 -396s-174 -396 -394 -396s-394 174 -394 396zM731 210v73c-122 18 -212 96 -212 230v87h-81v-87c0 -134 -93 -211 -210 -230v-72
c113 14 207 74 251 145c44 -73 139 -130 252 -146z" />
    <glyph glyph-name="_686" unicode="&#x3267;" 
d="M27 393c0 -254 201 -451 453 -451s453 197 453 451s-201 451 -453 451s-453 -197 -453 -451zM86 393c0 222 174 396 394 396s394 -174 394 -396s-174 -396 -394 -396s-394 174 -394 396zM321 395c0 36 14 66 39 89c27 25 69 39 119 39s91 -14 119 -39
c25 -23 39 -53 39 -89c0 -37 -14 -67 -39 -90c-28 -25 -69 -39 -119 -39s-91 14 -119 39c-25 23 -39 53 -39 90zM241 395c0 -61 28 -113 71 -149c41 -31 101 -50 167 -50s125 19 166 50c43 36 72 88 72 149c0 60 -27 113 -72 148c-41 31 -100 50 -166 50s-126 -19 -167 -50
c-44 -35 -71 -88 -71 -148z" />
    <glyph glyph-name="_687" unicode="&#x3268;" 
d="M27 393c0 -254 201 -451 453 -451s453 197 453 451s-201 451 -453 451s-453 -197 -453 -451zM86 393c0 222 174 396 394 396s394 -174 394 -396s-174 -396 -394 -396s-394 174 -394 396zM438 512v-24c0 -122 -97 -195 -201 -215v-72c102 18 196 75 242 146
c46 -71 136 -128 241 -146v72c-106 20 -201 93 -201 215v24h195v70h-469v-70h193z" />
    <glyph glyph-name="_688" unicode="&#x3269;" 
d="M27 393c0 -254 201 -451 453 -451s453 197 453 451s-201 451 -453 451s-453 -197 -453 -451zM86 393c0 222 174 396 394 396s394 -174 394 -396s-174 -396 -394 -396s-394 174 -394 396zM714 534h-195v98h-81v-98h-193v-70h193c-4 -103 -99 -175 -201 -192v-73
c101 15 194 70 241 138c45 -70 136 -123 242 -137v72c-104 17 -197 89 -201 192h195v70z" />
    <glyph glyph-name="_689" unicode="&#x326a;" 
d="M27 393c0 -254 201 -451 453 -451s453 197 453 451s-201 451 -453 451s-453 -197 -453 -451zM86 393c0 222 174 396 394 396s394 -174 394 -396s-174 -396 -394 -396s-394 174 -394 396zM255 582v-70h368v-92c-59 -8 -127 -12 -180 -12h-188v-70h187c58 0 124 4 181 13
v-145h80v376h-448z" />
    <glyph glyph-name="_690" unicode="&#x326b;" 
d="M27 393c0 -254 201 -451 453 -451s453 197 453 451s-201 451 -453 451s-453 -197 -453 -451zM86 393c0 222 174 396 394 396s394 -174 394 -396s-174 -396 -394 -396s-394 174 -394 396zM338 268v91h352v71h-352v88h360v71h-440v-391h455v70h-375z" />
    <glyph glyph-name="_691" unicode="&#x326c;" 
d="M27 393c0 -254 201 -451 453 -451s453 197 453 451s-201 451 -453 451s-453 -197 -453 -451zM86 393c0 222 174 396 394 396s394 -174 394 -396s-174 -396 -394 -396s-394 174 -394 396zM557 411c0 -47 -4 -99 -15 -134h-139v235h154v-101zM637 512h81v70h-478v-70h83
v-235h-98v-71h508v71h-112c11 38 16 91 16 139v96z" />
    <glyph glyph-name="_692" unicode="&#x326d;" 
d="M27 393c0 -254 201 -451 453 -451s453 197 453 451s-201 451 -453 451s-453 -197 -453 -451zM86 393c0 222 174 396 394 396s394 -174 394 -396s-174 -396 -394 -396s-394 174 -394 396zM230 549v-70h497v70h-208v86h-82v-86h-207zM479 242c-58 0 -103 11 -127 30
c-10 8 -17 22 -17 35s7 27 17 35c24 19 69 30 127 30s103 -11 127 -30c10 -8 17 -22 17 -35s-7 -27 -17 -35c-24 -19 -69 -30 -127 -30zM479 172c81 0 146 18 183 50c26 23 41 51 41 85s-15 62 -41 85c-37 32 -102 50 -183 50s-146 -18 -183 -50c-26 -23 -41 -51 -41 -85
s15 -62 41 -85c37 -32 102 -50 183 -50z" />
    <glyph glyph-name="_693" unicode="&#x326e;" 
d="M27 393c0 -254 201 -451 453 -451s453 197 453 451s-201 451 -453 451s-453 -197 -453 -451zM86 393c0 222 174 396 394 396s394 -174 394 -396s-174 -396 -394 -396s-394 174 -394 396zM452 547c0 -188 -75 -311 -230 -357v-69c209 55 306 204 306 431v118h-302v-66h226
v-57zM626 690v-602h76v292h95v66h-95v244h-76z" />
    <glyph glyph-name="_694" unicode="&#x326f;" 
d="M27 393c0 -254 201 -451 453 -451s453 197 453 451s-201 451 -453 451s-453 -197 -453 -451zM86 393c0 222 174 396 394 396s394 -174 394 -396s-174 -396 -394 -396s-394 174 -394 396zM481 129c59 0 110 12 145 35v-76h76v292h95v66h-95v244h-76v-455
c-30 -27 -79 -41 -136 -41h-188v480h-76v-545h255z" />
    <glyph glyph-name="_695" unicode="&#x3270;" 
d="M27 393c0 -254 201 -451 453 -451s453 197 453 451s-201 451 -453 451s-453 -197 -453 -451zM86 393c0 222 174 396 394 396s394 -174 394 -396s-174 -396 -394 -396s-394 174 -394 396zM488 129c56 0 105 11 138 32v-73h76v292h95v66h-95v244h-76v-459
c-28 -25 -73 -37 -129 -37h-195v410h222v66h-298v-541h262z" />
    <glyph glyph-name="_696" unicode="&#x3271;" 
d="M27 393c0 -254 201 -451 453 -451s453 197 453 451s-201 451 -453 451s-453 -197 -453 -451zM86 393c0 222 174 396 394 396s394 -174 394 -396s-174 -396 -394 -396s-394 174 -394 396zM488 129c56 0 105 11 138 32v-73h76v292h95v66h-95v244h-76v-459
c-28 -25 -73 -37 -129 -37h-195v175h215v301h-291v-66h215v-169h-215v-306h262z" />
    <glyph glyph-name="_697" unicode="&#x3272;" 
d="M27 393c0 -254 201 -451 453 -451s453 197 453 451s-201 451 -453 451s-453 -197 -453 -451zM86 393c0 222 174 396 394 396s394 -174 394 -396s-174 -396 -394 -396s-394 174 -394 396zM528 670h-302v-541h302v541zM302 194v410h150v-410h-150zM626 690v-602h76v292h95
v66h-95v244h-76z" />
    <glyph glyph-name="_698" unicode="&#x3273;" 
d="M27 393c0 -254 201 -451 453 -451s453 197 453 451s-201 451 -453 451s-453 -197 -453 -451zM86 393c0 222 174 396 394 396s394 -174 394 -396s-174 -396 -394 -396s-394 174 -394 396zM302 670h-76v-541h302v541h-76v-209h-150v209zM302 194v201h150v-201h-150z
M626 690v-602h76v292h95v66h-95v244h-76z" />
    <glyph glyph-name="_699" unicode="&#x3274;" 
d="M27 393c0 -254 201 -451 453 -451s453 197 453 451s-201 451 -453 451s-453 -197 -453 -451zM86 393c0 222 174 396 394 396s394 -174 394 -396s-174 -396 -394 -396s-394 174 -394 396zM560 124v69c-73 35 -142 98 -142 253v228h-77v-228c0 -155 -69 -220 -141 -253v-69
c79 29 148 82 180 148c31 -65 101 -118 180 -148zM626 690v-602h76v292h95v66h-95v244h-76z" />
    <glyph glyph-name="_700" unicode="&#x3275;" 
d="M27 393c0 -254 201 -451 453 -451s453 197 453 451s-201 451 -453 451s-453 -197 -453 -451zM86 393c0 222 174 396 394 396s394 -174 394 -396s-174 -396 -394 -396s-394 174 -394 396zM626 690v-602h76v292h95v66h-95v244h-76zM294 400c0 91 11 171 48 202
c10 8 23 13 37 13s27 -5 37 -13c37 -31 48 -111 48 -202s-11 -171 -48 -202c-10 -8 -23 -13 -37 -13s-27 5 -37 13c-37 31 -48 111 -48 202zM218 400c0 -126 24 -219 85 -259c21 -14 46 -21 76 -21s55 7 76 21c61 40 85 133 85 259s-24 219 -85 259c-21 14 -46 21 -76 21
s-55 -7 -76 -21c-61 -40 -85 -133 -85 -259z" />
    <glyph glyph-name="_701" unicode="&#x3276;" 
d="M27 393c0 -254 201 -451 453 -451s453 197 453 451s-201 451 -453 451s-453 -197 -453 -451zM86 393c0 222 174 396 394 396s394 -174 394 -396s-174 -396 -394 -396s-394 174 -394 396zM218 604h130v-163c0 -144 -69 -216 -136 -248v-69c76 29 142 86 174 149
c30 -63 93 -117 174 -149v69c-68 33 -136 104 -136 248v163h130v66h-336v-66zM626 690v-602h76v292h95v66h-95v244h-76z" />
    <glyph glyph-name="_702" unicode="&#x3277;" 
d="M27 393c0 -254 201 -451 453 -451s453 197 453 451s-201 451 -453 451s-453 -197 -453 -451zM86 393c0 222 174 396 394 396s394 -174 394 -396s-174 -396 -394 -396s-394 174 -394 396zM218 537h130v-96c0 -144 -69 -216 -136 -248v-69c76 29 142 86 174 149
c30 -63 93 -117 174 -149v69c-68 33 -136 104 -136 248v96h130v64h-130v97h-76v-97h-130v-64zM626 690v-602h76v292h95v66h-95v244h-76z" />
    <glyph glyph-name="_703" unicode="&#x3278;" 
d="M27 393c0 -254 201 -451 453 -451s453 197 453 451s-201 451 -453 451s-453 -197 -453 -451zM86 393c0 222 174 396 394 396s394 -174 394 -396s-174 -396 -394 -396s-394 174 -394 396zM452 547c0 -27 -1 -54 -4 -79c-27 -8 -72 -12 -118 -12h-108v-66h106
c39 0 77 4 106 11c-29 -107 -98 -175 -212 -210v-69c209 54 306 203 306 430v118h-302v-66h226v-57zM626 690v-602h76v292h95v66h-95v244h-76z" />
    <glyph glyph-name="_704" unicode="&#x3279;" 
d="M27 393c0 -254 201 -451 453 -451s453 197 453 451s-201 451 -453 451s-453 -197 -453 -451zM86 393c0 222 174 396 394 396s394 -174 394 -396s-174 -396 -394 -396s-394 174 -394 396zM302 604h226v66h-302v-540h262c55 0 105 11 138 31v-73h76v292h95v66h-95v244h-76
v-459c-32 -28 -92 -37 -160 -37h-164v175h215v66h-215v169z" />
    <glyph glyph-name="_705" unicode="&#x327a;" 
d="M27 393c0 -254 201 -451 453 -451s453 197 453 451s-201 451 -453 451s-453 -197 -453 -451zM86 393c0 222 174 396 394 396s394 -174 394 -396s-174 -396 -394 -396s-394 174 -394 396zM439 341c0 -52 -3 -107 -11 -147h-74v410h85v-263zM211 194v-65h285
c52 0 99 8 130 28v-69h76v292h95v66h-95v244h-76v-462c-26 -23 -69 -34 -123 -34h-1c8 46 12 111 12 175v235h62v66h-358v-66h60v-410h-67z" />
    <glyph glyph-name="_706" unicode="&#x327b;" 
d="M27 393c0 -254 201 -451 453 -451s453 197 453 451s-201 451 -453 451s-453 -197 -453 -451zM86 393c0 222 174 396 394 396s394 -174 394 -396s-174 -396 -394 -396s-394 174 -394 396zM341 609h-141v-66h358v66h-141v89h-76v-89zM626 690v-602h76v292h95v66h-95v244
h-76zM302 311c0 54 10 91 32 111c12 11 27 17 47 17s35 -6 47 -17c22 -20 32 -57 32 -111s-10 -91 -32 -111c-12 -11 -27 -17 -47 -17s-35 6 -47 17c-22 20 -32 57 -32 111zM226 311c0 -78 21 -133 60 -164c25 -20 57 -30 95 -30s70 10 95 30c39 31 60 86 60 164
s-21 133 -60 164c-25 20 -57 30 -95 30s-70 -10 -95 -30c-39 -31 -60 -86 -60 -164z" />
    <glyph glyph-name="_707" unicode="&#x24d0;" 
d="M27 393c0 -254 201 -451 453 -451s453 197 453 451s-201 451 -453 451s-453 -197 -453 -451zM86 393c0 222 174 396 394 396s394 -174 394 -396s-174 -396 -394 -396s-394 174 -394 396zM578 187h79c-7 19 -12 44 -12 63v202c0 93 -56 154 -167 154
c-104 0 -160 -55 -167 -140h79c5 44 32 74 88 74c59 0 89 -34 89 -88v-38c-23 19 -61 31 -109 31c-99 0 -162 -50 -162 -133c0 -85 63 -134 162 -134c51 0 88 12 111 33c2 -8 5 -16 9 -24zM567 312c0 -42 -32 -68 -96 -68s-96 26 -96 68c0 41 32 67 96 67s96 -26 96 -67z
" />
    <glyph glyph-name="_708" unicode="&#x24d1;" 
d="M27 393c0 -254 201 -451 453 -451s453 197 453 451s-201 451 -453 451s-453 -197 -453 -451zM86 393c0 222 174 396 394 396s394 -174 394 -396s-174 -396 -394 -396s-394 174 -394 396zM406 697h-78v-567h78v35c23 -25 63 -44 110 -44c108 0 170 71 170 214
s-62 214 -170 214c-47 0 -87 -19 -110 -44v192zM406 335c0 91 27 148 102 148c72 0 100 -57 100 -148c0 -92 -28 -148 -100 -148c-75 0 -102 56 -102 148z" />
    <glyph glyph-name="_709" unicode="&#x24d2;" 
d="M27 393c0 -254 201 -451 453 -451s453 197 453 451s-201 451 -453 451s-453 -197 -453 -451zM86 393c0 222 174 396 394 396s394 -174 394 -396s-174 -396 -394 -396s-394 174 -394 396zM301 392c0 -135 58 -214 179 -214c101 0 163 56 174 153h-79
c-7 -54 -40 -87 -95 -87c-74 0 -101 56 -101 148c0 91 27 148 101 148c55 0 88 -33 95 -87h79c-11 97 -73 153 -174 153c-121 0 -179 -78 -179 -214z" />
    <glyph glyph-name="_710" unicode="&#x24d3;" 
d="M27 393c0 -254 201 -451 453 -451s453 197 453 451s-201 451 -453 451s-453 -197 -453 -451zM86 393c0 222 174 396 394 396s394 -174 394 -396s-174 -396 -394 -396s-394 174 -394 396zM548 509c-23 25 -63 44 -109 44c-109 0 -171 -71 -171 -214s62 -214 171 -214
c46 0 86 19 109 44v-35h78v567h-78v-192zM548 339c0 -92 -27 -148 -101 -148s-101 56 -101 148c0 91 27 148 101 148s101 -57 101 -148z" />
    <glyph glyph-name="_711" unicode="&#x24d4;" 
d="M27 393c0 -254 201 -451 453 -451s453 197 453 451s-201 451 -453 451s-453 -197 -453 -451zM86 393c0 222 174 396 394 396s394 -174 394 -396s-174 -396 -394 -396s-394 174 -394 396zM572 322c-8 -45 -42 -77 -91 -77c-67 0 -98 45 -102 122h280v26
c0 136 -58 214 -179 214s-179 -78 -179 -214s58 -214 180 -214c96 0 155 54 171 143h-80zM379 429c6 72 37 112 101 112c63 0 94 -42 100 -112h-201z" />
    <glyph glyph-name="_712" unicode="&#x24d5;" 
d="M27 393c0 -254 201 -451 453 -451s453 197 453 451s-201 451 -453 451s-453 -197 -453 -451zM86 393c0 222 174 396 394 396s394 -174 394 -396s-174 -396 -394 -396s-394 174 -394 396zM595 609v63c-20 3 -37 4 -53 4c-95 0 -132 -31 -132 -122v-41h-58v-66h58v-344h78
v344h107v66h-107v37c0 44 14 59 60 59h47z" />
    <glyph glyph-name="_713" unicode="&#x24d6;" 
d="M27 393c0 -254 201 -451 453 -451s453 197 453 451s-201 451 -453 451s-453 -197 -453 -451zM86 393c0 222 174 396 394 396s394 -174 394 -396s-174 -396 -394 -396s-394 174 -394 396zM572 250c0 -64 -33 -102 -93 -102c-48 0 -81 26 -88 70h-79
c10 -83 70 -136 167 -136c118 0 171 74 171 172v420h-78v-35c-23 25 -63 44 -109 44c-109 0 -171 -71 -171 -214c0 -142 62 -214 171 -214c49 0 86 16 109 44v-49zM572 469c0 -92 -28 -148 -101 -148c-74 0 -101 56 -101 148c0 91 27 148 101 148c73 0 101 -57 101 -148z
" />
    <glyph glyph-name="_714" unicode="&#x24d7;" 
d="M27 393c0 -254 201 -451 453 -451s453 197 453 451s-201 451 -453 451s-453 -197 -453 -451zM86 393c0 222 174 396 394 396s394 -174 394 -396s-174 -396 -394 -396s-394 174 -394 396zM670 377c0 105 -52 166 -147 166c-55 0 -93 -18 -117 -50v198h-78v-567h78v211
c0 90 45 142 103 142c55 0 84 -33 84 -114v-239h77v253z" />
    <glyph glyph-name="_715" unicode="&#x24d8;" 
d="M27 393c0 -254 201 -451 453 -451s453 197 453 451s-201 451 -453 451s-453 -197 -453 -451zM86 393c0 222 174 396 394 396s394 -174 394 -396s-174 -396 -394 -396s-394 174 -394 396zM519 114v410h-79v-410h79zM519 587v94h-79v-94h79z" />
    <glyph glyph-name="_716" unicode="&#x24d9;" 
d="M27 393c0 -254 201 -451 453 -451s453 197 453 451s-201 451 -453 451s-453 -197 -453 -451zM86 393c0 222 174 396 394 396s394 -174 394 -396s-174 -396 -394 -396s-394 174 -394 396zM544 567h-79v-393c0 -37 -16 -51 -46 -51h-32v-64c9 -2 27 -3 37 -3
c83 0 120 42 120 123v388zM544 630v94h-79v-94h79z" />
    <glyph glyph-name="_717" unicode="&#x24da;" 
d="M27 393c0 -254 201 -451 453 -451s453 197 453 451s-201 451 -453 451s-453 -197 -453 -451zM86 393c0 222 174 396 394 396s394 -174 394 -396s-174 -396 -394 -396s-394 174 -394 396zM428 130v181h28l141 -181h95l-168 213l149 197h-91l-124 -163h-30v320h-78v-567h78
z" />
    <glyph glyph-name="_718" unicode="&#x24db;" 
d="M27 393c0 -254 201 -451 453 -451s453 197 453 451s-201 451 -453 451s-453 -197 -453 -451zM86 393c0 222 174 396 394 396s394 -174 394 -396s-174 -396 -394 -396s-394 174 -394 396zM523 109v567h-79v-567h79z" />
    <glyph glyph-name="_719" unicode="&#x24dc;" 
d="M27 393c0 -254 201 -451 453 -451s453 197 453 451s-201 451 -453 451s-453 -197 -453 -451zM86 393c0 222 174 396 394 396s394 -174 394 -396s-174 -396 -394 -396s-394 174 -394 396zM524 398c0 92 41 142 94 142c49 0 75 -29 75 -88v-265h78v264
c0 100 -50 155 -140 155c-60 0 -101 -27 -126 -68c-23 44 -67 68 -121 68c-48 0 -84 -16 -107 -47v38h-78v-410h78v211c0 93 41 142 94 142c48 0 75 -29 75 -88v-265h78v211z" />
    <glyph glyph-name="_720" unicode="&#x24dd;" 
d="M27 393c0 -254 201 -451 453 -451s453 197 453 451s-201 451 -453 451s-453 -197 -453 -451zM86 393c0 222 174 396 394 396s394 -174 394 -396s-174 -396 -394 -396s-394 174 -394 396zM655 440c0 105 -52 166 -147 166c-55 0 -93 -18 -117 -50v41h-78v-410h78v211
c0 90 45 142 103 142c55 0 84 -33 84 -114v-239h77v253z" />
    <glyph glyph-name="_721" unicode="&#x24de;" 
d="M27 393c0 -254 201 -451 453 -451s453 197 453 451s-201 451 -453 451s-453 -197 -453 -451zM86 393c0 222 174 396 394 396s394 -174 394 -396s-174 -396 -394 -396s-394 174 -394 396zM659 393c0 136 -58 214 -179 214s-179 -78 -179 -214c0 -135 58 -214 179 -214
s179 79 179 214zM581 393c0 -92 -27 -148 -101 -148s-101 56 -101 148c0 91 27 148 101 148s101 -57 101 -148z" />
    <glyph glyph-name="_722" unicode="&#x24df;" 
d="M27 393c0 -254 201 -451 453 -451s453 197 453 451s-201 451 -453 451s-453 -197 -453 -451zM86 393c0 222 174 396 394 396s394 -174 394 -396s-174 -396 -394 -396s-394 174 -394 396zM408 288c23 -28 60 -44 109 -44c109 0 171 72 171 214c0 143 -62 214 -171 214
c-46 0 -86 -19 -109 -44v35h-78v-581h78v206zM408 458c0 91 27 148 101 148c73 0 101 -57 101 -148c0 -92 -28 -148 -101 -148c-74 0 -101 56 -101 148z" />
    <glyph glyph-name="_723" unicode="&#x24e0;" 
d="M27 393c0 -254 201 -451 453 -451s453 197 453 451s-201 451 -453 451s-453 -197 -453 -451zM86 393c0 222 174 396 394 396s394 -174 394 -396s-174 -396 -394 -396s-394 174 -394 396zM550 82h78v581h-78v-35c-23 25 -63 44 -109 44c-109 0 -171 -71 -171 -214
c0 -142 62 -214 171 -214c49 0 86 16 109 44v-206zM550 458c0 -92 -28 -148 -101 -148c-74 0 -101 56 -101 148c0 91 27 148 101 148c73 0 101 -57 101 -148z" />
    <glyph glyph-name="_724" unicode="&#x24e1;" 
d="M27 393c0 -254 201 -451 453 -451s453 197 453 451s-201 451 -453 451s-453 -197 -453 -451zM86 393c0 222 174 396 394 396s394 -174 394 -396s-174 -396 -394 -396s-394 174 -394 396zM567 530c13 0 27 0 40 -1l1 61c-14 7 -27 7 -39 7c-49 0 -83 -16 -104 -44v35h-78
v-410h78v209c0 96 41 143 102 143z" />
    <glyph glyph-name="_725" unicode="&#x24e2;" 
d="M27 393c0 -254 201 -451 453 -451s453 197 453 451s-201 451 -453 451s-453 -197 -453 -451zM86 393c0 222 174 396 394 396s394 -174 394 -396s-174 -396 -394 -396s-394 174 -394 396zM478 607c-97 0 -152 -52 -152 -120c0 -66 38 -101 128 -118c16 -3 32 -7 48 -10
c42 -10 66 -26 66 -57c0 -34 -34 -57 -83 -57s-83 23 -83 58v22h-78v-22c0 -73 64 -124 161 -124c98 0 161 52 161 124c0 71 -38 106 -126 124c-15 3 -32 6 -47 9c-49 11 -69 24 -69 52c0 30 27 54 74 54c49 0 75 -24 75 -54v-20h78v19c0 69 -56 120 -153 120z" />
    <glyph glyph-name="_726" unicode="&#x24e3;" 
d="M27 393c0 -254 201 -451 453 -451s453 197 453 451s-201 451 -453 451s-453 -197 -453 -451zM86 393c0 222 174 396 394 396s394 -174 394 -396s-174 -396 -394 -396s-394 174 -394 396zM483 490h115v66h-115v111h-78v-111h-58v-66h58v-231c0 -91 42 -119 135 -119
c16 0 35 0 58 3v64h-49c-45 0 -66 11 -66 61v222z" />
    <glyph glyph-name="_727" unicode="&#x24e4;" 
d="M27 393c0 -254 201 -451 453 -451s453 197 453 451s-201 451 -453 451s-453 -197 -453 -451zM86 393c0 222 174 396 394 396s394 -174 394 -396s-174 -396 -394 -396s-394 174 -394 396zM299 339c0 -106 52 -167 147 -167c55 0 93 18 117 50v-41h78v410h-78v-211
c0 -90 -45 -142 -103 -142c-55 0 -83 33 -83 115v238h-78v-252z" />
    <glyph glyph-name="_728" unicode="&#x24e5;" 
d="M27 393c0 -254 201 -451 453 -451s453 197 453 451s-201 451 -453 451s-453 -197 -453 -451zM86 393c0 222 174 396 394 396s394 -174 394 -396s-174 -396 -394 -396s-394 174 -394 396zM515 167l156 410h-82l-115 -306l-115 306h-82l156 -410h82z" />
    <glyph glyph-name="_729" unicode="&#x24e6;" 
d="M27 393c0 -254 201 -451 453 -451s453 197 453 451s-201 451 -453 451s-453 -197 -453 -451zM86 393c0 222 174 396 394 396s394 -174 394 -396s-174 -396 -394 -396s-394 174 -394 396zM439 585l-96 -294l-95 294h-81l137 -410h79l94 296l97 -296h78l137 410h-82
l-94 -295l-96 295h-78z" />
    <glyph glyph-name="_730" unicode="&#x24e7;" 
d="M27 393c0 -254 201 -451 453 -451s453 197 453 451s-201 451 -453 451s-453 -197 -453 -451zM86 393c0 222 174 396 394 396s394 -174 394 -396s-174 -396 -394 -396s-394 174 -394 396zM587 183h87l-146 209l139 201h-88l-98 -142l-98 142h-87l139 -200l-147 -210h87
l106 153z" />
    <glyph glyph-name="_731" unicode="&#x24e8;" 
d="M27 393c0 -254 201 -451 453 -451s453 197 453 451s-201 451 -453 451s-453 -197 -453 -451zM86 393c0 222 174 396 394 396s394 -174 394 -396s-174 -396 -394 -396s-394 174 -394 396zM420 166c-12 -33 -29 -40 -53 -40h-30v-65c14 -2 24 -2 35 -2c55 0 93 20 118 84
l194 497h-82l-115 -303l-116 303h-82l158 -402z" />
    <glyph glyph-name="_732" unicode="&#x24e9;" 
d="M27 393c0 -254 201 -451 453 -451s453 197 453 451s-201 451 -453 451s-453 -197 -453 -451zM86 393c0 222 174 396 394 396s394 -174 394 -396s-174 -396 -394 -396s-394 174 -394 396zM628 598h-298v-66h198l-204 -289v-55h310v66h-211l205 289v55z" />
    <glyph glyph-name="_733" unicode="&#x2460;" 
d="M27 393c0 -254 201 -451 453 -451s453 197 453 451s-201 451 -453 451s-453 -197 -453 -451zM86 393c0 222 174 396 394 396s394 -174 394 -396s-174 -396 -394 -396s-394 174 -394 396zM542 114v567h-63l-153 -69v-77l137 60v-481h79z" />
    <glyph glyph-name="_734" unicode="&#x2461;" 
d="M27 393c0 -254 201 -451 453 -451s453 197 453 451s-201 451 -453 451s-453 -197 -453 -451zM86 393c0 222 174 396 394 396s394 -174 394 -396s-174 -396 -394 -396s-394 174 -394 396zM656 528c0 94 -62 171 -175 171c-112 0 -174 -77 -174 -171v-25h79v25
c0 59 35 102 95 102c59 0 95 -42 95 -102c0 -33 -10 -61 -39 -93l-222 -252v-60h348v69h-239l176 200c43 49 56 85 56 136z" />
    <glyph glyph-name="_735" unicode="&#x2462;" 
d="M27 393c0 -254 201 -451 453 -451s453 197 453 451s-201 451 -453 451s-453 -197 -453 -451zM86 393c0 222 174 396 394 396s394 -174 394 -396s-174 -396 -394 -396s-394 174 -394 396zM588 282c0 -65 -44 -103 -103 -103c-60 0 -105 39 -105 107v14h-78v-16
c0 -108 75 -174 183 -174s182 65 182 170c0 70 -34 118 -85 141c46 23 69 66 69 124c0 84 -62 150 -166 150c-105 0 -167 -66 -167 -150v-22h79v17c0 51 34 86 88 86c51 0 87 -35 87 -86c0 -48 -29 -86 -83 -86h-67v-69h65c61 0 101 -40 101 -103z" />
    <glyph glyph-name="_736" unicode="&#x2463;" 
d="M27 393c0 -254 201 -451 453 -451s453 197 453 451s-201 451 -453 451s-453 -197 -453 -451zM86 393c0 222 174 396 394 396s394 -174 394 -396s-174 -396 -394 -396s-394 174 -394 396zM367 311l140 234v-234h-140zM655 311h-68v375h-82l-231 -381v-63h233v-123h80v123
h68v69z" />
    <glyph glyph-name="_737" unicode="&#x2464;" 
d="M27 393c0 -254 201 -451 453 -451s453 197 453 451s-201 451 -453 451s-453 -197 -453 -451zM86 393c0 222 174 396 394 396s394 -174 394 -396s-174 -396 -394 -396s-394 174 -394 396zM484 416c63 0 99 -44 99 -122c0 -80 -36 -123 -99 -123c-55 0 -92 35 -99 104h-79
c9 -108 75 -173 178 -173c110 0 178 69 178 190c0 127 -68 193 -167 193c-40 0 -67 -9 -88 -29l7 153h219v69h-293l-14 -320h75c17 37 47 58 83 58z" />
    <glyph glyph-name="_738" unicode="&#x2465;" 
d="M27 393c0 -254 201 -451 453 -451s453 197 453 451s-201 451 -453 451s-453 -197 -453 -451zM86 393c0 222 174 396 394 396s394 -174 394 -396s-174 -396 -394 -396s-394 174 -394 396zM480 621c49 0 80 -28 87 -83h82c-13 101 -75 152 -167 152
c-63 0 -109 -20 -140 -70c-31 -51 -44 -133 -44 -260c0 -62 8 -116 24 -154c29 -65 84 -101 158 -101c107 0 181 72 181 192c0 118 -69 191 -175 191c-46 0 -83 -16 -107 -41c6 122 34 174 101 174zM378 297c0 76 41 122 102 122c62 0 102 -46 102 -122
c0 -78 -40 -123 -102 -123c-61 0 -102 45 -102 123z" />
    <glyph glyph-name="_739" unicode="&#x2466;" 
d="M27 393c0 -254 201 -451 453 -451s453 197 453 451s-201 451 -453 451s-453 -197 -453 -451zM86 393c0 222 174 396 394 396s394 -174 394 -396s-174 -396 -394 -396s-394 174 -394 396zM308 587h263l-193 -498h83l194 512v55h-347v-69z" />
    <glyph glyph-name="_740" unicode="&#x2467;" 
d="M27 393c0 -254 201 -451 453 -451s453 197 453 451s-201 451 -453 451s-453 -197 -453 -451zM86 393c0 222 174 396 394 396s394 -174 394 -396s-174 -396 -394 -396s-394 174 -394 396zM481 104c113 0 191 63 191 168c0 69 -34 118 -90 142c46 24 73 69 73 124
c0 88 -66 151 -174 151s-175 -63 -175 -151c0 -55 26 -102 73 -125c-59 -23 -89 -70 -89 -141c0 -105 78 -168 191 -168zM576 533c0 -53 -39 -86 -95 -86c-57 0 -95 33 -95 86s38 87 95 87c56 0 95 -34 95 -87zM369 275c0 64 46 103 112 103c65 0 112 -39 112 -103
s-47 -102 -112 -102c-66 0 -112 38 -112 102z" />
    <glyph glyph-name="_741" unicode="&#x2468;" 
d="M27 393c0 -254 201 -451 453 -451s453 197 453 451s-201 451 -453 451s-453 -197 -453 -451zM86 393c0 222 174 396 394 396s394 -174 394 -396s-174 -396 -394 -396s-394 174 -394 396zM476 167c-48 0 -80 28 -87 83h-82c13 -101 75 -152 168 -152c60 0 109 21 139 70
c29 51 44 136 44 260c0 63 -6 114 -23 154c-29 68 -84 101 -159 101c-106 0 -181 -72 -181 -192c0 -118 70 -191 175 -191c46 0 83 15 107 40c-7 -121 -35 -173 -101 -173zM578 491c0 -76 -41 -122 -102 -122c-62 0 -102 46 -102 122c0 78 40 123 102 123
c61 0 102 -45 102 -123z" />
    <glyph glyph-name="_742" unicode="&#x2469;" 
d="M27 393c0 -254 201 -451 453 -451s453 197 453 451s-201 451 -453 451s-453 -197 -453 -451zM86 393c0 222 174 396 394 396s394 -174 394 -396s-174 -396 -394 -396s-394 174 -394 396zM366 128v532h-61l-125 -66v-81l107 56v-441h79zM526 395c0 96 6 165 38 192
c10 9 23 13 39 13s29 -4 39 -13c32 -27 38 -96 38 -192s-6 -165 -38 -192c-10 -9 -23 -13 -39 -13s-29 4 -39 13c-32 27 -38 96 -38 192zM447 395c0 -133 20 -218 78 -254c21 -13 47 -20 78 -20s57 7 78 20c58 36 78 121 78 254s-20 218 -78 254c-21 13 -47 20 -78 20
s-57 -7 -78 -20c-58 -36 -78 -121 -78 -254z" />
    <glyph glyph-name="_743" unicode="&#x246a;" 
d="M27 393c0 -254 201 -451 453 -451s453 197 453 451s-201 451 -453 451s-453 -197 -453 -451zM86 393c0 222 174 396 394 396s394 -174 394 -396s-174 -396 -394 -396s-394 174 -394 396zM396 128v532h-61l-125 -66v-81l107 56v-441h79zM686 128v532h-61l-125 -66v-81
l107 56v-441h79z" />
    <glyph glyph-name="_744" unicode="&#x246b;" 
d="M27 393c0 -254 201 -451 453 -451s453 197 453 451s-201 451 -453 451s-453 -197 -453 -451zM86 393c0 222 174 396 394 396s394 -174 394 -396s-174 -396 -394 -396s-394 174 -394 396zM366 128v532h-61l-125 -66v-81l107 56v-441h79zM744 511c0 88 -52 161 -146 161
c-93 0 -145 -73 -145 -161v-26h79v26c0 53 24 92 66 92c41 0 67 -38 67 -92c0 -31 -8 -56 -30 -85l-175 -236v-58h290v70h-187l136 181c34 47 45 81 45 128z" />
    <glyph glyph-name="_745" unicode="&#x246c;" 
d="M27 393c0 -254 201 -451 453 -451s453 197 453 451s-201 451 -453 451s-453 -197 -453 -451zM86 393c0 222 174 396 394 396s394 -174 394 -396s-174 -396 -394 -396s-394 174 -394 396zM366 128v532h-61l-125 -66v-81l107 56v-441h79zM669 282c0 -58 -31 -93 -73 -93
c-43 0 -74 35 -74 97v15h-78v-17c0 -102 63 -164 152 -164s151 61 151 160c0 64 -27 109 -68 131c35 22 55 64 55 115c0 80 -51 142 -138 142c-88 0 -139 -62 -139 -142v-23h78v19c0 45 24 77 61 77c36 0 60 -32 60 -77c0 -43 -20 -77 -57 -77h-60v-70h59
c43 0 71 -35 71 -93z" />
    <glyph glyph-name="_746" unicode="&#x246d;" 
d="M27 393c0 -254 201 -451 453 -451s453 197 453 451s-201 451 -453 451s-453 -197 -453 -451zM86 393c0 222 174 396 394 396s394 -174 394 -396s-174 -396 -394 -396s-394 174 -394 396zM366 128v532h-61l-125 -66v-81l107 56v-441h79zM523 309l94 183v-183h-94zM749 309
h-53v348h-78l-184 -358v-60h183v-114h79v114h53v70z" />
    <glyph glyph-name="_747" unicode="&#x246e;" 
d="M27 393c0 -254 201 -451 453 -451s453 197 453 451s-201 451 -453 451s-453 -197 -453 -451zM86 393c0 222 174 396 394 396s394 -174 394 -396s-174 -396 -394 -396s-394 174 -394 396zM366 128v532h-61l-125 -66v-81l107 56v-441h79zM595 409c45 0 70 -39 70 -110
c0 -73 -25 -112 -70 -112c-38 0 -64 33 -69 97h-79c8 -104 62 -166 148 -166c92 0 148 66 148 179c0 119 -57 182 -139 182c-23 0 -45 -8 -61 -18l6 128h171v69h-246l-11 -303h74c13 35 34 54 58 54z" />
    <glyph glyph-name="_748" unicode="&#xbd;" 
d="M233 265v520h-63l-121 -56v-66l110 52v-450h74zM659 785h-72l-383 -784h72zM827 371c0 -35 -10 -58 -34 -84l-206 -231v-55h313v64h-215l159 176c38 42 57 78 57 131c0 96 -63 158 -163 158s-162 -62 -162 -158v-18h74v17c0 50 29 92 88 92c60 0 89 -42 89 -92z" />
    <glyph glyph-name="_749" unicode="&#x2153;" 
d="M825 385c0 -52 -34 -80 -85 -80h-45v-63h45c58 0 97 -33 97 -94c0 -54 -37 -94 -97 -94s-96 40 -96 95v20h-74v-19c0 -87 58 -158 170 -158c110 0 171 69 171 154c0 71 -36 113 -96 130c59 17 82 64 82 115c0 82 -62 139 -157 139s-157 -58 -157 -138v-17h73v10
c0 50 32 82 84 82s85 -32 85 -82zM233 265v520h-63l-121 -56v-66l110 52v-450h74zM659 785h-72l-383 -784h72z" />
    <glyph glyph-name="_750" unicode="&#x2154;" 
d="M284 635c0 -35 -10 -57 -33 -83l-207 -232v-55h313v65h-215l159 176c38 42 57 77 57 130c0 96 -63 158 -162 158c-101 0 -163 -62 -163 -158v-18h74v17c0 51 29 92 89 92c59 0 88 -41 88 -92zM704 785h-72l-383 -784h72zM845 385c0 -52 -34 -80 -85 -80h-45v-63h45
c58 0 97 -33 97 -94c0 -54 -37 -94 -97 -94s-96 40 -96 95v20h-74v-19c0 -87 58 -158 170 -158c110 0 171 69 171 154c0 71 -36 113 -96 130c59 17 82 64 82 115c0 82 -62 139 -157 139s-157 -58 -157 -138v-17h73v10c0 50 32 82 84 82s85 -32 85 -82z" />
    <glyph glyph-name="_751" unicode="&#xbc;" 
d="M629 170l157 244v-244h-157zM912 170h-54v351h-81l-227 -357v-57h236v-106h72v106h54v63zM233 265v520h-63l-121 -56v-66l110 52v-450h74zM669 785h-72l-383 -784h72z" />
    <glyph glyph-name="_752" unicode="&#xbe;" 
d="M279 649c0 -52 -34 -79 -84 -79h-45v-63h45c57 0 96 -33 96 -95c0 -54 -37 -94 -96 -94c-60 0 -97 40 -97 96v19h-74v-19c0 -87 58 -158 171 -158c109 0 170 70 170 155c0 70 -36 112 -96 129c59 18 82 64 82 115c0 82 -62 139 -156 139c-96 0 -158 -58 -158 -138v-16h73
v10c0 49 32 81 85 81c52 0 84 -32 84 -82zM714 785h-72l-383 -784h72zM629 170l157 244v-244h-157zM912 170h-54v351h-81l-227 -357v-57h236v-106h72v106h54v63z" />
    <glyph glyph-name="_753" unicode="&#x215b;" 
d="M737 -9c110 0 176 65 176 155c0 65 -35 115 -97 133c53 16 83 62 83 113c0 81 -62 137 -162 137c-99 0 -161 -56 -161 -137c0 -51 30 -97 83 -113c-62 -18 -96 -68 -96 -133c0 -90 65 -155 174 -155zM737 246c60 0 102 -37 102 -97c0 -59 -42 -96 -102 -96
c-59 0 -100 37 -100 96c0 60 41 97 100 97zM737 309c-56 0 -88 32 -88 78c0 45 32 78 88 78c57 0 89 -33 89 -78c0 -46 -32 -78 -89 -78zM233 265v520h-63l-121 -56v-66l110 52v-450h74zM659 785h-72l-383 -784h72z" />
    <glyph glyph-name="_754" unicode="&#x215c;" 
d="M279 649c0 -52 -34 -79 -84 -79h-45v-63h45c57 0 96 -33 96 -95c0 -54 -37 -94 -96 -94c-60 0 -97 40 -97 96v19h-74v-19c0 -87 58 -158 171 -158c109 0 170 70 170 155c0 70 -36 112 -96 129c59 18 82 64 82 115c0 82 -62 139 -156 139c-96 0 -158 -58 -158 -138v-16h73
v10c0 49 32 81 85 81c52 0 84 -32 84 -82zM699 785h-72l-383 -784h72zM757 -9c110 0 176 65 176 155c0 65 -35 115 -97 133c53 16 83 62 83 113c0 81 -62 137 -162 137c-99 0 -161 -56 -161 -137c0 -51 30 -97 83 -113c-62 -18 -96 -68 -96 -133c0 -90 65 -155 174 -155z
M757 246c60 0 102 -37 102 -97c0 -59 -42 -96 -102 -96c-59 0 -100 37 -100 96c0 60 41 97 100 97zM757 309c-56 0 -88 32 -88 78c0 45 32 78 88 78c57 0 89 -33 89 -78c0 -46 -32 -78 -89 -78z" />
    <glyph glyph-name="_755" unicode="&#x215d;" 
d="M29 412c6 -94 65 -155 165 -155c106 0 166 69 166 176c0 108 -52 178 -148 178c-43 0 -78 -18 -96 -46l8 157h210v63h-276l-14 -291h68c13 33 44 54 84 54c60 0 92 -43 92 -114s-34 -113 -94 -113c-54 0 -87 34 -92 91h-73zM699 785h-72l-383 -784h72zM757 -9
c110 0 176 65 176 155c0 65 -35 115 -97 133c53 16 83 62 83 113c0 81 -62 137 -162 137c-99 0 -161 -56 -161 -137c0 -51 30 -97 83 -113c-62 -18 -96 -68 -96 -133c0 -90 65 -155 174 -155zM757 246c60 0 102 -37 102 -97c0 -59 -42 -96 -102 -96c-59 0 -100 37 -100 96
c0 60 41 97 100 97zM757 309c-56 0 -88 32 -88 78c0 45 32 78 88 78c57 0 89 -33 89 -78c0 -46 -32 -78 -89 -78z" />
    <glyph glyph-name="_756" unicode="&#x215e;" 
d="M29 721h250l-174 -456h77l175 466v54h-328v-64zM679 785h-72l-383 -784h72zM757 -9c110 0 176 65 176 155c0 65 -35 115 -97 133c53 16 83 62 83 113c0 81 -62 137 -162 137c-99 0 -161 -56 -161 -137c0 -51 30 -97 83 -113c-62 -18 -96 -68 -96 -133
c0 -90 65 -155 174 -155zM757 246c60 0 102 -37 102 -97c0 -59 -42 -96 -102 -96c-59 0 -100 37 -100 96c0 60 41 97 100 97zM757 309c-56 0 -88 32 -88 78c0 45 32 78 88 78c57 0 89 -33 89 -78c0 -46 -32 -78 -89 -78z" />
    <glyph glyph-name="_757" unicode="&#xe6;" horiz-adv-x="977" 
d="M824 166c-13 -69 -61 -109 -142 -109c-107 0 -161 72 -161 200h399c1 7 1 16 1 24c0 185 -78 293 -241 293c-88 0 -155 -34 -191 -106c-31 70 -100 106 -193 106c-138 0 -214 -70 -222 -176h84c7 65 51 107 138 107c94 0 142 -54 142 -139v-92c-23 44 -85 70 -172 70
c-131 0 -214 -67 -214 -178s81 -178 227 -178c101 0 174 33 210 98c34 -66 106 -98 193 -98c129 0 207 67 226 178h-84zM438 166c0 -68 -51 -109 -152 -109c-100 0 -151 41 -151 109c0 67 51 108 151 108c101 0 152 -41 152 -108zM522 320c6 116 53 185 158 185
c103 0 151 -69 157 -185h-315z" />
    <glyph glyph-name="_758" unicode="&#x111;" horiz-adv-x="601" 
d="M445 473c-24 61 -82 101 -170 101c-147 0 -229 -98 -229 -293s82 -293 229 -293c88 0 146 40 170 100v-87h83v644h64v64h-64v76h-83v-76h-167v-64h167v-172zM445 281c0 -140 -43 -224 -158 -224c-116 0 -159 84 -159 224c0 139 43 224 159 224c115 0 158 -85 158 -224z
" />
    <glyph glyph-name="_759" unicode="&#xf0;" horiz-adv-x="574" 
d="M216 611l100 60c51 -39 86 -98 101 -156c-28 39 -80 59 -144 59c-144 0 -227 -97 -227 -293c0 -186 78 -293 241 -293c165 0 241 109 241 293c0 199 -39 337 -141 432l76 45l-28 45l-93 -56c-35 25 -77 46 -126 65l-51 -60c41 -16 74 -32 103 -49l-80 -47zM128 281
c0 139 43 224 159 224c115 0 158 -85 158 -224c0 -140 -43 -224 -158 -224c-116 0 -159 84 -159 224z" />
    <glyph glyph-name="_760" unicode="&#x127;" horiz-adv-x="597" 
d="M533 348c0 142 -69 226 -197 226c-96 0 -154 -46 -181 -112v183h167v64h-167v76h-82v-76h-64v-64h64v-644h82v288c0 137 69 216 162 216c86 0 133 -51 133 -177v-327h83v347z" />
    <glyph glyph-name="_761" unicode="&#x131;" horiz-adv-x="226" 
d="M155 1v560h-83v-560h83z" />
    <glyph glyph-name="_762" unicode="&#x133;" horiz-adv-x="465" 
d="M155 1v560h-83v-560h83zM155 676v109h-83v-109h83zM394 561h-83v-649c0 -61 -27 -85 -79 -85h-33v-67c10 -1 28 -2 40 -2c108 0 155 54 155 162v641zM394 676v109h-83v-109h83z" />
    <glyph glyph-name="_763" unicode="&#x138;" horiz-adv-x="516" 
d="M149 1v258h63l201 -258h98l-228 292l202 268h-95l-177 -233h-64v233h-83v-560h83z" />
    <glyph glyph-name="_764" unicode="&#x140;" horiz-adv-x="330" 
d="M155 1v784h-83v-784h83zM320 471h-95v-97h95v97z" />
    <glyph glyph-name="_765" unicode="&#x142;" horiz-adv-x="303" 
d="M20 358v-65l90 45v-337h83v381l90 46v65l-90 -47v339h-83v-382z" />
    <glyph glyph-name="_766" unicode="&#xf8;" horiz-adv-x="574" 
d="M76 -42h72l28 51c31 -14 68 -21 111 -21c163 0 242 108 242 293c0 105 -27 186 -78 235l47 88h-72l-28 -52c-31 15 -68 22 -111 22c-163 0 -241 -108 -241 -293c0 -105 25 -186 77 -236zM446 281c0 -140 -43 -224 -159 -224c-30 0 -55 6 -77 16l201 370
c25 -38 35 -94 35 -162zM129 281c0 139 42 224 158 224c30 0 55 -6 77 -17l-201 -369c-24 39 -34 93 -34 162z" />
    <glyph glyph-name="_767" unicode="&#x153;" horiz-adv-x="991" 
d="M494 456c-35 78 -105 118 -201 118c-160 0 -239 -108 -239 -293c0 -186 79 -293 239 -293c94 0 165 40 201 116c37 -76 106 -116 203 -116c129 0 207 67 227 178h-84c-14 -69 -61 -109 -142 -109c-110 0 -159 73 -162 200h399c1 7 1 16 1 24c0 185 -79 293 -240 293
c-96 0 -166 -40 -202 -118zM136 281c0 139 43 224 159 224c115 0 158 -85 158 -224c0 -140 -43 -224 -158 -224c-116 0 -159 84 -159 224zM537 320c6 116 53 185 158 185c104 0 152 -69 157 -185h-315z" />
    <glyph glyph-name="_768" unicode="&#xdf;" horiz-adv-x="636" 
d="M601 197c0 124 -89 187 -181 199c87 18 142 88 142 175c0 124 -86 227 -248 227c-163 0 -248 -101 -248 -235v-562h86v562c0 98 61 159 162 159c99 0 161 -63 161 -153c0 -73 -41 -135 -156 -135h-30v-76h23c123 0 203 -58 203 -158c0 -86 -58 -137 -158 -137
c-30 0 -67 4 -93 11v-75c28 -8 66 -11 98 -11c148 0 239 78 239 209z" />
    <glyph glyph-name="_769" unicode="&#xfe;" horiz-adv-x="594" 
d="M148 88c25 -60 83 -100 171 -100c146 0 229 98 229 293s-83 293 -229 293c-88 0 -146 -40 -171 -101v312h-82v-1027h82v330zM148 281c0 139 43 224 159 224c115 0 158 -85 158 -224c0 -140 -43 -224 -158 -224c-116 0 -159 84 -159 224z" />
    <glyph glyph-name="_770" unicode="&#x167;" horiz-adv-x="391" 
d="M327 269v64h-135v159h163v69h-163v159h-83v-159h-83v-69h83v-159h-66v-64h66v-120c0 -119 55 -156 178 -156c21 0 47 0 68 2v67h-55c-75 0 -108 19 -108 100v107h135z" />
    <glyph glyph-name="_771" unicode="&#x14b;" horiz-adv-x="590" 
d="M443 -87c0 -61 -27 -86 -79 -86h-33v-66c10 -2 28 -3 40 -3c108 0 155 54 155 163v427c0 142 -69 226 -197 226c-96 0 -154 -46 -181 -112v99h-82v-560h82v288c0 137 69 216 162 216c88 0 133 -51 133 -177v-415z" />
    <glyph glyph-name="_772" unicode="&#x149;" horiz-adv-x="612" 
d="M548 348c0 142 -69 226 -197 226c-96 0 -153 -46 -181 -112v99h-82v-560h82v288c0 137 70 216 162 216c88 0 133 -51 133 -177v-327h83v347zM21 669h40c0 -52 -18 -76 -51 -82v-44c65 12 98 46 98 118v124h-87v-116z" />
    <glyph glyph-name="_773" unicode="&#x3200;" 
d="M40 399c0 -152 56 -297 145 -420h64c-84 125 -139 276 -139 420c0 143 55 295 139 420h-64c-89 -123 -145 -269 -145 -420zM920 399c0 151 -56 297 -145 420h-64c84 -125 139 -277 139 -420c0 -144 -55 -295 -139 -420h64c89 123 145 268 145 420zM248 582v-70h375v-306
h80v376h-455z" />
    <glyph glyph-name="_774" unicode="&#x3201;" 
d="M710 206v71h-375v305h-80v-376h455zM40 399c0 -152 56 -297 145 -420h64c-84 125 -139 276 -139 420c0 143 55 295 139 420h-64c-89 -123 -145 -269 -145 -420zM920 399c0 151 -56 297 -145 420h-64c84 -125 139 -277 139 -420c0 -144 -55 -295 -139 -420h64
c89 123 145 268 145 420z" />
    <glyph glyph-name="_775" unicode="&#x3202;" 
d="M335 277v235h368v70h-448v-376h455v71h-375zM40 399c0 -152 56 -297 145 -420h64c-84 125 -139 276 -139 420c0 143 55 295 139 420h-64c-89 -123 -145 -269 -145 -420zM920 399c0 151 -56 297 -145 420h-64c84 -125 139 -277 139 -420c0 -144 -55 -295 -139 -420h64
c89 123 145 268 145 420z" />
    <glyph glyph-name="_776" unicode="&#x3203;" 
d="M338 268v91h360v230h-440v-71h360v-88h-360v-232h455v70h-375zM40 399c0 -152 56 -297 145 -420h64c-84 125 -139 276 -139 420c0 143 55 295 139 420h-64c-89 -123 -145 -269 -145 -420zM920 399c0 151 -56 297 -145 420h-64c84 -125 139 -277 139 -420
c0 -144 -55 -295 -139 -420h64c89 123 145 268 145 420z" />
    <glyph glyph-name="_777" unicode="&#x3204;" 
d="M255 582v-376h448v376h-448zM623 512v-235h-288v235h288zM40 399c0 -152 56 -297 145 -420h64c-84 125 -139 276 -139 420c0 143 55 295 139 420h-64c-89 -123 -145 -269 -145 -420zM920 399c0 151 -56 297 -145 420h-64c84 -125 139 -277 139 -420
c0 -144 -55 -295 -139 -420h64c89 123 145 268 145 420z" />
    <glyph glyph-name="_778" unicode="&#x3205;" 
d="M335 449v133h-80v-376h448v376h-80v-133h-288zM623 378v-101h-288v101h288zM40 399c0 -152 56 -297 145 -420h64c-84 125 -139 276 -139 420c0 143 55 295 139 420h-64c-89 -123 -145 -269 -145 -420zM920 399c0 151 -56 297 -145 420h-64c84 -125 139 -277 139 -420
c0 -144 -55 -295 -139 -420h64c89 123 145 268 145 420z" />
    <glyph glyph-name="_779" unicode="&#x3206;" 
d="M731 210v73c-122 18 -212 96 -212 230v87h-81v-87c0 -134 -93 -211 -210 -230v-72c113 14 207 74 251 145c44 -73 139 -130 252 -146zM40 399c0 -152 56 -297 145 -420h64c-84 125 -139 276 -139 420c0 143 55 295 139 420h-64c-89 -123 -145 -269 -145 -420zM920 399
c0 151 -56 297 -145 420h-64c84 -125 139 -277 139 -420c0 -144 -55 -295 -139 -420h64c89 123 145 268 145 420z" />
    <glyph glyph-name="_780" unicode="&#x3207;" 
d="M321 395c0 36 14 66 39 89c27 25 69 39 119 39s91 -14 119 -39c25 -23 39 -53 39 -89c0 -37 -14 -67 -39 -90c-28 -25 -69 -39 -119 -39s-91 14 -119 39c-25 23 -39 53 -39 90zM241 395c0 -61 28 -113 71 -149c41 -31 101 -50 167 -50s125 19 166 50c43 36 72 88 72 149
c0 60 -27 113 -72 148c-41 31 -100 50 -166 50s-126 -19 -167 -50c-44 -35 -71 -88 -71 -148zM40 399c0 -152 56 -297 145 -420h64c-84 125 -139 276 -139 420c0 143 55 295 139 420h-64c-89 -123 -145 -269 -145 -420zM920 399c0 151 -56 297 -145 420h-64
c84 -125 139 -277 139 -420c0 -144 -55 -295 -139 -420h64c89 123 145 268 145 420z" />
    <glyph glyph-name="_781" unicode="&#x3208;" 
d="M438 512v-24c0 -122 -97 -195 -201 -215v-72c102 18 196 75 242 146c46 -71 136 -128 241 -146v72c-106 20 -201 93 -201 215v24h195v70h-469v-70h193zM40 399c0 -152 56 -297 145 -420h64c-84 125 -139 276 -139 420c0 143 55 295 139 420h-64
c-89 -123 -145 -269 -145 -420zM920 399c0 151 -56 297 -145 420h-64c84 -125 139 -277 139 -420c0 -144 -55 -295 -139 -420h64c89 123 145 268 145 420z" />
    <glyph glyph-name="_782" unicode="&#x3209;" 
d="M714 534h-195v98h-81v-98h-193v-70h193c-4 -103 -99 -175 -201 -192v-73c101 15 194 70 241 138c45 -70 136 -123 242 -137v72c-104 17 -197 89 -201 192h195v70zM40 399c0 -152 56 -297 145 -420h64c-84 125 -139 276 -139 420c0 143 55 295 139 420h-64
c-89 -123 -145 -269 -145 -420zM920 399c0 151 -56 297 -145 420h-64c84 -125 139 -277 139 -420c0 -144 -55 -295 -139 -420h64c89 123 145 268 145 420z" />
    <glyph glyph-name="_783" unicode="&#x320a;" 
d="M255 582v-70h368v-92c-59 -8 -127 -12 -180 -12h-188v-70h187c58 0 124 4 181 13v-145h80v376h-448zM40 399c0 -152 56 -297 145 -420h64c-84 125 -139 276 -139 420c0 143 55 295 139 420h-64c-89 -123 -145 -269 -145 -420zM920 399c0 151 -56 297 -145 420h-64
c84 -125 139 -277 139 -420c0 -144 -55 -295 -139 -420h64c89 123 145 268 145 420z" />
    <glyph glyph-name="_784" unicode="&#x320b;" 
d="M338 268v91h352v71h-352v88h360v71h-440v-391h455v70h-375zM40 399c0 -152 56 -297 145 -420h64c-84 125 -139 276 -139 420c0 143 55 295 139 420h-64c-89 -123 -145 -269 -145 -420zM920 399c0 151 -56 297 -145 420h-64c84 -125 139 -277 139 -420
c0 -144 -55 -295 -139 -420h64c89 123 145 268 145 420z" />
    <glyph glyph-name="_785" unicode="&#x320c;" 
d="M557 411c0 -47 -4 -99 -15 -134h-139v235h154v-101zM637 512h81v70h-478v-70h83v-235h-98v-71h508v71h-112c11 38 16 91 16 139v96zM40 399c0 -152 56 -297 145 -420h64c-84 125 -139 276 -139 420c0 143 55 295 139 420h-64c-89 -123 -145 -269 -145 -420zM920 399
c0 151 -56 297 -145 420h-64c84 -125 139 -277 139 -420c0 -144 -55 -295 -139 -420h64c89 123 145 268 145 420z" />
    <glyph glyph-name="_786" unicode="&#x320d;" 
d="M230 549v-70h497v70h-208v86h-82v-86h-207zM479 242c-58 0 -103 11 -127 30c-10 8 -17 22 -17 35s7 27 17 35c24 19 69 30 127 30s103 -11 127 -30c10 -8 17 -22 17 -35s-7 -27 -17 -35c-24 -19 -69 -30 -127 -30zM479 172c81 0 146 18 183 50c26 23 41 51 41 85
s-15 62 -41 85c-37 32 -102 50 -183 50s-146 -18 -183 -50c-26 -23 -41 -51 -41 -85s15 -62 41 -85c37 -32 102 -50 183 -50zM40 399c0 -152 56 -297 145 -420h64c-84 125 -139 276 -139 420c0 143 55 295 139 420h-64c-89 -123 -145 -269 -145 -420zM920 399
c0 151 -56 297 -145 420h-64c84 -125 139 -277 139 -420c0 -144 -55 -295 -139 -420h64c89 123 145 268 145 420z" />
    <glyph glyph-name="_787" unicode="&#x320e;" 
d="M452 547c0 -188 -75 -311 -230 -357v-69c209 55 306 204 306 431v118h-302v-66h226v-57zM626 690v-602h76v292h95v66h-95v244h-76zM40 399c0 -152 56 -297 145 -420h64c-84 125 -139 276 -139 420c0 143 55 295 139 420h-64c-89 -123 -145 -269 -145 -420zM920 399
c0 151 -56 297 -145 420h-64c84 -125 139 -277 139 -420c0 -144 -55 -295 -139 -420h64c89 123 145 268 145 420z" />
    <glyph glyph-name="_788" unicode="&#x320f;" 
d="M481 129c59 0 110 12 145 35v-76h76v292h95v66h-95v244h-76v-455c-30 -27 -79 -41 -136 -41h-188v480h-76v-545h255zM40 399c0 -152 56 -297 145 -420h64c-84 125 -139 276 -139 420c0 143 55 295 139 420h-64c-89 -123 -145 -269 -145 -420zM920 399
c0 151 -56 297 -145 420h-64c84 -125 139 -277 139 -420c0 -144 -55 -295 -139 -420h64c89 123 145 268 145 420z" />
    <glyph glyph-name="_789" unicode="&#x3210;" 
d="M488 129c56 0 105 11 138 32v-73h76v292h95v66h-95v244h-76v-459c-28 -25 -73 -37 -129 -37h-195v410h222v66h-298v-541h262zM40 399c0 -152 56 -297 145 -420h64c-84 125 -139 276 -139 420c0 143 55 295 139 420h-64c-89 -123 -145 -269 -145 -420zM920 399
c0 151 -56 297 -145 420h-64c84 -125 139 -277 139 -420c0 -144 -55 -295 -139 -420h64c89 123 145 268 145 420z" />
    <glyph glyph-name="_790" unicode="&#x3211;" 
d="M488 129c56 0 105 11 138 32v-73h76v292h95v66h-95v244h-76v-459c-28 -25 -73 -37 -129 -37h-195v175h215v301h-291v-66h215v-169h-215v-306h262zM40 399c0 -152 56 -297 145 -420h64c-84 125 -139 276 -139 420c0 143 55 295 139 420h-64c-89 -123 -145 -269 -145 -420z
M920 399c0 151 -56 297 -145 420h-64c84 -125 139 -277 139 -420c0 -144 -55 -295 -139 -420h64c89 123 145 268 145 420z" />
    </font>
</defs>
</svg>
