<?xml version="1.0" standalone="no"?>
<!DOCTYPE svg PUBLIC "-//W3C//DTD SVG 1.1//EN" "http://www.w3.org/Graphics/SVG/1.1/DTD/svg11.dtd" >
<svg xmlns="http://www.w3.org/2000/svg" xmlns:xlink="http://www.w3.org/1999/xlink" version="1.1">
<metadata></metadata>
<defs>
<font id="notokr-lightregular" horiz-adv-x="920" >
<font-face units-per-em="1000" ascent="800" descent="-200" />
<missing-glyph horiz-adv-x="222" />
<glyph unicode=" "  horiz-adv-x="222" />
<glyph unicode="&#x09;" horiz-adv-x="222" />
<glyph unicode="&#xa0;" horiz-adv-x="222" />
<glyph unicode="!" horiz-adv-x="295" d="M126 203l-8 455l-1 84h60l-1 -84l-7 -455h-43zM147 -13q-20 0 -35.5 15t-15.5 39q0 25 15 40t36 15t36 -15t15 -40q0 -24 -15 -39t-36 -15z" />
<glyph unicode="&#x22;" horiz-adv-x="415" d="M104 517l-12 168l-1 82h66l-1 -82l-11 -168h-41zM269 517l-12 168l-1 82h66l-1 -82l-12 -168h-40z" />
<glyph unicode="#" horiz-adv-x="535" d="M102 0l28 235h-90v45h96l23 182h-97v46h101l28 212h43l-27 -212h161l28 212h43l-28 -212h90v-46h-94l-22 -182h94v-45h-101l-27 -235h-44l28 235h-161l-29 -235h-43zM179 280h162l23 182h-162z" />
<glyph unicode="$" horiz-adv-x="535" d="M450 640l-33 -36q-34 35 -64.5 50.5t-76.5 15.5q-56 0 -90.5 -34.5t-34.5 -87.5q0 -38 17.5 -66t45.5 -46.5t61.5 -34.5t67.5 -35t62 -42.5t45.5 -62t17.5 -89.5q0 -77 -47 -126.5t-123 -57.5v-110h-48v110q-106 9 -186 85l30 41q85 -77 176 -77q67 0 103.5 35.5 t36.5 95.5q0 58 -33 97.5t-79.5 63l-93 47t-79.5 66t-33 103.5q0 71 44 119t114 56v110h48v-110q86 -7 152 -80z" />
<glyph unicode="%" horiz-adv-x="897" d="M201 284q-74 0 -116 60.5t-42 170.5q0 108 42.5 167.5t115.5 59.5q74 0 116 -59.5t42 -167.5q0 -110 -42 -170.5t-116 -60.5zM201 324q50 0 80 50.5t30 140.5q0 89 -30 138t-80 49t-79.5 -49t-29.5 -138q0 -90 29.5 -140.5t79.5 -50.5zM221 -13l406 755h46l-406 -755h-46 zM696 -13q-74 0 -116.5 60t-42.5 170q0 109 42.5 168.5t116.5 59.5q73 0 115.5 -60t42.5 -168q0 -110 -42.5 -170t-115.5 -60zM696 27q50 0 79.5 50t29.5 140t-29.5 139t-79.5 49q-51 0 -80.5 -49t-29.5 -139t29.5 -140t80.5 -50z" />
<glyph unicode="&#x26;" horiz-adv-x="645" d="M98 189q0 -68 46.5 -110.5t113.5 -42.5q81 0 157 73q-125 112 -205 248q-53 -42 -82.5 -81.5t-29.5 -86.5zM191 579q0 -65 39 -149q46 33 70.5 53.5t46.5 54t22 67.5q0 39 -19 65t-59 26q-45 0 -72.5 -33.5t-27.5 -83.5zM630 37l-18 -50q-76 24 -158 89q-91 -89 -202 -89 q-92 0 -152.5 55t-60.5 144q0 65 39 113.5t109 99.5q-49 101 -49 179q0 71 43.5 117.5t111.5 46.5q59 0 92.5 -37.5t33.5 -96.5q0 -27 -11 -54t-23 -45.5t-40 -44t-43 -37t-50 -38.5q75 -132 199 -239q72 92 113 234h55q-47 -159 -129 -267q77 -58 140 -80z" />
<glyph unicode="'" horiz-adv-x="250" d="M104 517l-12 168l-1 82h66l-1 -82l-11 -168h-41z" />
<glyph unicode="(" horiz-adv-x="315" d="M242 -193q-146 236 -146 501q0 266 146 502l36 -19q-132 -214 -132 -483q0 -271 132 -483z" />
<glyph unicode=")" horiz-adv-x="315" d="M73 -193l-36 18q132 212 132 483q0 269 -132 483l36 19q146 -236 146 -502q0 -265 -146 -501z" />
<glyph unicode="*" horiz-adv-x="443" d="M148 502l-33 23l61 100l-102 40l12 38l107 -29l9 115h40l7 -114l107 28l12 -38l-102 -40l62 -100l-33 -23l-73 92z" />
<glyph unicode="+" horiz-adv-x="535" d="M242 120v222h-205v47h205v222h51v-222h204v-47h-204v-222h-51z" />
<glyph unicode="," horiz-adv-x="250" d="M70 -176l-17 38q87 45 88 134q-4 -1 -12 -1q-22 0 -37 13.5t-15 37.5q0 23 15.5 36.5t37.5 13.5q27 0 43.5 -23t16.5 -63q0 -61 -32.5 -109.5t-87.5 -76.5z" />
<glyph unicode="-" horiz-adv-x="333" d="M45 252v49h246v-49h-246z" />
<glyph unicode="." horiz-adv-x="250" d="M125 -13q-21 0 -36 15t-15 39q0 25 15 40t36 15t36 -15t15 -40q0 -24 -15 -39t-36 -15z" />
<glyph unicode="/" horiz-adv-x="394" d="M10 -177l329 963h48l-330 -963h-47z" />
<glyph unicode="0" horiz-adv-x="535" d="M268 -13q-102 0 -158.5 96t-56.5 284q0 186 56.5 280.5t158.5 94.5q101 0 157.5 -94.5t56.5 -280.5q0 -188 -56.5 -284t-157.5 -96zM268 36q72 0 114 84.5t42 246.5q0 159 -42 242.5t-114 83.5q-73 0 -115 -83.5t-42 -242.5q0 -162 42 -246.5t115 -84.5z" />
<glyph unicode="1" horiz-adv-x="535" d="M92 0v51h165v593h-127v39q83 14 139 46h47v-678h152v-51h-376z" />
<glyph unicode="2" horiz-adv-x="535" d="M45 0v36q182 157 263.5 275.5t81.5 219.5q0 72 -37.5 117t-111.5 45q-89 0 -162 -91l-37 35q95 105 205 105q94 0 148 -57t54 -152q0 -109 -78 -225.5t-234 -261.5q80 6 120 6h227v-52h-439z" />
<glyph unicode="3" horiz-adv-x="535" d="M258 -13q-133 0 -227 100l33 39q83 -89 192 -89q71 0 116.5 43t45.5 113q0 164 -242 164v49q113 0 164.5 42.5t51.5 113.5q0 59 -37.5 95t-100.5 37q-90 -1 -160 -77l-34 40q90 85 195 86q87 -1 142 -48t55 -129q0 -68 -36.5 -114t-97.5 -66v-5q70 -15 115 -64.5 t45 -123.5q0 -93 -62.5 -149.5t-157.5 -56.5z" />
<glyph unicode="4" horiz-adv-x="535" d="M86 257h255v269q0 53 6 121h-5q-27 -52 -58 -101zM501 257v-49h-103v-208h-57v208h-322v37l322 484h57v-472h103z" />
<glyph unicode="5" horiz-adv-x="535" d="M253 -13q-128 0 -225 95l32 41q82 -86 191 -86q71 0 120.5 54.5t49.5 140.5q0 87 -45 137t-122 50q-62 0 -129 -46l-38 23l25 333h333v-51h-281l-21 -245q58 35 122 35q96 0 156 -59t60 -175q0 -113 -68 -180t-160 -67z" />
<glyph unicode="6" horiz-adv-x="535" d="M294 36q59 0 98.5 52.5t39.5 131.5q0 84 -36.5 133t-111.5 49q-90 0 -167 -104q7 -124 51.5 -193t125.5 -69zM476 672l-35 -38q-47 58 -119 58q-90 0 -147 -80.5t-59 -257.5q77 95 176 95q94 0 146 -59t52 -170q0 -101 -58 -167t-139 -66q-108 0 -171 93t-63 264 q0 206 74 302t188 96q92 0 155 -70z" />
<glyph unicode="7" horiz-adv-x="535" d="M205 0q9 220 56.5 374t155.5 304h-369v51h440v-35q-123 -161 -167 -312t-53 -382h-63z" />
<glyph unicode="8" horiz-adv-x="535" d="M271 -13q-98 0 -162 55t-64 139q0 69 40.5 122.5t98.5 85.5v4q-100 67 -100 166q0 79 54 129.5t134 50.5q89 0 141 -53.5t52 -137.5q0 -53 -31 -101.5t-69 -79.5v-5q56 -34 90 -78t34 -112q0 -79 -61 -132t-157 -53zM322 383q89 74 89 163q0 62 -38 104t-102 42 q-57 0 -94 -37.5t-37 -95.5q0 -35 14.5 -63t44 -49.5t55.5 -34t68 -29.5zM271 34q71 0 115.5 39.5t44.5 99.5q0 27 -7 49.5t-24 41t-32.5 31.5t-45.5 27.5t-48.5 22.5t-54.5 22q-119 -71 -119 -183q0 -64 48.5 -107t122.5 -43z" />
<glyph unicode="9" horiz-adv-x="535" d="M250 327q93 0 170 107q-5 123 -50 191.5t-128 68.5q-59 0 -98.5 -53t-39.5 -132q0 -83 36.5 -132.5t109.5 -49.5zM61 57l35 38q50 -58 127 -58q84 0 139 81.5t59 258.5q-80 -97 -178 -97q-92 0 -144.5 59.5t-52.5 169.5q0 101 58 167t139 66q108 0 171.5 -88t63.5 -250 q0 -111 -21 -194t-57.5 -130.5t-81 -70t-96.5 -22.5q-94 0 -161 70z" />
<glyph unicode=":" horiz-adv-x="250" d="M125 405q-21 0 -36 15t-15 39q0 25 15 40t36 15t36 -15t15 -40q0 -24 -15 -39t-36 -15zM125 -13q-21 0 -36 15t-15 39q0 25 15 40t36 15t36 -15t15 -40q0 -24 -15 -39t-36 -15z" />
<glyph unicode=";" horiz-adv-x="250" d="M125 405q-21 0 -36 15t-15 39q0 25 15 40t36 15t36 -15t15 -40q0 -24 -15 -39t-36 -15zM70 -176l-17 38q87 45 88 134q-4 -1 -12 -1q-22 0 -37 13.5t-15 37.5q0 23 15.5 36.5t37.5 13.5q27 0 43.5 -23t16.5 -63q0 -61 -32.5 -109.5t-87.5 -76.5z" />
<glyph unicode="&#x3c;" horiz-adv-x="535" d="M497 158l-460 182v55l460 182v-54l-252 -96l-147 -57v-5l147 -56l252 -97v-54z" />
<glyph unicode="=" horiz-adv-x="535" d="M37 456v47h460v-47h-460zM37 228v46h460v-46h-460z" />
<glyph unicode="&#x3e;" horiz-adv-x="535" d="M37 158v54l252 97l148 56v5l-148 57l-252 96v54l460 -182v-55z" />
<glyph unicode="?" horiz-adv-x="451" d="M179 203q-7 50 7 95t38.5 79t50 65t44 67t18.5 72q0 53 -31 88.5t-91 35.5q-83 0 -139 -69l-35 32q78 87 180 87q80 0 127.5 -47.5t47.5 -122.5q0 -41 -19 -80.5t-45 -72t-51 -66t-40 -75.5t-9 -88h-53zM209 -13q-21 0 -35.5 15t-14.5 39q0 25 14.5 40t35.5 15t36.5 -15 t15.5 -40q0 -24 -15.5 -39t-36.5 -15z" />
<glyph unicode="@" horiz-adv-x="910" d="M433 -163q-166 0 -271 103t-105 284q0 106 36.5 197.5t97.5 153t142 96t169 34.5q161 0 256 -97.5t95 -257.5q0 -133 -65 -211.5t-143 -78.5q-46 0 -75 21.5t-33 62.5h-2q-72 -77 -136 -77q-55 0 -91.5 40t-36.5 113q0 90 58.5 170t149.5 80q59 0 91 -54h2l11 45h42 l-40 -211q-35 -145 65 -145q58 0 107 66.5t49 174.5q0 143 -82 228.5t-226 85.5q-75 0 -146 -31.5t-126 -86.5t-88 -137.5t-33 -177.5q0 -160 91.5 -253t240.5 -93q100 0 184 53l20 -39q-94 -58 -208 -58zM408 112q54 0 116 72l34 188q-33 53 -80 53q-69 0 -113 -63.5 t-44 -138.5q0 -57 24 -84t63 -27z" />
<glyph unicode="A" horiz-adv-x="587" d="M167 293h252l-44 132q-38 107 -80 250h-4q-31 -110 -79 -250zM516 0l-81 245h-284l-83 -245h-60l255 729h62l255 -729h-64z" />
<glyph unicode="B" horiz-adv-x="642" d="M106 0v729h201q114 0 178.5 -44t64.5 -133q0 -57 -29 -100t-83 -59v-5q73 -12 114.5 -57t41.5 -118q0 -103 -73 -158t-199 -55h-216zM166 411h122q202 0 202 134q0 72 -48 103.5t-148 31.5h-128v-269zM166 50h142q227 0 227 163q0 150 -227 150h-142v-313z" />
<glyph unicode="C" horiz-adv-x="627" d="M368 -13q-137 0 -222.5 102.5t-85.5 275.5t87 275t227 102q117 0 192 -88l-34 -39q-65 73 -158 73q-116 0 -183.5 -86.5t-67.5 -234.5q0 -150 67 -238t181 -88q101 0 181 88l34 -38q-90 -104 -218 -104z" />
<glyph unicode="D" horiz-adv-x="672" d="M106 0v729h172q165 0 249.5 -95.5t84.5 -266.5q0 -172 -84.5 -269.5t-248.5 -97.5h-173zM166 51h106q139 0 208 84.5t69 231.5t-68.5 229.5t-208.5 82.5h-106v-628z" />
<glyph unicode="E" horiz-adv-x="573" d="M106 0v729h403v-51h-343v-266h289v-51h-289v-309h354v-52h-414z" />
<glyph unicode="F" horiz-adv-x="532" d="M106 0v729h402v-51h-342v-281h289v-51h-289v-346h-60z" />
<glyph unicode="G" horiz-adv-x="673" d="M376 -13q-142 0 -229 102.5t-87 275.5t89.5 275t235.5 102q118 0 202 -88l-35 -39q-68 73 -166 73q-121 0 -192 -86.5t-71 -234.5q0 -151 68.5 -238.5t190.5 -87.5q103 0 155 52v219h-169v51h227v-293q-78 -83 -219 -83z" />
<glyph unicode="H" horiz-adv-x="710" d="M106 0v729h60v-316h379v316h59v-729h-59v361h-379v-361h-60z" />
<glyph unicode="I" horiz-adv-x="272" d="M106 0v729h60v-729h-60z" />
<glyph unicode="J" horiz-adv-x="517" d="M227 -13q-125 0 -185 109l45 30q50 -85 138 -85q65 0 96.5 40t31.5 127v521h60v-527q0 -97 -45 -156t-141 -59z" />
<glyph unicode="K" horiz-adv-x="623" d="M106 0v729h60v-396h2l342 396h71l-232 -271l265 -458h-69l-236 411l-143 -165v-246h-60z" />
<glyph unicode="L" horiz-adv-x="522" d="M106 0v729h60v-677h332v-52h-392z" />
<glyph unicode="M" horiz-adv-x="787" d="M106 0v729h80l150 -419l57 -160h4q11 31 30.5 90t23.5 70l150 419h80v-729h-57v462q0 59 7 201h-4l-57 -163l-153 -422h-48l-154 422l-57 163h-4q7 -142 7 -201v-462h-55z" />
<glyph unicode="N" horiz-adv-x="707" d="M106 0v729h62l298 -501l81 -147h5q-8 144 -8 216v432h57v-729h-62l-297 502l-82 146h-5q8 -187 8 -211v-437h-57z" />
<glyph unicode="O" horiz-adv-x="726" d="M362 -13q-134 0 -218 104t-84 276q0 171 84 273t218 102q135 0 219 -102t84 -273q0 -172 -84 -276t-219 -104zM362 41q109 0 175 89t66 237t-66 234.5t-175 86.5t-174 -86.5t-65 -234.5t65.5 -237t173.5 -89z" />
<glyph unicode="P" horiz-adv-x="612" d="M106 0v729h189q130 0 198 -48t68 -157q0 -107 -69 -161.5t-193 -54.5h-133v-308h-60zM166 358h121q109 0 161 39.5t52 126.5q0 86 -52 120.5t-165 34.5h-117v-321z" />
<glyph unicode="Q" horiz-adv-x="726" d="M123 367q0 -150 65.5 -239.5t173.5 -89.5q109 0 175 89.5t66 239.5q0 148 -66 234.5t-175 86.5t-174 -86.5t-65 -234.5zM658 -111l13 -50q-37 -13 -93 -13q-90 0 -154 44.5t-93 118.5q-122 12 -196.5 114t-74.5 264q0 171 84 273t218 102q135 0 219 -102t84 -273 q0 -160 -73.5 -262t-194.5 -116q50 -110 187 -110q44 0 74 10z" />
<glyph unicode="R" horiz-adv-x="608" d="M166 679v-300h139q196 0 196 155q0 77 -49 111t-147 34h-139zM577 0h-68l-194 329h-149v-329h-60v729h213q243 0 243 -195q0 -85 -48.5 -136t-133.5 -64z" />
<glyph unicode="S" horiz-adv-x="580" d="M299 -13q-151 0 -248 109l37 42q86 -97 211 -97q80 0 127.5 38.5t47.5 101.5q0 60 -31 89t-98 59l-109 48q-30 13 -51.5 26t-46 35t-37.5 52.5t-13 68.5q0 80 61 131.5t155 51.5q125 0 206 -88l-34 -39q-71 73 -172 73q-70 0 -112.5 -34t-42.5 -90q0 -29 10.5 -52 t32.5 -39.5t38 -25t43 -20.5l109 -48q74 -33 113.5 -75.5t39.5 -118.5q0 -85 -65 -141.5t-171 -56.5z" />
<glyph unicode="T" horiz-adv-x="584" d="M261 0v678h-229v51h520v-51h-230v-678h-61z" />
<glyph unicode="U" horiz-adv-x="705" d="M352 -13q-52 0 -94.5 14.5t-78.5 47.5t-56 93t-20 143v444h60v-441q0 -133 52 -190t137 -57q86 0 139.5 57t53.5 190v441h57v-444q0 -83 -20 -143t-56 -93t-79 -47.5t-95 -14.5z" />
<glyph unicode="V" horiz-adv-x="550" d="M243 0l-239 729h64l131 -419q73 -238 75 -244h4q18 52 44.5 138t32.5 106l130 419h61l-237 -729h-66z" />
<glyph unicode="W" horiz-adv-x="857" d="M193 0l-163 729h62l88 -422q20 -92 49 -238h4q18 80 56 238l111 422h59l112 -422q10 -44 29 -124.5t27 -113.5h5q27 147 46 238l88 422h59l-160 -729h-68l-129 487q-1 3 -38 164h-4q-6 -29 -20 -83t-20 -81l-125 -487h-68z" />
<glyph unicode="X" horiz-adv-x="541" d="M19 0l217 377l-203 352h66l115 -208q10 -17 28.5 -49t30.5 -52h4q10 17 27 50t27 51l115 208h62l-203 -355l218 -374h-65l-123 218q-45 79 -67 116h-4q-51 -98 -61 -116l-122 -218h-62z" />
<glyph unicode="Y" horiz-adv-x="502" d="M221 0v293l-219 436h64l107 -223q11 -23 36 -75.5t40 -82.5h4q58 112 78 158l107 223h62l-219 -436v-293h-60z" />
<glyph unicode="Z" horiz-adv-x="597" d="M54 0v35l412 643h-375v51h449v-35l-411 -642h416v-52h-491z" />
<glyph unicode="[" horiz-adv-x="315" d="M108 -168v952h181v-36h-136v-880h136v-36h-181z" />
<glyph unicode="\" horiz-adv-x="394" d="M337 -177l-329 963h47l329 -963h-47z" />
<glyph unicode="]" horiz-adv-x="315" d="M26 -168v36h136v880h-136v36h181v-952h-181z" />
<glyph unicode="^" horiz-adv-x="535" d="M72 319l167 423h57l167 -423h-54l-83 220l-56 146h-5l-56 -146l-83 -220h-54z" />
<glyph unicode="_" horiz-adv-x="554" d="M13 -132v47h528v-47h-528z" />
<glyph unicode="`" horiz-adv-x="594" d="M325 635l-162 168l43 38l151 -176z" />
<glyph unicode="a" horiz-adv-x="547" d="M218 -13q-68 0 -111.5 38t-43.5 109q0 87 80.5 133.5t259.5 67.5q4 161 -122 161q-87 0 -168 -61l-26 42q103 70 202 70q90 0 131 -56.5t41 -152.5v-338h-49l-6 68h-2q-99 -81 -186 -81zM230 36q78 0 173 83v173q-153 -18 -217.5 -55t-64.5 -100q0 -52 30.5 -76.5 t78.5 -24.5z" />
<glyph unicode="b" horiz-adv-x="603" d="M314 -13q-78 0 -158 67h-2l-7 -54h-47v795h58v-228l-3 -102q97 82 180 82q104 0 159 -73t55 -199q0 -132 -68.5 -210t-166.5 -78zM309 38q79 0 128.5 65.5t49.5 171.5q0 221 -163 221q-73 0 -166 -85v-308q74 -65 151 -65z" />
<glyph unicode="c" horiz-adv-x="499" d="M300 -13q-107 0 -175.5 74.5t-68.5 204.5q0 129 72 205t175 76q83 0 156 -65l-33 -40q-57 54 -122 54q-80 0 -133.5 -64.5t-53.5 -165.5q0 -102 51 -165.5t135 -63.5q73 0 139 59l28 -40q-79 -69 -170 -69z" />
<glyph unicode="d" horiz-adv-x="605" d="M277 -13q-102 0 -161.5 73.5t-59.5 205.5q0 125 69 203t167 78q45 0 80.5 -15.5t78.5 -49.5l-4 96v217h58v-795h-48l-7 67h-2q-80 -80 -171 -80zM287 38q79 0 160 84v308q-74 66 -149 66q-77 0 -128.5 -66t-51.5 -164q0 -105 44.5 -166.5t124.5 -61.5z" />
<glyph unicode="e" horiz-adv-x="538" d="M304 -13q-106 0 -177 75.5t-71 203.5q0 125 69.5 203t164.5 78q97 0 151.5 -65.5t54.5 -182.5q0 -23 -3 -42h-378q2 -98 55.5 -159.5t139.5 -61.5q76 0 142 46l22 -43q-83 -52 -170 -52zM115 303h328q0 95 -40.5 144.5t-111.5 49.5q-68 0 -118 -52.5t-58 -141.5z" />
<glyph unicode="f" horiz-adv-x="298" d="M326 790l-14 -46q-33 15 -63 15q-82 0 -82 -117v-109h121v-49h-121v-484h-58v484h-74v44l74 5v112q0 80 35 121.5t102 41.5q39 0 80 -18z" />
<glyph unicode="g" horiz-adv-x="543" d="M275 -254q-100 0 -160 39.5t-60 106.5q0 73 80 127v5q-48 28 -48 86q0 55 59 99v4q-28 23 -48 61.5t-20 83.5q0 82 55.5 135.5t135.5 53.5q37 0 71 -14h182v-48h-120q55 -48 55 -128q0 -82 -54 -135t-134 -53q-48 0 -86 22q-42 -33 -42 -74q0 -67 100 -67h112 q91 0 134.5 -30t43.5 -93q0 -73 -71.5 -127t-184.5 -54zM269 213q54 0 93 40.5t39 104.5t-38 103t-94 39t-94.5 -39t-38.5 -103t39 -104.5t94 -40.5zM282 -210q83 0 137 39t54 90q0 42 -30 60t-91 18h-109q-27 0 -67 9q-66 -46 -66 -107q0 -49 45.5 -79t126.5 -30z" />
<glyph unicode="h" horiz-adv-x="589" d="M100 0v795h58v-228l-1 -116q46 46 89 71t93 25q162 0 162 -206v-341h-58v333q0 84 -28 123t-89 39q-44 0 -81 -22.5t-87 -73.5v-399h-58z" />
<glyph unicode="i" horiz-adv-x="257" d="M100 0v533h58v-533h-58zM130 658q-21 0 -35 13t-14 33q0 22 14 35t35 13q20 0 34.5 -13t14.5 -35q0 -20 -14.5 -33t-34.5 -13z" />
<glyph unicode="j" horiz-adv-x="258" d="M33 -251q-41 0 -71 14l13 46q31 -11 55 -11q41 0 55.5 28.5t14.5 85.5v621h59v-623q0 -161 -126 -161zM130 658q-20 0 -34 13t-14 33q0 22 13.5 35t34.5 13t35 -13t14 -35q0 -20 -14 -33t-35 -13z" />
<glyph unicode="k" horiz-adv-x="521" d="M100 0v795h58v-576h2l255 314h66l-174 -211l202 -322h-64l-172 280l-115 -136v-144h-58z" />
<glyph unicode="l" horiz-adv-x="267" d="M171 -13q-71 0 -71 92v716h58v-722q0 -36 24 -36q8 0 19 2l9 -46q-20 -6 -39 -6z" />
<glyph unicode="m" horiz-adv-x="904" d="M100 0v533h48l7 -81h2q86 95 168 95q115 0 147 -108q100 108 180 108q160 0 160 -206v-341h-58v333q0 83 -28 122.5t-87 39.5q-69 0 -154 -96v-399h-58v333q0 83 -28 122.5t-87 39.5q-70 0 -154 -96v-399h-58z" />
<glyph unicode="n" horiz-adv-x="593" d="M100 0v533h48l7 -81h2q47 46 89.5 70.5t92.5 24.5q162 0 162 -206v-341h-58v333q0 84 -28 123t-89 39q-44 0 -81 -22.5t-87 -73.5v-399h-58z" />
<glyph unicode="o" horiz-adv-x="594" d="M297 -13q-101 0 -171 75.5t-70 203.5q0 129 70 205t171 76t171 -76t70 -205q0 -128 -70 -203.5t-171 -75.5zM297 37q79 0 130 64t51 165t-51 165.5t-130 64.5q-78 0 -129 -64.5t-51 -165.5t50.5 -165t129.5 -64z" />
<glyph unicode="p" horiz-adv-x="605" d="M100 -238v771h48l7 -65h2q103 79 178 79q104 0 159 -73t55 -199q0 -132 -68.5 -210t-166.5 -78q-73 0 -157 65l1 -98v-192h-58zM309 38q79 0 128.5 65.5t49.5 171.5q0 221 -163 221q-70 0 -166 -85v-308q77 -65 151 -65z" />
<glyph unicode="q" horiz-adv-x="605" d="M447 -238v203l4 104q-84 -82 -174 -82q-102 0 -161.5 73.5t-59.5 205.5q0 125 69 203t167 78q79 0 157 -64h2l7 50h47v-771h-58zM287 38q79 0 160 84v308q-74 66 -149 66q-77 0 -128.5 -66t-51.5 -164q0 -105 44.5 -166.5t124.5 -61.5z" />
<glyph unicode="r" horiz-adv-x="359" d="M100 0v533h48l7 -99h2q61 113 151 113q31 0 54 -12l-12 -52q-23 9 -49 9q-39 0 -77.5 -32.5t-65.5 -101.5v-358h-58z" />
<glyph unicode="s" horiz-adv-x="452" d="M231 -13q-108 0 -196 73l31 42q79 -67 168 -67q58 0 90 28.5t32 72.5q0 42 -34.5 67.5t-94.5 46.5q-39 14 -61 23.5t-50.5 28t-42 43.5t-13.5 58q0 61 47 102.5t128 41.5q84 0 155 -57l-30 -40q-64 48 -127 48q-56 0 -85.5 -26.5t-29.5 -65.5q0 -17 8 -31.5t17 -23.5 t29.5 -19.5t32 -15t37.5 -14.5q89 -34 119 -56q53 -40 53 -107q0 -64 -49 -108t-134 -44z" />
<glyph unicode="t" horiz-adv-x="352" d="M250 -13q-75 0 -106 42.5t-31 122.5v332h-83v44l85 5l7 154h49v-154h153v-49h-153v-336q0 -55 19.5 -83t69.5 -28q29 0 65 15l14 -45q-56 -20 -89 -20z" />
<glyph unicode="u" horiz-adv-x="590" d="M253 -13q-83 0 -122 50.5t-39 154.5v341h58v-334q0 -83 27.5 -121.5t88.5 -38.5q45 0 82 24t84 80v390h58v-533h-49l-5 88h-3q-88 -101 -180 -101z" />
<glyph unicode="v" horiz-adv-x="489" d="M211 0l-198 533h63l115 -327q32 -99 53 -154h4q35 97 53 154l116 327h59l-196 -533h-69z" />
<glyph unicode="w" horiz-adv-x="766" d="M182 0l-156 533h62l93 -336q33 -141 34 -145h5q8 28 38 145l95 336h64l95 -336q23 -90 39 -145h4q7 28 21 82.5t16 62.5l91 336h57l-150 -533h-75l-90 321q-8 27 -20.5 77.5t-19.5 75.5h-5q-22 -96 -41 -155l-87 -319h-70z" />
<glyph unicode="x" horiz-adv-x="460" d="M15 0l180 279l-165 254h64l82 -131q25 -41 57 -88h4q6 10 53 88l79 131h61l-165 -260l180 -273h-65l-91 141q-26 48 -61 97h-5q-10 -16 -30 -48.5t-30 -48.5l-86 -141h-62z" />
<glyph unicode="y" horiz-adv-x="490" d="M85 -240q-33 0 -57 11l13 49q22 -8 43 -8q87 0 133 135l14 45l-218 541h63l124 -326q47 -128 56 -150h5q9 27 25.5 79t22.5 71l109 326h59l-208 -595q-62 -178 -184 -178z" />
<glyph unicode="z" horiz-adv-x="453" d="M32 0v31l307 453h-274v49h349v-31l-307 -452h317v-50h-392z" />
<glyph unicode="{" horiz-adv-x="315" d="M249 -168q-66 0 -95 30.5t-29 111.5q0 42 4.5 114.5t4.5 109.5q0 90 -95 90v40q95 0 95 87q0 39 -4.5 112t-4.5 114q0 82 29 112.5t95 30.5h40v-36h-33q-47 0 -65 -26t-18 -86q0 -34 3.5 -101.5t3.5 -108.5q0 -51 -13 -79t-46 -37v-4q33 -10 46 -38t13 -79 q0 -41 -3.5 -108t-3.5 -101q0 -59 18 -85.5t65 -26.5h33v-36h-40z" />
<glyph unicode="|" horiz-adv-x="254" d="M105 -277v1108h44v-1108h-44z" />
<glyph unicode="}" horiz-adv-x="315" d="M26 -168v36h33q47 0 64.5 26t17.5 86q0 34 -3 101t-3 108q0 51 13 79t46 38v4q-33 9 -46 37t-13 79q0 41 3 108.5t3 101.5q0 60 -17.5 86t-64.5 26h-33v36h40q65 0 94.5 -30.5t29.5 -112.5q0 -41 -4.5 -114t-4.5 -112q0 -87 95 -87v-40q-95 0 -95 -90q0 -37 4.5 -109.5 t4.5 -114.5q0 -81 -29.5 -111.5t-94.5 -30.5h-40z" />
<glyph unicode="~" horiz-adv-x="535" d="M366 293q-36 0 -72.5 24.5t-69 49t-58.5 24.5q-50 0 -87 -69l-35 23q49 93 125 93q36 0 72.5 -24.5t68.5 -49t58 -24.5q52 0 87 69l36 -24q-50 -92 -125 -92z" />
<glyph unicode="&#xac00;" d="M107 720h400q0 -189 -101.5 -349.5t-305.5 -262.5l-30 42q178 88 276 224.5t109 300.5h-348v45zM886 446v-46h-154v-470h-53v888h53v-372h154z" />
<glyph unicode="&#xac01;" d="M97 758h404q0 -160 -111.5 -277t-307.5 -172l-21 43q172 48 273.5 142t110.5 219h-348v45zM172 207v44h569v-321h-53v277h-516zM880 582v-45h-139v-242h-53v524h53v-237h139z" />
<glyph unicode="&#xac04;" d="M97 748h406q0 -163 -113 -287.5t-304 -188.5l-23 44q167 55 270 156t113 231h-349v45zM252 228v-231h533v-45h-586v276h53zM740 536h140v-46h-140v-330h-53v658h53v-282z" />
<glyph unicode="&#xac07;" d="M98 758h404q0 -161 -111 -278.5t-308 -172.5l-22 44q173 48 274 142t110 220h-347v45zM246 212v-223h514v-45h-567v312h551v-44h-498zM741 588h139v-45h-139v-233h-53v509h53v-231z" />
<glyph unicode="&#xac08;" d="M97 768h404q0 -157 -112 -268t-306 -159l-21 44q170 42 271.5 130.5t109.5 208.5h-346v44zM244 113v-130h533v-44h-585v218h497v116h-499v45h551v-205h-497zM741 606h139v-46h-139v-199h-53v457h53v-212z" />
<glyph unicode="&#xac09;" d="M101 766h400q0 -159 -111 -270.5t-306 -162.5l-21 45q170 43 270.5 132.5t109.5 210.5h-342v45zM206 103v-118q185 0 291 20l5 -43q-113 -22 -298 -22h-49v204h230v108h-233v43h284v-192h-230zM475 250v45h266v-361h-53v316h-213zM880 601v-46h-139v-218h-53v481h53v-217 h139z" />
<glyph unicode="&#xac0a;" d="M100 766h401q0 -158 -112 -269t-307 -159l-20 44q170 42 271.5 130.5t109.5 208.5h-343v45zM191 107v-121q159 0 242 16l6 -43q-95 -18 -257 -18h-42v208h220v103h-223v43h275v-188h-221zM519 253v-274h173v274h-173zM471 -63v358h270v-358h-270zM880 599v-45h-139v-216 h-53v480h53v-219h139z" />
<glyph unicode="&#xac10;" d="M98 758h404q0 -161 -111.5 -279t-308.5 -173l-21 45q173 48 274 142t110 220h-347v45zM244 219v-230h444v230h-444zM191 -55v319h550v-319h-550zM880 589v-46h-139v-234h-53v510h53v-230h139z" />
<glyph unicode="&#xac11;" d="M98 762h404q0 -159 -112 -271.5t-307 -162.5l-21 44q171 44 272 134t110 211h-346v45zM688 -12v135h-446v-135h446zM688 166v129h52v-351h-550v351h52v-129h446zM880 598v-46h-140v-214h-53v481h53v-221h140z" />
<glyph unicode="&#xac12;" d="M99 762h403q0 -160 -111.5 -272.5t-307.5 -163.5l-21 46q171 43 272 133t110 212h-345v45zM403 -13v137h-193v-137h193zM403 167v121h51v-345h-294v345h50v-121h193zM685 297v-76q0 -71 42.5 -141.5t116.5 -104.5l-29 -41q-114 55 -155 184q-44 -128 -159 -184l-30 41 q75 34 119 103.5t44 139.5v79h51zM741 601h139v-45h-139v-222h-53v485h53v-218z" />
<glyph unicode="&#xac13;" d="M100 748h403q0 -163 -111 -285t-305 -183l-24 43q170 52 271.5 151.5t111.5 228.5h-346v45zM507 296v-47q0 -52 28 -98.5t73.5 -80t97.5 -56.5t106 -34l-22 -42q-102 23 -188 78.5t-121 136.5q-36 -82 -123 -138.5t-189 -79.5l-23 43q74 14 142 48.5t117 94t49 128.5v47 h53zM772 559h108v-45h-108v-286h-53v592h53v-261z" />
<glyph unicode="&#xac14;" d="M99 758h404q0 -161 -112 -278.5t-309 -172.5l-20 44q172 48 273 142t110 220h-346v45zM667 284v-76q0 -70 52.5 -134.5t133.5 -92.5l-27 -41q-65 24 -113.5 71.5t-71.5 106.5q-20 -59 -62.5 -109t-102.5 -76q-63 25 -105.5 73.5t-61.5 109.5q-23 -57 -70.5 -104 t-110.5 -72l-28 41q80 30 133.5 96t53.5 131v76h50v-76q0 -65 36.5 -126t101.5 -96q65 38 103 102t38 120v76h51zM741 583h139v-45h-139v-219h-53v501h53v-237z" />
<glyph unicode="&#xac15;" d="M98 748h405q0 -162 -112 -283t-307 -181l-22 44q170 53 271.5 150t111.5 225h-347v45zM466 -23q106 0 169.5 33.5t63.5 88.5q0 56 -63.5 89.5t-169.5 33.5q-105 0 -168 -33.5t-63 -89.5q0 -55 63.5 -88.5t167.5 -33.5zM466 266q132 0 208.5 -44.5t76.5 -122.5 t-76.5 -121.5t-208.5 -43.5q-131 0 -207 44t-76 121q0 78 76 122.5t207 44.5zM741 575h139v-45h-139v-253h-53v541h53v-243z" />
<glyph unicode="&#xac16;" d="M98 758h404q0 -161 -111.5 -277.5t-308.5 -170.5l-20 44q173 48 273.5 141t109.5 218h-347v45zM499 210v-4q0 -80 91 -145t200 -87l-22 -42q-95 20 -179 72t-117 122q-33 -70 -117 -122t-179 -72l-22 42q110 22 200 86.5t90 145.5v4h-259v44h573v-44h-259zM741 577h139 v-45h-139v-230h-53v518h53v-243z" />
<glyph unicode="&#xac17;" d="M100 757h403q0 -160 -110.5 -274t-307.5 -166l-21 45q172 45 271.5 136t108.5 214h-344v45zM763 199h-266q1 -53 48 -102.5t112 -81t133 -44.5l-22 -41q-96 20 -180 71t-118 120q-34 -69 -118 -120t-180 -71l-23 41q68 12 133.5 44t112.5 81.5t48 102.5h-266v44h266v116 h53v-116h267v-44zM741 599h139v-45h-139v-227h-53v491h53v-219z" />
<glyph unicode="&#xac19;" d="M97 755h407q0 -158 -111.5 -271.5t-306.5 -163.5l-22 45q171 44 272 134.5t109 210.5h-348v45zM248 101v-114h519v-43h-572v351h551v-43h-498v-109h487v-42h-487zM741 599h139v-45h-139v-216h-53v480h53v-219z" />
<glyph unicode="&#xac1a;" d="M101 757h403q0 -158 -115 -273.5t-305 -168.5l-22 45q166 46 269.5 138.5t113.5 213.5h-344v45zM368 224v-231h215v231h-215zM635 224v-231h143v-45h-603v45h141v231h-133v44h585v-44h-133zM741 593h139v-45h-139v-232h-53v502h53v-225z" />
<glyph unicode="&#xac1b;" d="M98 762h405q0 -160 -111.5 -273t-309.5 -165l-19 45q172 45 272.5 135.5t108.5 212.5h-346v45zM478 -27q90 0 141.5 22t51.5 62q0 39 -52 62t-141 23t-141.5 -23t-52.5 -62t52 -61.5t142 -22.5zM478 182q115 0 179.5 -32.5t64.5 -92.5t-64.5 -92.5t-179.5 -32.5 t-179.5 32.5t-64.5 92.5t64.5 92.5t179.5 32.5zM505 390v-114h281v-44h-615v44h281v114h53zM741 609h139v-45h-139v-218h-53v473h53v-210z" />
<glyph unicode="&#xac1c;" d="M91 700h343q0 -386 -339 -574l-32 39q158 86 234.5 212.5t84.5 277.5h-291v45zM754 818h51v-888h-51v473h-147v-425h-51v816h51v-346h147v370z" />
<glyph unicode="&#xac1d;" d="M101 749h343q0 -152 -90 -273t-256 -194l-29 39q145 63 228.5 162.5t92.5 221.5h-289v44zM216 202v45h584v-317h-53v272h-531zM749 817h51v-524h-51v246h-143v-240h-51v502h51v-217h143v233z" />
<glyph unicode="&#xac20;" d="M606 490v-303h-51v614h51v-266h143v282h51v-662h-51v335h-143zM100 730h343q0 -154 -89.5 -276t-256.5 -196l-28 39q144 63 227 164t93 225h-289v44zM284 5h546v-44h-599v276h53v-232z" />
<glyph unicode="&#xac24;" d="M606 559v-196h-51v438h51v-197h143v214h51v-462h-51v203h-143zM103 764h341q0 -147 -90 -258t-256 -175l-27 41q145 53 226.5 141.5t91.5 205.5h-286v45zM280 -12h557v-44h-609v214h521v110h-523v44h574v-197h-520v-127z" />
<glyph unicode="&#xac2c;" d="M100 749h345q0 -152 -90 -270.5t-256 -190.5l-29 40q144 61 227 158t93 219h-290v44zM281 213v-224h467v224h-467zM228 -55v312h572v-312h-572zM749 817h51v-510h-51v237h-143v-230h-51v487h51v-212h143v228z" />
<glyph unicode="&#xac2d;" d="M102 755h342q0 -150 -89 -265.5t-257 -183.5l-27 40q145 58 226.5 151t91.5 213h-287v45zM749 -11v138h-466v-138h466zM749 171v121h51v-347h-569v347h52v-121h466zM749 817h51v-483h-51v214h-143v-207h-51v460h51v-208h143v224z" />
<glyph unicode="&#xac2f;" d="M606 529v-210h-51v482h51v-227h143v244h51v-580h-51v291h-143zM106 733h339q0 -156 -87.5 -278.5t-258.5 -197.5l-29 42q150 62 230.5 162t89.5 227h-284v45zM539 275v-46q0 -62 51 -117.5t120 -88.5t141 -46l-22 -42q-101 20 -191 75t-125 134q-36 -79 -126 -134 t-191 -75l-22 42q71 13 140.5 46t120.5 88.5t51 117.5v46h53z" />
<glyph unicode="&#xac30;" d="M606 538v-230h-51v493h51v-218h143v234h51v-515h-51v236h-143zM101 749h343q0 -151 -91 -270.5t-255 -190.5l-28 42q142 59 225.5 156.5t93.5 218.5h-288v44zM683 268v-70q0 -69 52.5 -133.5t134.5 -93.5l-27 -40q-66 25 -114.5 72.5t-71.5 106.5q-20 -59 -62.5 -109.5 t-101.5 -77.5q-63 26 -105.5 74.5t-61.5 108.5q-25 -57 -72.5 -103t-110.5 -72l-27 40q80 30 133.5 96t53.5 131v70h50v-70q0 -65 36.5 -126t102.5 -96q64 39 102 103t38 119v70h51z" />
<glyph unicode="&#xac31;" d="M606 527v-229h-51v504h51v-230h143v246h51v-552h-51v261h-143zM102 741h343q0 -152 -90.5 -272.5t-255.5 -192.5l-29 40q143 61 226.5 159t93.5 221h-288v45zM514 -23q112 0 178.5 31.5t66.5 85.5t-66.5 85.5t-178.5 31.5q-111 0 -178 -31.5t-67 -85.5t66.5 -85.5 t178.5 -31.5zM514 254q140 0 219 -42t79 -118q0 -77 -79 -118.5t-219 -41.5t-218.5 41.5t-78.5 118.5q0 76 78.5 118t218.5 42z" />
<glyph unicode="&#xac38;" d="M107 720h400q0 -189 -101.5 -349.5t-305.5 -262.5l-30 42q177 88 275.5 224.5t109.5 300.5h-348v45zM884 524h-152v-222h152v-45h-152v-327h-53v888h53v-249h152v-45z" />
<glyph unicode="&#xac39;" d="M97 758h404q0 -161 -111.5 -278t-307.5 -171l-21 43q172 48 273.5 141.5t110.5 219.5h-348v45zM172 207v44h569v-321h-53v277h-516zM880 627h-139v-147h139v-45h-139v-140h-53v524h53v-148h139v-44z" />
<glyph unicode="&#xac3c;" d="M97 748h406q0 -162 -113 -286.5t-304 -189.5l-23 44q167 55 270 156.5t113 230.5h-349v45zM252 228v-231h533v-45h-586v276h53zM880 595h-140v-175h140v-45h-140v-214h-53v657h53v-178h140v-45z" />
<glyph unicode="&#xac40;" d="M97 768h404q0 -156 -112 -267t-306 -160l-21 44q170 42 271.5 130.5t109.5 208.5h-346v44zM244 113v-130h533v-44h-585v218h497v116h-499v45h551v-205h-497zM879 650h-138v-131h138v-45h-138v-113h-53v457h53v-123h138v-45z" />
<glyph unicode="&#xac4b;" d="M100 748h403q0 -163 -111 -285t-305 -183l-24 43q170 52 271.5 151.5t111.5 228.5h-346v45zM507 294v-46q0 -68 49 -127t116 -93t141 -50l-24 -41q-101 23 -187 78.5t-121 136.5q-36 -83 -123 -139t-189 -79l-23 42q75 15 142 49t116.5 93.5t49.5 129.5v46h53zM880 609 h-139v-170h139v-46h-139v-167h-53v592h53v-164h139v-45z" />
<glyph unicode="&#xac4d;" d="M98 748h405q0 -162 -112 -283t-307 -181l-22 45q170 52 271.5 149.5t111.5 224.5h-347v45zM466 -23q106 0 169.5 33.5t63.5 88.5q0 56 -63.5 89.5t-169.5 33.5q-105 0 -168 -33.5t-63 -89.5q0 -55 63.5 -88.5t167.5 -33.5zM466 266q132 0 208.5 -44.5t76.5 -122.5 t-76.5 -121.5t-208.5 -43.5q-131 0 -207 44t-76 121q0 78 76 122.5t207 44.5zM879 621h-138v-153h138v-45h-138v-146h-53v541h53v-152h138v-45z" />
<glyph unicode="&#xac54;" d="M91 700h343q0 -386 -339 -574l-32 39q158 86 234.5 212.5t84.5 277.5h-291v45zM607 325h147v206h-147v-206zM754 818h51v-888h-51v350h-147v-303h-51v817h51v-218h147v242z" />
<glyph unicode="&#xac58;" d="M749 594h-143v-173h143v173zM606 376v-189h-51v614h51v-162h143v178h51v-662h-51v221h-143zM100 730h343q0 -154 -89.5 -276t-256.5 -196l-28 39q144 64 227 164.5t93 224.5h-289v44zM284 5h546v-44h-599v277h53v-233z" />
<glyph unicode="&#xac5c;" d="M749 641h-143v-124h143v124zM606 473v-110h-51v438h51v-116h143v133h51v-462h-51v117h-143zM103 765h341q0 -148 -90 -260t-256 -176l-27 40q145 54 227 144t91 208h-286v44zM280 -20h557v-44h-609v213h521v115h-523v45h574v-203h-520v-126z" />
<glyph unicode="&#xac70;" d="M99 720h399q0 -192 -98.5 -350.5t-305.5 -260.5l-31 42q182 88 277.5 223.5t104.5 300.5h-346v45zM726 818h53v-887h-53v477h-228v45h228v365z" />
<glyph unicode="&#xac71;" d="M114 758h397q0 -160 -112 -277.5t-305 -172.5l-24 43q170 48 272 142t112 220h-340v45zM194 208v44h586v-321h-53v277h-533zM727 818h53v-524h-53v236h-216v45h216v243z" />
<glyph unicode="&#xac74;" d="M511 534h216v283h53v-660h-53v332h-216v45zM115 748h397q0 -163 -113 -288.5t-303 -190.5l-24 43q166 56 269.5 158.5t113.5 232.5h-340v45zM284 -3h519v-45h-572v273h53v-228z" />
<glyph unicode="&#xac77;" d="M510 569h217v249h53v-509h-53v215h-217v45zM113 758h397q0 -160 -112 -277t-307 -174l-21 43q170 49 272 143t112 220h-341v45zM268 -11h529v-45h-581v311h566v-45h-514v-221z" />
<glyph unicode="&#xac78;" d="M727 357v189h-216v44h216v228h53v-461h-53zM116 768h391q0 -156 -111 -266.5t-304 -160.5l-20 43q169 44 268.5 131.5t109.5 208.5h-334v44zM272 -17h544v-44h-596v218h508v113h-511v45h563v-201h-508v-131z" />
<glyph unicode="&#xac7a;" d="M115 768h393q0 -156 -111.5 -267t-304.5 -162l-21 44q169 43 269.5 131t110.5 209h-336v45zM220 109v-120q163 0 249 16l6 -43q-97 -18 -263 -18h-43v207h226v107h-229v43h280v-192h-226zM555 259v-273h177v273h-177zM507 -56v357h273v-357h-273zM727 818h53v-474h-53 v205h-217v44h217v225z" />
<glyph unicode="&#xac80;" d="M113 758h398q0 -160 -112 -277.5t-306 -173.5l-23 44q170 48 272 142t112 220h-341v45zM266 223v-234h462v234h-462zM215 -55v321h565v-321h-565zM727 818h53v-513h-53v228h-217v45h217v240z" />
<glyph unicode="&#xac81;" d="M115 761h395q0 -159 -111.5 -272t-306.5 -164l-21 43q170 45 271 135t111 213h-338v45zM727 -12v135h-459v-135h459zM727 166v128h52v-350h-564v350h53v-128h459zM726 819h53v-477h-53v197h-215v45h215v235z" />
<glyph unicode="&#xac83;" d="M727 210v303h-214v45h214v259h53v-607h-53zM115 746h396q0 -162 -111.5 -284t-301.5 -184l-23 43q166 54 268 153t112 227h-340v45zM527 293v-47q0 -52 28 -98.5t73.5 -79.5t98 -56.5t106.5 -34.5l-23 -42q-101 23 -187.5 78.5t-121.5 136.5q-36 -82 -123 -138t-189 -79 l-23 42q54 11 107 34t99 56.5t74 80.5t28 100v47h53z" />
<glyph unicode="&#xac84;" d="M727 305v230h-214v45h214v238h53v-513h-53zM119 758h392q0 -160 -112 -277.5t-306 -173.5l-23 44q170 48 272 142t112 220h-335v45zM674 284v-76q0 -70 52.5 -134t135.5 -93l-27 -41q-66 24 -115 71t-72 106q-21 -59 -63 -108.5t-102 -75.5q-62 25 -104.5 73t-62.5 108 q-24 -57 -71.5 -103.5t-110.5 -70.5l-27 41q80 30 133 96t53 131v76h51v-76q0 -65 36.5 -126t101.5 -96q65 37 103 101t38 121v76h51z" />
<glyph unicode="&#xac85;" d="M511 554h216v263h53v-543h-53v235h-216v45zM115 747h397q0 -161 -113 -281.5t-304 -180.5l-24 44q168 53 271 150t113 224h-340v44zM495 -22q108 0 173 33t65 89q0 55 -65 88t-173 33q-109 0 -174 -33t-65 -88q0 -56 65 -89t174 -33zM495 265q134 0 211.5 -43.5 t77.5 -121.5t-77.5 -122t-211.5 -44q-136 0 -213.5 44t-77.5 122t77.5 121.5t213.5 43.5z" />
<glyph unicode="&#xac86;" d="M512 574h215v244h53v-515h-53v226h-215v45zM115 758h410q0 -161 -115 -277.5t-313 -170.5l-21 44q173 46 277.5 139.5t114.5 219.5h-353v45zM533 208v-5q0 -54 46.5 -104t112 -81t134.5 -44l-22 -42q-96 20 -180.5 71t-118.5 121q-33 -70 -117.5 -121t-180.5 -71l-22 42 q70 13 135 44t111.5 81t46.5 104v5h-259v45h573v-45h-259z" />
<glyph unicode="&#xac89;" d="M727 330v206h-211v45h211v238h53v-489h-53zM114 759h397q0 -159 -111.5 -273t-307.5 -167l-21 44q172 46 272.5 136.5t109.5 214.5h-339v45zM276 -13h525v-43h-578v350h560v-43h-507v-109h496v-42h-496v-113z" />
<glyph unicode="&#xac8a;" d="M510 576h217v242h53v-507h-53v220h-217v45zM114 757h397q0 -158 -113 -274t-305 -170l-21 44q168 47 270 139t112 216h-340v45zM389 221v-232h209v232h-209zM651 -11h148v-44h-607v44h144v232h-136v45h588v-45h-137v-232z" />
<glyph unicode="&#xac8b;" d="M727 345v205h-217v46h217v223h53v-474h-53zM115 762h392q0 -159 -110 -271.5t-305 -165.5l-22 43q171 46 271 136.5t109 213.5h-335v44zM495 -27q89 0 140.5 22.5t51.5 61.5t-52 62t-140 23q-87 0 -138.5 -23t-51.5 -62t51.5 -61.5t138.5 -22.5zM495 182q115 0 180 -32.5 t65 -92.5q0 -59 -65 -91.5t-180 -32.5t-179.5 32.5t-64.5 91.5q0 60 64.5 92.5t179.5 32.5zM523 274h280v-44h-615v44h282v112h53v-112z" />
<glyph unicode="&#xac8c;" d="M570 442v351h51v-814h-51v419h-210q-88 -166 -263 -272l-34 40q147 87 228.5 215.5t90.5 274.5h-287v45h339q0 -137 -53 -259h189zM755 818h51v-888h-51v888z" />
<glyph unicode="&#xac90;" d="M800 817v-670h-51v670h51zM575 480h-201q-90 -139 -276 -222l-29 40q146 63 230.5 163.5t94.5 224.5h-292v45h346q0 -113 -48 -206h175v274h51v-625h-51v306zM286 -3h545v-45h-598v279h53v-234z" />
<glyph unicode="&#xac94;" d="M800 818v-462h-51v462h51zM575 547h-187q-89 -143 -288 -218l-27 40q146 53 228.5 143.5t92.5 208.5h-289v44h344q0 -91 -37 -173h163v207h51v-437h-51v185zM280 -12h557v-44h-609v211h520v109h-522v45h574v-197h-520v-124z" />
<glyph unicode="&#xac9c;" d="M575 521h-190q-89 -148 -285 -233l-29 39q145 61 229 158t94 220h-291v44h345q0 -97 -39 -183h166v232h51v-481h-51v204zM280 216v-226h469v226h-469zM229 -55v315h571v-315h-571zM749 817h51v-512h-51v512z" />
<glyph unicode="&#xac9d;" d="M575 525h-192q-88 -142 -285 -222l-28 39q148 57 229.5 151t92.5 216h-288v45h343q0 -98 -40 -184h168v228h51v-462h-51v189zM749 -12v136h-466v-136h466zM749 168v122h51v-347h-569v347h52v-122h466zM749 817h51v-488h-51v488z" />
<glyph unicode="&#xac9f;" d="M800 818v-598h-51v598h51zM575 501h-189q-89 -154 -287 -243l-29 40q146 63 229.5 164t93.5 226h-290v45h344q0 -100 -39 -187h167v252h51v-503h-51v206zM538 275v-45q0 -47 29.5 -91.5t76.5 -76t101 -53.5t106 -31l-21 -43q-101 20 -191.5 75t-127.5 134 q-36 -79 -127 -134t-192 -75l-21 43q52 9 106 31t101 53.5t76.5 76t29.5 91.5v45h54z" />
<glyph unicode="&#xaca0;" d="M800 817v-517h-51v517h51zM575 508h-199q-90 -139 -278 -221l-27 40q144 61 228.5 158.5t94.5 219.5h-291v45h345q0 -107 -45 -197h172v245h51v-483h-51v193zM683 268v-70q0 -69 52.5 -133.5t134.5 -93.5l-27 -40q-66 24 -114.5 71.5t-71.5 106.5q-20 -59 -62 -109 t-102 -77q-63 26 -105.5 74.5t-61.5 108.5q-25 -57 -72.5 -103.5t-110.5 -71.5l-27 40q80 30 133.5 96t53.5 131v70h50v-70q0 -65 36.5 -126t102.5 -96q64 39 102 103t38 119v70h51z" />
<glyph unicode="&#xaca1;" d="M800 818v-552h-51v552h51zM575 507h-192q-89 -146 -285 -231l-28 39q144 62 228.5 159.5t94.5 221.5h-290v45h345q0 -101 -41 -189h168v247h51v-500h-51v208zM515 -23q112 0 178.5 31.5t66.5 85.5t-67 85.5t-178 31.5q-112 0 -178.5 -31.5t-66.5 -85.5t66.5 -85.5 t178.5 -31.5zM515 254q140 0 219 -42t79 -118q0 -77 -79 -118.5t-219 -41.5t-219 41.5t-79 118.5q0 76 79 118t219 42z" />
<glyph unicode="&#xaca8;" d="M726 820h53v-887h-53v353h-267v45h267v190h-255q-83 -268 -379 -413l-29 43q182 88 279 223.5t107 300.5h-351v45h403q0 -77 -17 -154h242v254z" />
<glyph unicode="&#xaca9;" d="M194 202v44h586v-315h-53v271h-533zM727 817h53v-530h-53v130h-252v45h252v143h-239q-44 -105 -146 -182t-247 -117l-22 43q170 47 274 142t114 220h-346v45h403q0 -53 -14 -106h223v167z" />
<glyph unicode="&#xacaa;" d="M176 209v44h283v-322h-53v278h-230zM504 209v44h276v-322h-53v278h-223zM727 818h53v-518h-53v119h-254v45h254v142h-240q-44 -104 -146 -181t-246 -117l-23 43q171 47 274.5 142t113.5 220h-345v45h402q0 -56 -15 -107h225v167z" />
<glyph unicode="&#xacac;" d="M727 583h-245q-45 -106 -145 -187t-239 -128l-25 44q167 56 271.5 158t114.5 232h-343v45h400q0 -61 -17 -120h228v190h54v-664h-54v231h-256v45h256v154zM284 -3h519v-45h-572v266h53v-221z" />
<glyph unicode="&#xacaf;" d="M727 614h-240q-42 -107 -144 -185.5t-249 -120.5l-22 43q170 49 272.5 143t112.5 219h-344v45h401q0 -53 -13 -99h226v159h53v-509h-53v119h-254v45h254v141zM268 -11h529v-45h-581v311h566v-45h-514v-221z" />
<glyph unicode="&#xacb0;" d="M727 635h-239q-40 -106 -142.5 -181t-251.5 -113l-20 44q170 43 271 130.5t110 207.5h-339v45h396q0 -45 -11 -89h226v139h53v-458h-53v107h-254v44h254v124zM272 -17h544v-44h-596v218h508v113h-511v45h563v-201h-508v-131z" />
<glyph unicode="&#xacb8;" d="M266 222v-233h462v233h-462zM215 -55v321h565v-321h-565zM727 818h53v-513h-53v126h-254v45h254v135h-242q-43 -106 -144.5 -184t-247.5 -120l-22 44q170 49 272.5 143t112.5 219h-343v45h400q0 -48 -13 -102h227v162z" />
<glyph unicode="&#xacb9;" d="M727 -12v135h-459v-135h459zM727 166v128h52v-350h-564v350h53v-128h459zM726 819h53v-477h-53v100h-252v45h252v135h-239q-41 -106 -143 -181.5t-251 -115.5l-23 43q172 46 273 136t111 212h-339v45h397q0 -49 -12 -94h226v152z" />
<glyph unicode="&#xacbb;" d="M727 594h-244q-44 -107 -143.5 -188t-241.5 -128l-24 43q167 54 269.5 153t112.5 227h-341v45h397q0 -54 -14 -107h229v178h53v-608h-53v197h-256v45h256v143zM527 294v-46q0 -68 48.5 -127t116 -93t141.5 -49l-23 -43q-102 23 -188 78.5t-121 136.5q-36 -83 -123 -139 t-189 -78l-23 43q74 14 142 48.5t117 94t49 128.5v46h53z" />
<glyph unicode="&#xacbc;" d="M727 611h-243q-42 -106 -143.5 -183.5t-247.5 -119.5l-22 43q170 48 272.5 142t112.5 220h-337v45h393q0 -48 -13 -102h228v162h53v-512h-53v122h-254v45h254v138zM674 285v-77q0 -69 52.5 -133t135.5 -94l-27 -41q-66 25 -115 72t-72 106q-21 -59 -63 -108.5t-102 -76.5 q-62 26 -104.5 74t-62.5 108q-24 -57 -71.5 -103.5t-110.5 -71.5l-27 41q80 31 133 96.5t53 130.5v77h51v-77q0 -64 36.5 -125.5t101.5 -96.5q65 38 103 102t38 120v77h51z" />
<glyph unicode="&#xacbd;" d="M727 596h-245q-43 -107 -144 -186.5t-243 -124.5l-24 44q168 53 271 150t113 224h-340v44h397q0 -55 -14 -106h229v176h53v-543h-53v136h-256v45h256v141zM495 -23q108 0 173 33.5t65 89.5q0 55 -65 88t-173 33q-109 0 -174 -33t-65 -88q0 -56 65 -89.5t174 -33.5z M495 264q134 0 211.5 -43.5t77.5 -120.5q0 -78 -77.5 -122t-211.5 -44q-136 0 -213.5 44t-77.5 122q0 77 77.5 120.5t213.5 43.5z" />
<glyph unicode="&#xacc1;" d="M727 623h-240q-40 -108 -142 -185.5t-253 -118.5l-22 44q173 45 274 136.5t110 214.5h-340v45h397q0 -46 -11 -93h227v153h53v-488h-53v119h-253v43h253v130zM276 -13h525v-43h-578v350h560v-43h-507v-109h496v-42h-496v-113z" />
<glyph unicode="&#xacc4;" d="M579 565v228h51v-814h-51v317h-184v45h184v179h-170q-69 -246 -313 -394l-33 39q146 88 228 216.5t91 274.5h-287v45h339q0 -63 -13 -136h158zM755 818h51v-888h-51v888z" />
<glyph unicode="&#xacc8;" d="M800 817v-661h-51v661h51zM583 567h-165q-75 -203 -322 -314l-27 40q146 64 230 165.5t94 227.5h-291v45h345q0 -60 -14 -119h150v187h51v-622h-51v196h-180v45h180v149zM286 -3h545v-45h-598v283h53v-238z" />
<glyph unicode="&#xaccc;" d="M800 818v-466h-51v466h51zM583 628h-157q-68 -200 -326 -299l-28 40q146 54 229 144t93 208h-289v44h343q0 -50 -10 -93h145v127h51v-441h-51v107h-166v44h166v119zM280 -17h557v-44h-609v214h520v111h-522v45h574v-198h-520v-128z" />
<glyph unicode="&#xacd5;" d="M583 615h-158q-70 -207 -327 -308l-28 40q147 56 229 149t93 213h-288v45h342q0 -51 -10 -95h147v139h51v-463h-51v111h-165v44h165v125zM749 -11v136h-466v-136h466zM749 169v121h51v-345h-569v345h52v-121h466zM749 817h51v-488h-51v488z" />
<glyph unicode="&#xacd7;" d="M800 818v-605h-51v605h51zM575 593h-150q-34 -108 -117 -194t-209 -142l-29 40q145 63 228.5 164t93.5 227h-289v45h343q0 -51 -10 -95h139v160h51v-513h-51v132h-158v45h158v131zM538 268v-41q0 -62 51 -117.5t120.5 -88.5t141.5 -45l-21 -42q-101 20 -191.5 74.5 t-127.5 131.5q-36 -77 -127 -131.5t-192 -74.5l-21 42q72 12 141.5 45t120.5 88.5t51 117.5v41h54z" />
<glyph unicode="&#xace0;" d="M699 631v45h-555v44h608v-89q0 -228 -31 -402l-54 8q32 166 32 394zM438 111h422v-45h-803v45h329v325h52v-325z" />
<glyph unicode="&#xace1;" d="M702 698v25h-548v45h600v-70q0 -143 -22 -239l-53 6q23 96 23 233zM145 182v44h612v-296h-53v252h-559zM459 387h400v-45h-802v45h349v189h53v-189z" />
<glyph unicode="&#xace4;" d="M702 703v17h-548v44h600v-61q0 -155 -24 -271l-53 7q25 115 25 264zM217 218v-221h561v-45h-614v266h53zM459 364h400v-45h-802v45h349v193h53v-193z" />
<glyph unicode="&#xace7;" d="M702 699v32h-548v45h600v-77q0 -142 -24 -233l-52 6q24 91 24 227zM214 203v-213h552v-44h-605v302h593v-45h-540zM459 405h400v-44h-802v44h349v179h53v-179z" />
<glyph unicode="&#xace8;" d="M702 721v16h-548v44h600v-60q0 -125 -18 -210l-52 5q18 85 18 205zM209 112v-124h571v-44h-623v210h549v110h-551v44h603v-196h-549zM459 452h400v-44h-802v44h349v169h53v-169z" />
<glyph unicode="&#xacea;" d="M702 721v10h-547v44h598v-54q0 -135 -19 -235l-52 5q20 101 20 230zM197 105v-119q164 0 255 17l5 -43q-90 -17 -267 -17h-44v202h227v104h-230v42h281v-186h-227zM535 249v-264h185v264h-185zM487 -57v348h281v-348h-281zM459 431h399v-44h-800v44h348v175h53v-175z" />
<glyph unicode="&#xacec;" d="M702 706v29h-547v45h599v-74q0 -134 -19 -217l-53 7q20 81 20 210zM197 106v-120q153 0 241 16l6 -43q-89 -16 -255 -16h-43v203h227v104h-230v42h281v-186h-227zM665 311v-87q0 -74 42.5 -144.5t117.5 -104.5l-31 -39q-114 56 -154 184q-20 -59 -59.5 -108t-96.5 -76 l-29 39q74 35 117 105.5t43 143.5v87h50zM459 434h400v-45h-801v45h348v175h53v-175z" />
<glyph unicode="&#xacef;" d="M702 734v10h-547v44h598v-54q0 -134 -19 -234l-52 5q20 100 20 229zM196 109v-121q173 0 259 17l7 -43q-91 -17 -272 -17h-45v206h220v106h-222v43h272v-191h-219zM634 -29q44 0 70.5 20.5t26.5 53.5q0 34 -26.5 54.5t-70.5 20.5t-71 -20.5t-27 -54.5q0 -33 27 -53.5 t71 -20.5zM634 159q63 0 103.5 -31t40.5 -83t-40.5 -82.5t-103.5 -30.5t-104 30.5t-41 82.5t40.5 83t104.5 31zM659 331v-90h160v-42h-369v42h157v90h52zM459 440h400v-44h-802v44h349v177h53v-177z" />
<glyph unicode="&#xacf0;" d="M702 700v32h-548v45h600v-77q0 -142 -24 -233l-52 6q24 91 24 227zM209 206v-217h498v217h-498zM158 -56v305h601v-305h-601zM459 407h400v-44h-802v44h349v184h53v-184z" />
<glyph unicode="&#xacf1;" d="M702 711v24h-548v45h600v-69q0 -138 -24 -228l-53 6q25 91 25 222zM697 -11v141h-478v-141h478zM697 173v124h53v-353h-584v353h53v-124h478zM459 430h400v-45h-801v45h348v165h53v-165z" />
<glyph unicode="&#xacf3;" d="M702 716v14h-548v45h599v-59q0 -146 -23 -254l-51 7q23 106 23 247zM482 267v-47q0 -62 48.5 -116t116 -85t142.5 -43l-22 -42q-103 20 -190 71t-122 128q-35 -77 -122 -128t-191 -71l-22 42q55 9 108 29.5t98.5 51t73.5 73.5t28 90v47h54zM459 393h400v-45h-802v45h349 v188h53v-188z" />
<glyph unicode="&#xacf5;" d="M702 693v32h-547v45h598v-77q0 -142 -24 -233l-51 7q24 90 24 226zM456 -24q114 0 184 32t70 85t-70 85.5t-184 32.5q-113 0 -183 -32.5t-70 -85.5t69.5 -85t183.5 -32zM456 254q142 0 224 -43t82 -118t-82 -117.5t-224 -42.5t-224 42.5t-82 117.5t82 118t224 43z M459 395h400v-45h-801v45h348v180h53v-180z" />
<glyph unicode="&#xacf6;" d="M702 705v30h-548v44h600v-74q0 -140 -23 -229l-53 7q24 90 24 222zM764 205h-277q5 -60 55.5 -110.5t117 -78.5t139.5 -40l-20 -42q-105 18 -194.5 68.5t-124.5 126.5q-36 -76 -125 -126.5t-194 -68.5l-21 42q73 12 140 40t117.5 78.5t55.5 110.5h-278v45h609v-45z M459 412h400v-45h-802v45h349v176h53v-176z" />
<glyph unicode="&#xacfc;" d="M514 323l-53 5q28 174 28 344h-392v44h444v-33q0 -184 -27 -360zM304 462v-277q183 5 308 22l4 -40q-208 -31 -561 -33l-9 47q133 0 206 2v279h52zM883 439v-48h-156v-461h-53v889h53v-380h156z" />
<glyph unicode="&#xacfd;" d="M516 466l-52 6q25 114 25 239h-379v44h431v-39q0 -138 -25 -250zM618 404l4 -40q-217 -35 -560 -35l-8 46q94 0 204 3v191h53v-189q194 8 307 24zM164 178v44h573v-285h-53v241h-520zM876 561v-46h-139v-243h-53v546h53v-257h139z" />
<glyph unicode="&#xad00;" d="M517 441l-53 5q26 119 26 256h-380v44h432v-41q0 -144 -25 -264zM618 378l4 -41q-203 -33 -560 -35l-7 47q130 0 203 2v203h53v-201q183 7 307 25zM248 210v-213h518v-45h-571v258h53zM737 519h140v-46h-140v-326h-53v671h53v-299z" />
<glyph unicode="&#xad04;" d="M516 495l-52 6q25 105 25 218h-378v45h430v-37q0 -127 -25 -232zM619 443l4 -40q-211 -34 -560 -34l-7 46q131 0 202 2v173h53v-171q193 7 308 24zM228 103v-119h545v-43h-597v204h509v105h-512v43h564v-190h-509zM737 594h139v-45h-139v-213h-53v483h53v-225z" />
<glyph unicode="&#xad06;" d="M516 497l-52 5q25 109 25 217h-379v45h431v-36q0 -127 -25 -231zM619 449l4 -39q-200 -35 -561 -35l-6 46q129 0 202 2v171h53v-169q178 5 308 24zM192 98v-112q154 0 240 18l6 -44q-92 -18 -256 -18h-41v196h218v99h-221v42h272v-181h-218zM513 237v-252h176v252h-176z M465 -58v337h272v-337h-272zM876 587v-46h-139v-215h-53v492h53v-231h139z" />
<glyph unicode="&#xad0c;" d="M516 485l-52 5q25 106 25 224h-379v45h431v-38q0 -130 -25 -236zM618 420l4 -40q-193 -33 -560 -35l-8 47q131 0 204 2v177h53v-175q176 5 307 24zM236 194v-205h450v205h-450zM184 -55v293h553v-293h-553zM876 575v-45h-139v-244h-53v533h53v-244h139z" />
<glyph unicode="&#xad0d;" d="M516 492l-52 5q25 106 25 221h-379v45h431v-37q0 -128 -25 -234zM619 435l5 -40q-218 -35 -562 -35l-7 47q130 0 202 2v171h53v-169q195 7 309 24zM685 -11v134h-447v-134h447zM685 166v119h52v-341h-551v341h52v-119h447zM876 589v-45h-139v-221h-53v496h53v-230h139z " />
<glyph unicode="&#xad0f;" d="M515 470l-52 5q26 113 26 237h-379v45h431v-38q0 -137 -26 -249zM618 402l4 -40q-210 -35 -560 -35l-8 46q94 0 204 3v189h53v-187q193 7 307 24zM503 253v-39q0 -61 48 -113t115 -82t142 -43l-22 -42q-102 19 -188.5 69t-121.5 124q-35 -74 -121 -124t-188 -69l-22 42 q74 13 141 43t115 82t48 113v39h54zM737 543h139v-46h-139v-282h-53v603h53v-275z" />
<glyph unicode="&#xad11;" d="M516 472l-52 6q25 108 25 236h-378v45h430v-43q0 -134 -25 -244zM618 408l4 -40q-217 -35 -559 -35l-8 47q130 0 203 2v188h53v-186q193 7 307 24zM458 -23q108 0 171 30t63 82t-63 82.5t-171 30.5q-107 0 -170.5 -30.5t-63.5 -82.5t63.5 -82t170.5 -30zM458 245 q135 0 211 -40.5t76 -115.5t-76 -115.5t-211 -40.5t-210.5 40.5t-75.5 115.5t75.5 115.5t210.5 40.5zM737 562h139v-46h-139v-259h-53v562h53v-257z" />
<glyph unicode="&#xad18;" d="M409 657v12h-319v44h369v-56q0 -180 -21 -324l-50 3q21 144 21 321zM265 463v-260q163 8 246 19l4 -40q-175 -30 -459 -30l-9 47q46 0 168 2v262h50zM745 819h52v-889h-52v455h-131v-404h-51v816h51v-366h131v388z" />
<glyph unicode="&#xad1c;" d="M610 479v-308h-51v632h51v-279h130v293h52v-676h-52v338h-130zM414 688v13h-313v45h364v-58q0 -139 -21 -241l-51 6q21 102 21 235zM512 378l4 -40q-177 -28 -458 -28l-9 47q111 0 175 2v187h50v-185q148 5 238 17zM269 -3h551v-45h-604v262h53v-217z" />
<glyph unicode="&#xad20;" d="M610 545v-211h-51v469h51v-213h130v229h52v-492h-52v218h-130zM414 713v8h-313v44h364v-52q0 -124 -19 -214l-51 5q19 91 19 209zM512 434l4 -39q-177 -28 -458 -28l-9 46q79 0 175 3v169h50v-168q131 5 238 17zM264 -13h564v-44h-616v199h528v101h-531v43h583v-186h-528 v-113z" />
<glyph unicode="&#xad29;" d="M414 707v11h-313v44h364v-55q0 -131 -21 -225l-50 5q20 95 20 220zM512 418l4 -39q-177 -28 -459 -28l-8 46q111 0 175 2v175h50v-173q148 5 238 17zM739 -11v129h-476v-129h476zM739 162v117h53v-335h-582v335h53v-117h476zM740 819h52v-500h-52v216h-130v-209h-51v477 h51v-223h130v239z" />
<glyph unicode="&#xad2c;" d="M610 516v-228h-51v515h51v-242h130v257h52v-538h-52v236h-130zM414 699v12h-313v44h364v-56q0 -134 -20 -231l-50 7q19 97 19 224zM512 399l4 -38q-160 -30 -458 -30l-9 45q110 0 175 2v180h50v-178q151 6 238 19zM679 246v-37q0 -72 51.5 -135.5t134.5 -91.5l-26 -41 q-66 24 -114 70.5t-71 105.5q-20 -60 -62 -108.5t-103 -74.5q-62 26 -104 74.5t-61 108.5q-24 -59 -72 -105.5t-113 -70.5l-27 41q82 28 134.5 92t52.5 135v37h51v-37q0 -63 37 -125.5t102 -97.5q65 36 102 98.5t37 124.5v37h51z" />
<glyph unicode="&#xad2d;" d="M414 690v14h-313v44h364v-58q0 -137 -20 -235l-51 4q20 100 20 231zM512 391l4 -38q-151 -28 -458 -31l-9 46q110 0 175 2v181h50v-179q139 5 238 19zM495 -25q112 0 177.5 28.5t65.5 77.5t-65.5 77.5t-177.5 28.5q-113 0 -179 -28.5t-66 -77.5t66 -77.5t179 -28.5z M495 230q140 0 218.5 -38.5t78.5 -110.5q0 -71 -78.5 -110t-218.5 -39q-141 0 -219.5 39t-78.5 110q0 72 78.5 110.5t219.5 38.5zM740 817h52v-564h-52v267h-130v-239h-51v522h51v-238h130v252z" />
<glyph unicode="&#xad34;" d="M533 324l-53 8q29 171 29 336h-391v45h443v-31q0 -181 -28 -358zM328 454v-271q189 7 327 24l5 -40q-226 -35 -589 -35l-9 47q100 0 214 3v272h52zM718 819h53v-890h-53v890z" />
<glyph unicode="&#xad35;" d="M525 465l-52 6q26 114 26 240h-375v44h426v-39q0 -138 -25 -251zM641 394l4 -41q-221 -34 -576 -34l-9 46q100 0 216 3v191h52v-189q194 7 313 24zM189 172v45h588v-287h-53v242h-535zM724 818h53v-555h-53v555z" />
<glyph unicode="&#xad38;" d="M777 818v-678h-53v678h53zM530 440l-52 7q26 117 26 255h-382v45h434v-44q0 -145 -26 -263zM641 370l4 -41q-234 -33 -577 -35l-10 48q115 0 218 4v196h52v-194q192 7 313 22zM272 -3h532v-45h-585v248h53v-203z" />
<glyph unicode="&#xad3c;" d="M777 819v-491h-53v491h53zM525 497l-51 4q24 105 24 220h-376v44h427v-36q0 -127 -24 -232zM640 444l5 -40q-228 -35 -577 -35l-9 46q101 0 217 3v179h52v-177q195 7 312 24zM255 -14h559v-43h-611v198h522v101h-525v43h577v-185h-522v-114z" />
<glyph unicode="&#xad44;" d="M527 481l-52 5q23 105 23 230h-375v45h427v-44q0 -132 -23 -236zM641 417l4 -41q-222 -35 -577 -35l-9 46q139 0 217 2v175h52v-173q188 7 313 26zM258 192v-203h467v203h-467zM207 -56v292h570v-292h-570zM724 818h53v-532h-53v532z" />
<glyph unicode="&#xad45;" d="M499 709v10h-375v44h424v-54q0 -129 -23 -225l-49 5q23 97 23 220zM641 420l4 -40q-241 -34 -577 -34l-8 45q114 0 217 4v167h51v-165q194 7 313 23zM724 -12v128h-471v-128h471zM724 161v114h53v-332h-576v332h52v-114h471zM724 818h53v-499h-53v499z" />
<glyph unicode="&#xad47;" d="M777 818v-629h-53v629h53zM499 699v13h-374v45h425v-58q0 -134 -23 -231l-51 7q23 96 23 224zM641 397l4 -40q-239 -35 -576 -35l-9 46q115 0 216 4v182h52v-180q194 7 313 23zM518 256v-38q0 -46 28 -87.5t73 -71t97.5 -49.5t106.5 -29l-22 -41q-102 19 -188.5 68.5 t-121.5 124.5q-35 -75 -121.5 -124.5t-188.5 -68.5l-21 41q73 12 140.5 42.5t116 82.5t48.5 112v38h53z" />
<glyph unicode="&#xad49;" d="M777 819v-566h-53v566h53zM499 702v13h-375v44h426v-57q0 -139 -23 -240l-51 7q23 101 23 233zM641 400l4 -39q-215 -35 -576 -35l-9 46q139 0 216 2v178h52v-176q195 8 313 24zM490 -24q109 0 173.5 30t64.5 82t-64.5 82.5t-173.5 30.5q-108 0 -172.5 -30.5t-64.5 -82.5 q0 -51 64.5 -81.5t172.5 -30.5zM490 244q137 0 214 -40.5t77 -115.5q0 -74 -77 -114.5t-214 -40.5q-136 0 -213 40.5t-77 114.5t77 115t213 41z" />
<glyph unicode="&#xad50;" d="M700 617v59h-557v44h609v-103q0 -78 -1 -121.5t-8 -117t-22 -146.5l-53 7q15 71 22.5 143.5t8.5 115.5t1 119zM543 111h317v-45h-803v45h215v301h52v-301h167v301h52v-301z" />
<glyph unicode="&#xad54;" d="M705 694v26h-552v45h603v-71q0 -155 -22 -261l-53 6q24 105 24 255zM217 215v-219h561v-45h-614v264h53zM556 358h303v-45h-802v45h225v196h52v-196h169v196h53v-196z" />
<glyph unicode="&#xad58;" d="M705 723v18h-552v44h603v-62q0 -126 -18 -210l-51 6q18 84 18 204zM209 112v-124h571v-44h-623v210h549v110h-551v44h603v-196h-549zM554 448h305v-45h-802v45h226v174h52v-174h168v174h51v-174z" />
<glyph unicode="&#xad61;" d="M704 712v24h-551v45h603v-69q0 -137 -23 -229l-53 7q24 91 24 222zM697 -12v141h-478v-141h478zM697 173v123h53v-353h-584v353h53v-123h478zM553 420h306v-44h-801v44h225v174h52v-174h166v174h52v-174z" />
<glyph unicode="&#xad63;" d="M707 699v33h-553v45h604v-78q0 -145 -23 -237l-51 7q23 91 23 230zM482 267v-47q0 -63 48.5 -116.5t116.5 -84.5t143 -43l-22 -42q-103 20 -190.5 71t-122.5 128q-35 -77 -122 -128t-191 -71l-22 42q75 12 143 43t116.5 84.5t48.5 116.5v47h54zM554 386h306v-44h-804v44 h227v192h53v-192h166v192h52v-192z" />
<glyph unicode="&#xad6c;" d="M859 374v-45h-375v-400h-53v400h-375v45h609q29 129 29 307v32h-532v44h584v-76q0 -177 -26 -307h139z" />
<glyph unicode="&#xad6d;" d="M863 405h-378v-185h276v-290h-53v245h-566v45h290v185h-376v45h618q27 114 27 263v16h-540v45h591v-61q0 -151 -24 -263h135v-45z" />
<glyph unicode="&#xad70;" d="M216 224v-227h557v-45h-610v272h53zM728 418h134v-45h-374v-229h-53v229h-379v45h618q27 122 27 284v22h-540v44h592v-66q0 -163 -25 -284z" />
<glyph unicode="&#xad73;" d="M862 410h-377v-166h276v-44h-551v-211h556v-45h-609v300h275v166h-376v45h620q25 112 25 257v16h-540v45h591v-61q0 -147 -23 -257h133v-45z" />
<glyph unicode="&#xad74;" d="M863 444h-379v-134h274v-199h-549v-123h571v-44h-623v208h549v114h-551v44h276v134h-375v45h624q21 105 21 238v10h-540v45h591v-55q0 -136 -20 -238h131v-45z" />
<glyph unicode="&#xad75;" d="M199 100v-113q199 0 309 25l6 -44q-119 -25 -315 -25h-51v199h237v99h-240v43h291v-184h-237zM488 240v44h277v-347h-53v303h-224zM731 483h130v-45h-378v-142h-52v142h-375v45h623q22 109 22 245v10h-540v45h591v-55q0 -140 -21 -245z" />
<glyph unicode="&#xad76;" d="M197 105v-119q164 0 255 17l5 -43q-90 -17 -267 -17h-44v204h227v102h-230v42h281v-186h-227zM535 249v-264h185v264h-185zM487 -57v348h281v-348h-281zM731 481h130v-44h-378v-138h-52v138h-375v44h622q23 110 23 247v10h-540v45h591v-55q0 -141 -21 -247z" />
<glyph unicode="&#xad7b;" d="M196 104v-116q173 0 259 17l7 -43q-91 -17 -272 -17h-45v200h220v104h-222v43h272v-188h-219zM634 -30q44 0 70.5 22t26.5 58q0 37 -26.5 59t-70.5 22t-71 -22t-27 -59q0 -35 27 -57.5t71 -22.5zM634 170q64 0 104 -32.5t40 -87.5t-40 -87t-104 -32t-104.5 32t-40.5 87 t40.5 87.5t104.5 32.5zM659 338v-87h160v-42h-369v42h157v87h52zM731 483h130v-45h-379v-139h-53v139h-373v45h623q22 109 22 247v10h-540v45h591v-55q0 -141 -21 -247z" />
<glyph unicode="&#xad7c;" d="M708 -11v211h-498v-211h498zM863 413h-379v-170h276v-298h-602v298h273v170h-375v44h618q26 112 26 259v15h-539v45h591v-60q0 -148 -24 -259h135v-44z" />
<glyph unicode="&#xad7d;" d="M700 -11v139h-482v-139h482zM700 172v127h53v-354h-587v354h52v-127h482zM728 462h134v-45h-379v-175h-53v175h-373v45h618q25 111 25 257v15h-539v45h591v-60q0 -147 -24 -257z" />
<glyph unicode="&#xad7f;" d="M484 224v-37q0 -55 49 -101.5t116.5 -73t141.5 -36.5l-19 -41q-105 16 -192.5 60.5t-122.5 113.5q-35 -68 -123 -113t-192 -61l-19 41q74 10 141.5 36.5t116.5 73t49 101.5v37h54zM729 458h133v-44h-378v-151h-53v151h-375v44h620q25 115 25 264v13h-540v45h591v-58 q0 -150 -23 -264z" />
<glyph unicode="&#xad81;" d="M710 93q0 54 -68.5 85t-184.5 31q-115 0 -183.5 -31t-68.5 -85t68 -85t184 -31t184.5 31t68.5 85zM863 408h-379v-155q133 -5 206 -46t73 -114q0 -77 -81 -118.5t-225 -41.5t-224.5 41.5t-80.5 118.5q0 73 73 114t206 46v155h-374v45h616q28 114 28 263v16h-539v45h590 v-61q0 -150 -25 -263h136v-45z" />
<glyph unicode="&#xad82;" d="M862 419h-377v-163h279v-44h-277q1 -62 51.5 -114t118 -80.5t142.5 -40.5l-20 -43q-106 19 -195 69t-124 126q-36 -76 -125 -126t-194 -69l-21 43q75 12 143 40.5t118.5 80.5t51.5 114h-278v44h277v163h-376v45h620q25 113 25 256v12h-540v44h591v-56q0 -145 -23 -256 h133v-45z" />
<glyph unicode="&#xad88;" d="M644 425l4 -40q-124 -17 -290 -24v-378h-53v375q-116 -4 -246 -4l-9 46q271 2 411 11q23 132 23 287v1h-355v45h407v-46q0 -155 -21 -284q48 3 129 11zM719 818h53v-888h-53v281h-215v44h215v563z" />
<glyph unicode="&#xad89;" d="M300 252v198q-107 -5 -243 -5l-8 47q229 0 417 9q21 104 21 228h-349v45h401v-42q0 -127 -20 -229q92 7 110 9l4 -39q-112 -14 -280 -21v-200h-53zM185 169v44h587v-279h-53v235h-534zM720 818h53v-567h-53v91h-208v43h208v433z" />
<glyph unicode="&#xad8c;" d="M513 330h206v488h53v-672h-53v140h-206v44zM312 205v211q-114 -5 -254 -5l-8 47q257 0 415 13q22 116 22 243h-357v45h409v-36q0 -134 -20 -249q49 5 110 14l4 -41q-123 -20 -269 -28v-214h-52zM240 -3h555v-45h-608v271h53v-226z" />
<glyph unicode="&#xad90;" d="M512 423h207v395h53v-508h-53v72h-207v41zM300 312v164q-110 -5 -241 -5l-8 46q256 0 414 12q20 101 22 203h-348v44h399v-17q0 -117 -19 -226q73 8 111 14l4 -40q-131 -22 -281 -28v-167h-53zM248 -14h561v-43h-613v191h525v100h-527v41h578v-181h-524v-108z" />
<glyph unicode="&#xad9c;" d="M512 404h207v414h53v-537h-53v80h-207v43zM300 283v181q-116 -4 -243 -4l-8 46q258 0 418 13q20 103 20 215h-349v45h401v-41q0 -120 -18 -215q36 3 108 13l3 -41q-114 -19 -279 -28v-184h-53zM669 249v-35q0 -69 50 -132.5t131 -91.5l-27 -40q-64 24 -110.5 69.5 t-68.5 102.5q-42 -129 -159 -180q-60 26 -101 73.5t-59 105.5q-23 -57 -69 -102t-109 -69l-28 40q81 29 131.5 92t50.5 132v35h50v-35q0 -62 35 -123t99 -96q63 36 98 97t35 122v35h51z" />
<glyph unicode="&#xad9d;" d="M512 385h207v433h53v-568h-53v93h-207v42zM300 262v185q-110 -5 -242 -5l-8 46q256 0 415 12q23 105 23 230h-349v44h400v-43q0 -126 -20 -227q42 4 111 14l4 -40q-131 -22 -281 -28v-188h-53zM494 -25q109 0 173 31t64 83t-64 82.5t-173 30.5t-173.5 -30.5t-64.5 -82.5 t64.5 -83t173.5 -31zM494 245q137 0 213.5 -40.5t76.5 -115.5t-77 -116t-213 -41q-137 0 -214 41t-77 116q0 74 77 115t214 41z" />
<glyph unicode="&#xada4;" d="M517 420l4 -39q-83 -16 -218 -25v-347h-52v344q-97 -4 -197 -4l-8 47q202 0 332 10q24 122 24 265h-309v45h359v-43q0 -144 -22 -264q37 4 87 11zM580 250v546h51v-812h-51v221h-180v45h180zM741 819h52v-889h-52v889z" />
<glyph unicode="&#xadb7;" d="M791 818v-649h-52v649h52zM406 367h173v435h51v-598h-51v121h-173v42zM261 204v218q-100 -4 -203 -4l-7 46q196 0 327 9q23 110 23 228h-300v44h349v-37q0 -127 -21 -231q51 4 100 12l5 -40q-92 -17 -221 -24v-221h-52zM515 227v-27q0 -59 49 -108.5t115.5 -77 t141.5 -39.5l-20 -42q-102 17 -189 64.5t-123 118.5q-36 -71 -123.5 -118.5t-189.5 -64.5l-21 42q76 12 143.5 39.5t116 77t48.5 108.5v27h52z" />
<glyph unicode="&#xadc0;" d="M654 409l5 -40q-126 -17 -291 -24v-361h-53v358q-120 -4 -255 -4l-9 46q271 2 410 10q29 162 29 306h-357v45h409v-28q0 -164 -27 -319q54 3 139 11zM726 818h53v-888h-53v888z" />
<glyph unicode="&#xadc1;" d="M370 421v-175h399v-320h-53v275h-535v45h136v172q-115 -5 -257 -5l-9 46q256 0 416 12q21 105 21 242v12h-349v45h401v-57q0 -137 -19 -238q78 8 116 14l4 -40q-127 -22 -271 -28zM716 818h53v-519h-53v519z" />
<glyph unicode="&#xadc4;" d="M769 818v-667h-53v667h53zM341 189v207q-119 -6 -275 -6l-9 46q259 0 418 12q22 141 22 261h-356v44h408v-22q0 -143 -20 -279q49 5 110 14l6 -40q-122 -21 -251 -27v-210h-53zM245 -3h553v-45h-606v266h53v-221z" />
<glyph unicode="&#xadc8;" d="M769 817v-468h-53v468h53zM249 -13h556v-44h-609v208h520v113h-522v44h122v141q-117 -4 -248 -4l-8 47q247 0 409 8q18 108 21 231h-349v44h399v-21q0 -131 -18 -251q59 3 116 9l4 -40q-111 -14 -274 -21v-143h401v-198h-520v-123z" />
<glyph unicode="&#xadd0;" d="M717 -11v213h-463v-213h463zM371 411v-165h398v-302h-567v302h116v162q-116 -5 -258 -5l-9 46q242 0 418 12q19 106 19 246v14h-348v45h400v-59q0 -140 -16 -241q76 8 113 14l4 -41q-126 -20 -270 -28zM716 819h53v-516h-53v516z" />
<glyph unicode="&#xadd1;" d="M318 269v170q-123 -4 -258 -4l-9 46q256 0 417 10q22 106 22 237v2h-351v45h402v-47q0 -132 -18 -234q38 3 114 11l4 -40q-120 -16 -270 -23v-173h-53zM717 -12v129h-466v-129h466zM717 161v114h52v-331h-571v331h53v-114h466zM716 818h53v-503h-53v503z" />
<glyph unicode="&#xadd3;" d="M768 818v-633h-53v633h53zM306 207v201q-115 -4 -240 -4l-9 46q254 0 412 12q21 113 21 253v5h-348v45h400v-50q0 -140 -19 -249q39 3 113 13l5 -40q-106 -19 -282 -28v-204h-53zM536 259v-48q0 -60 48 -111.5t115 -81t140 -41.5l-22 -43q-101 19 -187 68t-121 123 q-35 -74 -122 -123t-190 -68l-21 43q75 12 142.5 41.5t116 80.5t48.5 112v48h53z" />
<glyph unicode="&#xaddc;" d="M859 366v-45h-224v-390h-53v390h-249v-390h-53v390h-224v45h607q29 137 29 320v26h-529v45h581v-71q0 -183 -27 -320h142z" />
<glyph unicode="&#xade0;" d="M214 224v-227h562v-45h-615v272h53zM730 430h132v-45h-237v-228h-52v228h-196v-228h-52v228h-269v45h621q24 120 24 275v18h-540v45h592v-63q0 -157 -23 -275z" />
<glyph unicode="&#xade4;" d="M582 310v136h-246v-136h246zM863 446h-228v-136h123v-199h-549v-123h571v-44h-623v208h549v114h-551v44h129v136h-228v45h625q20 104 20 236v10h-540v45h591v-55q0 -135 -19 -236h130v-45z" />
<glyph unicode="&#xadf8;" d="M694 638v34h-547v45h600v-79q0 -237 -36 -435l-53 7q36 188 36 428zM56 114h803v-45h-803v45z" />
<glyph unicode="&#xadf9;" d="M143 197v45h618v-316h-53v271h-565zM727 436h135v-45h-805v45h616q28 122 28 278v15h-540v44h591v-59q0 -157 -25 -278z" />
<glyph unicode="&#xadfc;" d="M218 242v-244h562v-45h-615v289h53zM728 401h134v-45h-806v45h618q27 130 27 299v19h-540v45h592v-64q0 -169 -25 -299z" />
<glyph unicode="&#xadff;" d="M210 207v-218h556v-45h-609v308h604v-45h-551zM726 442h135v-45h-806v45h617q28 116 28 266v16h-539v45h591v-61q0 -152 -26 -266z" />
<glyph unicode="&#xae00;" d="M209 118v-130h571v-44h-623v217h549v122h-551v44h603v-209h-549zM731 477h131v-45h-806v45h623q22 109 22 247v11h-540v45h591v-56q0 -141 -21 -247z" />
<glyph unicode="&#xae01;" d="M199 107v-119q198 0 309 24l6 -43q-119 -25 -315 -25h-51v204h237v107h-240v43h291v-191h-237zM488 253v45h277v-361h-53v316h-224zM728 459h133v-45h-805v45h619q26 113 26 259v14h-540v45h591v-59q0 -147 -24 -259z" />
<glyph unicode="&#xae08;" d="M210 209v-220h498v220h-498zM158 -56v309h602v-309h-602zM726 435h136v-45h-806v45h617q28 118 28 271v17h-540v45h591v-62q0 -154 -26 -271z" />
<glyph unicode="&#xae09;" d="M701 -12v145h-482v-145h482zM701 177v132h52v-366h-587v366h53v-132h482zM727 447h135v-45h-805v45h616q28 116 28 267v16h-540v45h591v-61q0 -152 -25 -267z" />
<glyph unicode="&#xae0b;" d="M482 273v-48q0 -64 48 -118.5t115.5 -86.5t141.5 -45l-22 -41q-103 21 -189.5 73t-120.5 129q-35 -77 -121.5 -129t-189.5 -73l-22 41q74 13 141.5 45t116 86.5t48.5 118.5v48h54zM724 412h135v-46h-802v46h613q29 128 29 294v19h-543v45h595v-64q0 -166 -27 -294z" />
<glyph unicode="&#xae0d;" d="M458 -22q115 0 183.5 32t68.5 86q0 55 -68.5 87t-183.5 32q-116 0 -184.5 -32t-68.5 -87t68.5 -86.5t184.5 -31.5zM458 259q144 0 224.5 -42.5t80.5 -120.5q0 -77 -81 -119.5t-224 -42.5q-144 0 -225 42.5t-81 119.5q0 78 81 120.5t225 42.5zM726 428h136v-44h-806v44 h615q30 121 30 278v17h-539v45h590v-62q0 -158 -26 -278z" />
<glyph unicode="&#xae14;" d="M514 647v16h-389v45h440v-61q0 -184 -28 -331l-53 8q30 143 30 323zM70 159l-9 47q382 0 592 31l4 -42q-219 -36 -587 -36zM715 818h52v-888h-52v888z" />
<glyph unicode="&#xae30;" d="M111 720h408q0 -192 -104 -352t-313 -263l-29 44q181 88 281.5 224t111.5 302h-355v45zM726 818h53v-888h-53v888z" />
<glyph unicode="&#xae31;" d="M115 758h405q0 -162 -115 -279t-312 -172l-22 43q173 47 278 141.5t115 221.5h-349v45zM193 204v45h586v-321h-53v276h-533zM726 818h53v-524h-53v524z" />
<glyph unicode="&#xae34;" d="M779 817v-644h-53v644h53zM117 750h405q0 -165 -115 -290.5t-312 -188.5l-22 44q171 55 276.5 156.5t115.5 232.5h-348v46zM266 -3h538v-45h-591v270h53v-225z" />
<glyph unicode="&#xae37;" d="M780 818v-512h-54v512h54zM113 758h405q0 -162 -113 -278.5t-313 -170.5l-21 43q175 47 278 140t113 220h-349v46zM269 -11h529v-45h-582v312h566v-44h-513v-223z" />
<glyph unicode="&#xae38;" d="M779 818v-458h-53v458h53zM116 768h401q0 -157 -114.5 -267t-309.5 -158l-20 43q171 42 274 130t112 208h-343v44zM270 -17h544v-44h-596v217h509v114h-512v44h564v-200h-509v-131z" />
<glyph unicode="&#xae3a;" d="M115 766h403q0 -157 -114 -267t-310 -158l-22 44q172 40 275 128t113 209h-345v44zM227 107v-122q159 0 243 17l6 -44q-90 -17 -257 -17h-43v207h223v104h-225v44h275v-189h-222zM555 252v-267h176v267h-176zM507 -59v355h272v-355h-272zM725 819h54v-476h-54v476z" />
<glyph unicode="&#xae40;" d="M114 758h406q0 -162 -114.5 -278.5t-313.5 -170.5l-22 44q175 47 279.5 140.5t114.5 219.5h-350v45zM265 223v-234h462v234h-462zM213 -55v321h566v-321h-566zM726 818h53v-505h-53v505z" />
<glyph unicode="&#xae41;" d="M115 762h405q0 -160 -112.5 -271.5t-314.5 -161.5l-21 43q177 42 279.5 131.5t111.5 213.5h-348v45zM726 -12v135h-459v-135h459zM726 166v129h52v-351h-564v351h53v-129h459zM725 819h53v-485h-53v485z" />
<glyph unicode="&#xae43;" d="M776 817v-600h-53v600h53zM116 746h406q0 -163 -114.5 -285.5t-309.5 -183.5l-22 44q170 52 274.5 151t115.5 229h-350v45zM526 282v-37q0 -68 48.5 -127t116 -93.5t141.5 -49.5l-23 -41q-102 22 -189 78.5t-121 138.5q-35 -83 -122.5 -139t-191.5 -78l-22 41 q55 11 107.5 34t98.5 56t74 80t28 100v37h55z" />
<glyph unicode="&#xae45;" d="M776 817v-542h-53v542h53zM115 748h405q0 -162 -117 -283.5t-309 -180.5l-24 43q170 51 277.5 149.5t117.5 226.5h-350v45zM487 -23q110 0 176 33.5t66 90.5t-66 90.5t-176 33.5t-176 -33.5t-66 -90.5t66 -90.5t176 -33.5zM487 269q138 0 216.5 -44.5t78.5 -123.5 t-78.5 -123.5t-216.5 -44.5q-137 0 -215.5 44.5t-78.5 123.5t78.5 123.5t215.5 44.5z" />
<glyph unicode="&#xae46;" d="M778 818v-504h-54v504h54zM114 757h408q0 -161 -115 -277t-313 -169l-22 44q174 46 278 139t114 219h-350v44zM531 211v-8q0 -80 92 -144t204 -84l-21 -42q-97 19 -182 70t-119 121q-34 -70 -118 -121t-181 -70l-21 42q70 13 135 43.5t111 80t46 104.5v8h-259v44h573v-44 h-260z" />
<glyph unicode="&#xae4a;" d="M779 817v-490h-53v490h53zM116 755h408q0 -160 -115.5 -274.5t-313.5 -165.5l-22 43q174 45 278.5 136.5t114.5 215.5h-350v45zM395 228v-239h216v239h-216zM664 -11h142v-44h-604v44h140v239h-133v44h586v-44h-131v-239z" />
<glyph unicode="&#xae4c;" d="M84 720h242q0 -158 -53 -309.5t-167 -271.5l-44 30q101 102 154.5 234.5t60.5 271.5h-193v45zM354 720h213q0 -407 -205 -642l-46 29q103 112 149.5 262t51.5 306h-163v45zM892 442v-46h-143v-466h-53v889h53v-377h143z" />
<glyph unicode="&#xae4d;" d="M363 303l-38 34q177 136 192 370h-160v45h211q0 -284 -205 -449zM87 752h233q0 -127 -51.5 -222.5t-161.5 -169.5l-35 34q94 60 142 136t55 177h-182v45zM173 204v45h568v-322h-53v277h-515zM880 574v-46h-139v-236h-53v526h53v-244h139z" />
<glyph unicode="&#xae4e;" d="M364 316l-39 33q178 134 192 362h-160v45h211q0 -280 -204 -440zM87 756h233q0 -128 -51 -222.5t-160 -167.5l-37 35q93 59 141 133.5t56 176.5h-182v45zM142 210v45h280v-324h-53v279h-227zM469 210v45h272v-324h-53v279h-219zM880 581v-45h-139v-229h-53v511h53v-237 h139z" />
<glyph unicode="&#xae50;" d="M360 265l-38 35q182 145 195 396h-160v44h211q0 -301 -208 -475zM87 740h233q0 -272 -214 -429l-38 35q186 130 201 350h-182v44zM250 217v-220h528v-45h-581v265h53zM741 527h139v-45h-139v-316h-53v654h53v-293z" />
<glyph unicode="&#xae54;" d="M363 360l-39 33q92 64 137.5 143.5t53.5 184.5h-160v45h211q0 -256 -203 -406zM83 766h234q0 -119 -53 -202.5t-157 -153.5l-37 35q88 56 137.5 120t57.5 156h-182v45zM244 114v-126h534v-44h-586v212h498v116h-501v44h552v-202h-497zM741 612h139v-45h-139v-204h-53v456 h53v-207z" />
<glyph unicode="&#xae56;" d="M363 348l-39 32q178 126 192 338h-162v45h213q0 -262 -204 -415zM83 763h235q0 -119 -53.5 -204t-156.5 -155l-37 34q88 55 137.5 121t57.5 159h-183v45zM191 104v-120q159 0 243 16l6 -43q-90 -17 -257 -17h-43v205h221v105h-224v43h275v-189h-221zM520 251v-268h172 v268h-172zM472 -60v353h269v-353h-269zM880 608v-45h-139v-217h-53v472h53v-210h139z" />
<glyph unicode="&#xae5c;" d="M363 311l-39 32q178 136 193 368h-160v45h210q0 -282 -204 -445zM86 756h234q0 -129 -51 -224.5t-160 -169.5l-37 34q94 60 142 136.5t55 178.5h-183v45zM246 211v-222h442v222h-442zM194 -56v311h547v-311h-547zM880 589v-46h-139v-242h-53v517h53v-229h139z" />
<glyph unicode="&#xae5d;" d="M366 324l-40 32q177 134 191 359h-161v45h211q0 -275 -201 -436zM86 760h234q0 -127 -51 -220t-161 -166l-35 35q93 59 140.5 132t55.5 174h-183v45zM688 -13v132h-443v-132h443zM688 163v126h53v-347h-548v347h52v-126h443zM880 605v-45h-139v-223h-53v482h53v-214h139z " />
<glyph unicode="&#xae5f;" d="M363 294l-39 33q178 140 193 372h-161v45h211q0 -285 -204 -450zM86 744h233q0 -129 -50.5 -224.5t-159.5 -170.5l-37 34q183 119 197 316h-183v45zM507 270v-29q0 -42 19 -80t49.5 -67.5t71 -53t83.5 -39t86 -23.5l-23 -43q-103 23 -190 77t-122 134 q-36 -80 -123 -134.5t-189 -76.5l-23 43q54 10 107 32t99 54.5t74 78.5t28 98v29h53zM741 561h139v-45h-139v-292h-53v594h53v-257z" />
<glyph unicode="&#xae60;" d="M364 311l-40 32q179 136 193 367h-160v45h211q0 -281 -204 -444zM109 361l-36 36q183 116 197 313h-182v45h233q0 -128 -51 -224t-161 -170zM667 269v-68q0 -69 52.5 -133.5t133.5 -94.5l-27 -40q-66 25 -114 72t-71 106q-47 -132 -165 -186q-126 52 -168 183 q-24 -57 -71.5 -103.5t-110.5 -71.5l-27 40q80 32 133 97.5t53 130.5v68h50v-68q0 -65 37 -126.5t103 -95.5q64 38 102.5 101.5t38.5 120.5v68h51zM741 588h139v-46h-139v-232h-53v508h53v-230z" />
<glyph unicode="&#xae61;" d="M364 315l-39 33q178 134 192 363h-160v45h210q0 -280 -203 -441zM87 756h233q0 -129 -51 -224.5t-160 -169.5l-37 34q94 60 142 136t55 179h-182v45zM461 -23q108 0 171.5 31.5t63.5 85.5t-63.5 85.5t-171.5 31.5q-107 0 -170.5 -31.5t-63.5 -85.5t63.5 -85.5 t170.5 -31.5zM461 255q135 0 211 -42.5t76 -118.5q0 -77 -76 -119t-211 -42q-134 0 -210 42t-76 119q0 76 76 118.5t210 42.5zM741 584h139v-45h-139v-250h-53v529h53v-234z" />
<glyph unicode="&#xae65;" d="M363 355l-39 33q92 64 137.5 143.5t53.5 184.5h-160v45h211q0 -256 -203 -406zM84 761h233q0 -120 -52.5 -203t-156.5 -153l-38 35q88 56 137.5 120t57.5 156h-181v45zM249 95v-109h518v-42h-571v338h551v-43h-498v-103h486v-41h-486zM741 601h139v-46h-139v-219h-53v483 h53v-218z" />
<glyph unicode="&#xae68;" d="M80 708h197q0 -348 -166 -549l-43 27q152 178 162 478h-150v44zM308 708h176q0 -76 -4.5 -139.5t-19 -153t-50 -174t-89.5 -152.5l-44 28q154 181 161 547h-130v44zM760 819h52v-888h-52v471h-134v-424h-51v818h51v-349h134v372z" />
<glyph unicode="&#xae69;" d="M322 299l-45 30q153 141 163 380h-134v45h185q0 -289 -169 -455zM83 754h199q0 -128 -40 -223.5t-136 -174.5l-39 32q81 66 120 142.5t45 178.5h-149v45zM209 203v44h594v-317h-53v273h-541zM752 817h51v-524h-51v246h-133v-239h-51v502h51v-218h133v233z" />
<glyph unicode="&#xae6c;" d="M619 499v-314h-51v618h51v-259h133v274h51v-664h-51v345h-133zM322 281l-44 29q152 144 162 389h-133v45h183q0 -292 -168 -463zM80 744h203q0 -130 -39.5 -228.5t-135.5 -179.5l-39 31q81 67 119.5 147t44.5 185h-153v45zM281 -3h552v-45h-605v274h53v-229z" />
<glyph unicode="&#xae70;" d="M619 558v-198h-51v442h51v-199h133v215h51v-464h-51v204h-133zM321 343l-44 29q152 130 163 345h-134v45h184q0 -131 -38 -233t-131 -186zM80 762h202q0 -121 -40 -207t-133 -160l-39 33q79 59 117.5 126.5t45.5 162.5h-153v45zM282 -12h557v-44h-610v208h522v111h-524 v44h576v-197h-521v-122z" />
<glyph unicode="&#xae78;" d="M323 311l-44 29q81 75 118 166.5t43 205.5h-134v45h184q0 -135 -37.5 -245.5t-129.5 -200.5zM79 757h203q0 -127 -39 -219.5t-132 -170.5l-40 32q80 64 117.5 138.5t43.5 174.5h-153v45zM281 217v-228h471v228h-471zM229 -55v316h574v-316h-574zM752 818h51v-512h-51v230 h-133v-223h-51v489h51v-221h133v237z" />
<glyph unicode="&#xae79;" d="M326 326l-44 30q80 74 116.5 163.5t42.5 199.5h-134v45h183q0 -134 -36.5 -241.5t-127.5 -196.5zM81 764h203q0 -125 -40 -216.5t-134 -167.5l-39 31q80 64 118.5 136.5t44.5 171.5h-153v45zM751 -13v138h-467v-138h467zM751 169v121h52v-348h-571v348h52v-121h467z M752 818h51v-485h-51v214h-133v-207h-51v461h51v-209h133v226z" />
<glyph unicode="&#xae7b;" d="M619 537v-224h-51v488h51v-219h133v236h51v-580h-51v299h-133zM322 286l-44 28q152 147 162 391h-134v44h184q0 -291 -168 -463zM80 749h202q0 -128 -39 -226.5t-133 -179.5l-39 32q80 67 118 146.5t44 183.5h-153v44zM542 275v-46q0 -62 51 -118t120 -89t141 -46 l-22 -42q-102 21 -192 76t-124 133q-36 -78 -126.5 -133t-191.5 -76l-22 42q72 13 141.5 46t120.5 89t51 118v46h53z" />
<glyph unicode="&#xae7c;" d="M619 538v-231h-51v494h51v-218h133v234h51v-517h-51v238h-133zM324 314l-44 31q149 137 160 365h-134v45h184q0 -133 -37 -242t-129 -199zM80 755h203q0 -126 -39.5 -218.5t-132.5 -170.5l-39 33q79 63 117 137t44 174h-153v45zM686 263v-55q0 -70 52.5 -134.5 t134.5 -92.5l-27 -41q-66 24 -114.5 71.5t-71.5 107.5q-20 -59 -62.5 -109.5t-101.5 -76.5q-126 51 -167 182q-25 -57 -72.5 -103.5t-110.5 -71.5l-27 41q80 30 133.5 96t53.5 131v55h50v-55q0 -66 36.5 -126.5t102.5 -95.5q64 38 102 102t38 120v55h51z" />
<glyph unicode="&#xae7d;" d="M620 525v-219h-51v495h51v-231h132v247h51v-545h-51v253h-132zM322 300l-42 30q148 138 160 370h-133v45h183q0 -135 -37.5 -244.5t-130.5 -200.5zM81 745h202q0 -126 -39.5 -218.5t-132.5 -170.5l-39 33q80 63 117.5 136.5t43.5 174.5h-152v45zM517 -24q112 0 178 31.5 t66 85.5t-66.5 85.5t-177.5 31.5q-112 0 -179 -31.5t-67 -85.5t66.5 -85.5t179.5 -31.5zM517 253q140 0 218.5 -42t78.5 -118q0 -77 -78.5 -118.5t-218.5 -41.5q-141 0 -220 41.5t-79 118.5q0 76 79.5 118t219.5 42z" />
<glyph unicode="&#xae84;" d="M84 720h242q0 -158 -53 -309.5t-167 -271.5l-44 31q101 101 154.5 233.5t60.5 271.5h-193v45zM354 720h213q0 -407 -205 -642l-46 29q103 112 149.5 262t51.5 306h-163v45zM892 525h-143v-222h143v-45h-143v-327h-53v888h53v-249h143v-45z" />
<glyph unicode="&#xae85;" d="M363 303l-38 33q177 136 192 371h-160v45h211q0 -284 -205 -449zM87 752h233q0 -128 -51.5 -223.5t-161.5 -169.5l-35 35q94 61 142 136t55 177h-182v45zM173 204v45h568v-322h-53v277h-515zM879 627h-138v-140h138v-45h-138v-150h-53v526h53v-146h138v-45z" />
<glyph unicode="&#xae8c;" d="M363 360l-39 33q92 64 137.5 143.5t53.5 184.5h-160v45h211q0 -256 -203 -406zM83 766h234q0 -119 -53 -202.5t-157 -153.5l-37 35q88 56 137.5 120t57.5 156h-182v45zM244 114v-126h534v-44h-586v212h498v116h-501v44h552v-202h-497zM878 651h-137v-117h137v-45h-137 v-126h-53v456h53v-123h137v-45z" />
<glyph unicode="&#xaebc;" d="M84 720h242q0 -158 -53 -310t-167 -272l-44 31q101 101 154.5 234t60.5 272h-193v45zM725 819h53v-889h-53v484h-196q-49 -198 -168 -336l-47 29q103 112 149.5 262t51.5 306h-163v45h213q0 -139 -25 -261h185v360z" />
<glyph unicode="&#xaebd;" d="M82 753h233q0 -129 -51 -225t-161 -170l-36 35q94 61 141.5 136.5t55.5 178.5h-182v45zM192 204v45h587v-318h-53v273h-534zM726 818h53v-526h-53v241h-203q-47 -134 -167 -231l-39 33q177 136 192 373h-160v45h210q0 -91 -21 -176h188v241z" />
<glyph unicode="&#xaebe;" d="M82 756h233q0 -128 -51 -223t-160 -169l-37 35q94 60 142 135t55 177h-182v45zM170 208v45h283v-322h-53v277h-230zM501 208v45h278v-322h-53v277h-225zM726 818h53v-523h-53v236h-205q-47 -123 -164 -218l-39 33q177 138 191 365h-161v45h211q0 -98 -23 -180h190v242z " />
<glyph unicode="&#xaec0;" d="M356 267l-38 35q178 144 192 394h-159v45h210q0 -108 -26 -202h191v279h53v-654h-53v330h-206q-53 -135 -164 -227zM84 741h232q0 -269 -205 -426l-37 36q178 128 192 345h-182v45zM272 -3h530v-45h-583v259h53v-214z" />
<glyph unicode="&#xaec4;" d="M359 361l-39 33q92 64 137 144t53 184h-162v45h213q0 -93 -25 -171h189v223h53v-460h-53v192h-206q-50 -108 -160 -190zM87 767h229q0 -118 -53 -201t-156 -153l-37 35q88 55 137 118.5t57 155.5h-177v45zM268 -17h541v-45h-594v217h511v113h-513v44h565v-199h-510v-130z " />
<glyph unicode="&#xaecc;" d="M81 755h234q0 -128 -51 -224t-161 -170l-36 35q94 60 142 136t55 178h-183v45zM262 222v-233h465v233h-465zM211 -55v321h568v-321h-568zM726 817h53v-505h-53v219h-205q-49 -130 -164 -222l-39 34q178 137 191 367h-161v45h211q0 -97 -23 -179h190v241z" />
<glyph unicode="&#xaecd;" d="M86 761h230q0 -127 -51 -220t-160 -166l-36 35q93 59 140.5 132t55.5 174h-179v45zM727 -12v136h-460v-136h460zM727 167v128h52v-351h-564v351h52v-128h460zM726 819h53v-477h-53v197h-204q-48 -124 -162 -215l-39 33q175 132 189 359h-160v45h210q0 -97 -23 -177h189 v235z" />
<glyph unicode="&#xaecf;" d="M357 295l-38 33q178 138 191 372h-160v45h210q0 -105 -28 -198h194v270h53v-613h-53v298h-212q-49 -120 -157 -207zM85 745h231q0 -128 -51 -224t-161 -171l-36 36q94 60 142 136t55 178h-180v45zM525 291v-44q0 -52 28 -99t73.5 -80t98 -55.5t106.5 -33.5l-23 -43 q-101 22 -187.5 77.5t-121.5 136.5q-36 -82 -123 -138t-189 -79l-23 43q74 14 142 48.5t117 94t49 128.5v44h53z" />
<glyph unicode="&#xaed0;" d="M358 318l-38 33q175 133 189 360h-160v45h210q0 -101 -26 -185h193v246h53v-513h-53v222h-208q-50 -121 -160 -208zM82 756h233q0 -128 -51 -223t-161 -170l-36 34q94 61 142 137t55 177h-182v45zM674 277v-69q0 -70 52.5 -134t134.5 -93l-27 -41q-66 25 -114.5 72 t-71.5 107q-20 -59 -62 -109t-102 -77q-126 52 -167 184q-24 -57 -71.5 -104t-110.5 -73l-27 41q80 30 133 96t53 131v69h51v-69q0 -65 36.5 -126t101.5 -96q64 38 102 102t38 120v69h51z" />
<glyph unicode="&#xaed1;" d="M357 309l-39 34q176 135 191 367h-160v45h210q0 -106 -27 -194h194v256h53v-550h-53v249h-211q-50 -119 -158 -207zM82 755h233q0 -128 -51.5 -224t-161.5 -170l-35 35q94 62 142 137.5t55 176.5h-182v45zM489 -24q110 0 176 33t66 89q0 55 -66 88t-176 33t-175.5 -33 t-65.5 -88q0 -56 65.5 -89t175.5 -33zM489 262q136 0 215 -43.5t79 -120.5q0 -78 -78.5 -121.5t-215.5 -43.5t-215.5 43.5t-78.5 121.5q0 77 78.5 120.5t215.5 43.5z" />
<glyph unicode="&#xaed8;" d="M81 709h195q0 -351 -166 -555l-42 28q152 177 162 482h-149v45zM595 460v334h51v-815h-51v436h-148q-37 -199 -139 -327l-43 27q152 181 159 549h-117v45h163q0 -142 -15 -249h140zM756 818h51v-888h-51v888z" />
<glyph unicode="&#xaed9;" d="M315 300l-45 29q151 140 161 380h-125v45h175q0 -91 -16 -174h131v218h51v-498h-51v236h-142q-39 -136 -139 -236zM81 754h201q0 -126 -39 -222t-132 -176l-39 33q79 65 117 141.5t44 178.5h-152v45zM207 202v45h596v-317h-53v272h-543zM751 817h52v-525h-52v525z" />
<glyph unicode="&#xaedc;" d="M803 817v-664h-52v664h52zM313 274l-43 31q151 145 161 394h-125v45h175q0 -104 -18 -190h134v244h51v-622h-51v333h-146q-41 -135 -138 -235zM81 744h201q0 -130 -39 -228.5t-134 -181.5l-40 32q81 67 119.5 147.5t44.5 185.5h-152v45zM282 10h549v-45h-602v260h53v-215 z" />
<glyph unicode="&#xaee8;" d="M314 309l-43 29q150 141 160 374h-125v45h173q0 -99 -18 -181h135v222h51v-482h-51v215h-147q-40 -127 -135 -222zM81 757h200q0 -126 -39 -219t-132 -172l-38 31q79 65 117 139.5t44 175.5h-152v45zM281 217v-228h470v228h-470zM230 -55v316h572v-316h-572zM751 818h52 v-513h-52v513z" />
<glyph unicode="&#xaeeb;" d="M803 817v-598h-52v598h52zM315 287l-45 29q151 143 161 386h-125v45h175q0 -92 -16 -175h131v226h51v-499h-51v228h-143q-40 -140 -138 -240zM81 747h201q0 -127 -39 -223.5t-133 -176.5l-40 31q81 67 119 144t44 180h-152v45zM540 272v-40q0 -63 51.5 -118.5t121 -88.5 t141.5 -46l-22 -43q-102 21 -192.5 76.5t-126.5 135.5q-35 -80 -126 -135.5t-193 -76.5l-22 43q72 13 141.5 46t121 88.5t51.5 118.5v40h54z" />
<glyph unicode="&#xaeed;" d="M803 817v-545h-52v545h52zM315 299l-42 30q148 141 158 374h-124v45h174q0 -96 -17 -177h132v227h51v-492h-51v220h-144q-38 -130 -137 -227zM84 748h198q0 -126 -39 -219t-131 -171l-40 32q79 65 117 139t44 174h-149v45zM504 -24q116 0 184.5 31t68.5 85t-68.5 85 t-184.5 31t-184.5 -31t-68.5 -85t68.5 -85t184.5 -31zM504 252q144 0 225.5 -41.5t81.5 -118.5t-81 -118t-226 -41t-225.5 41t-80.5 118t80.5 118.5t225.5 41.5z" />
<glyph unicode="&#xaef4;" d="M77 720h242q0 -158 -54.5 -311t-169.5 -271l-43 31q101 101 155.5 234t62.5 271h-193v46zM495 330h230v189h-182q-17 -104 -48 -189zM725 819h53v-888h-53v354h-247q-49 -120 -126 -208l-46 28q102 113 149 264t52 305h-161v46h211q0 -85 -9 -156h177v255z" />
<glyph unicode="&#xaef8;" d="M354 268l-39 34q176 144 190 394h-155v45h206q0 -55 -7 -104h177v181h53v-658h-53v218h-204v44h204v171h-183q-40 -198 -189 -325zM84 741h232q0 -268 -205 -426l-37 36q177 127 191 345h-181v45zM272 -3h530v-45h-583v258h53v-213z" />
<glyph unicode="&#xaefc;" d="M357 361l-39 33q92 63 137 143t53 185h-161v45h211q0 -47 -6 -89h173v141h53v-460h-53v108h-194v44h194v124h-180q-38 -163 -188 -274zM87 767h229q0 -118 -53 -200.5t-156 -153.5l-37 35q88 56 137 119.5t57 154.5h-177v45zM268 -17h541v-45h-594v217h511v113h-513v44 h565v-199h-510v-130z" />
<glyph unicode="&#xaf07;" d="M357 294l-39 33q177 138 190 373h-158v45h209q0 -61 -8 -108h175v180h53v-613h-53v197h-199v45h199v146h-184q-41 -179 -185 -298zM85 745h231q0 -128 -51 -224t-161 -171l-36 36q94 60 142 136t55 178h-180v45zM525 279v-35q0 -68 49 -126t116 -91.5t141 -48.5l-22 -42 q-102 22 -188.5 77t-121.5 136q-36 -82 -123 -137.5t-190 -77.5l-22 43q74 14 142 47.5t117 92t49 127.5v35h53z" />
<glyph unicode="&#xaf08;" d="M358 317l-39 34q175 133 189 360h-159v45h209q0 -52 -7 -97h175v158h53v-513h-53v118h-194v45h194v147h-182q-38 -176 -186 -297zM82 756h233q0 -128 -51 -224t-161 -170l-36 35q94 61 142 137t55 177h-182v45zM674 277v-69q0 -70 52.5 -134t134.5 -93l-27 -41 q-66 24 -114.5 71.5t-71.5 107.5q-20 -59 -62 -109t-102 -77q-126 52 -167 184q-24 -57 -71.5 -104.5t-110.5 -72.5l-27 41q80 30 133 96t53 131v69h51v-69q0 -65 36.5 -126t101.5 -96q64 38 102 102t38 120v69h51z" />
<glyph unicode="&#xaf0d;" d="M345 326l-40 34q180 132 194 357h-150v45h201q0 -52 -7 -97h183v154h53v-490h-53v116h-197v44h197v131h-190q-39 -176 -191 -294zM84 762h231q0 -127 -50.5 -220t-159.5 -166l-36 35q93 59 140.5 132.5t55.5 173.5h-181v45zM270 -13h530v-43h-583v339h565v-43h-512v-104 h498v-42h-498v-107z" />
<glyph unicode="&#xaf10;" d="M81 709h195q0 -351 -166 -555l-42 28q152 177 162 482h-149v45zM430 339h167v184h-135q-8 -95 -32 -184zM597 568v226h51v-815h-51v315h-181q-40 -121 -108 -206l-43 27q152 181 159 549h-117v45h163q0 -72 -4 -141h131zM756 818h51v-888h-51v888z" />
<glyph unicode="&#xaf2c;" d="M710 658v18h-243v45h295v-63q0 -210 -39 -392l-53 9q40 172 40 383zM337 265l-55 9q56 202 59 402h-220v45h272v-22q0 -208 -56 -434zM503 113h356v-45h-802v45h393v299h53v-299z" />
<glyph unicode="&#xaf2d;" d="M737 472l-51 7q24 128 24 254h-238v45h289v-29q0 -146 -24 -277zM356 471l-51 8q36 128 38 254h-213v45h265v-26q0 -146 -39 -281zM146 187v45h612v-297h-53v252h-559zM502 384h357v-45h-801v45h391v193h53v-193z" />
<glyph unicode="&#xaf30;" d="M737 451l-52 6q25 136 25 268h-238v45h289v-32q0 -151 -24 -287zM356 450l-51 8q38 141 38 267h-213v45h265v-28q0 -151 -39 -292zM219 224v-227h557v-45h-610v272h53zM502 370h357v-45h-802v45h392v189h53v-189z" />
<glyph unicode="&#xaf32;" d="M737 486l-51 7q24 128 24 241h-238v45h289v-28q0 -140 -24 -265zM357 487l-53 9q37 119 39 238h-214v45h266v-27q0 -138 -38 -265zM208 261v-262q114 3 209 26l8 -45q-111 -27 -230 -27h-39v308h52zM603 -28q46 0 75.5 21.5t29.5 54.5t-29.5 54t-75.5 21q-47 0 -76.5 -21 t-29.5 -54t29.5 -54.5t76.5 -21.5zM603 162q66 0 109 -31.5t43 -82.5q0 -52 -43 -83.5t-109 -31.5q-67 0 -110 31.5t-43 83.5q0 51 43 82.5t110 31.5zM629 331v-88h171v-42h-396v42h173v88h52zM502 422h356v-45h-801v45h392v170h53v-170z" />
<glyph unicode="&#xaf34;" d="M738 514l-52 7q24 118 24 223h-238v45h289v-27q0 -130 -23 -248zM357 512l-52 10q36 111 38 222h-214v45h266v-26q0 -132 -38 -251zM212 109v-122h576v-44h-628v210h544v107h-546v44h598v-195h-544zM502 448h357v-45h-802v45h392v169h53v-169z" />
<glyph unicode="&#xaf3c;" d="M737 478l-51 7q24 128 24 249h-238v45h289v-30q0 -144 -24 -271zM356 478l-52 8q37 125 39 248h-214v45h266v-26q0 -143 -39 -275zM210 201v-212h497v212h-497zM159 -56v300h600v-300h-600zM502 402h357v-45h-802v45h392v182h53v-182z" />
<glyph unicode="&#xaf3d;" d="M737 483l-51 7q24 130 24 245h-238v44h289v-28q0 -142 -24 -268zM357 481l-52 10q36 122 38 244h-213v44h265v-25q0 -141 -38 -273zM699 -12v140h-479v-140h479zM699 172v119h53v-347h-585v347h53v-119h479zM502 416h357v-44h-801v44h391v172h53v-172z" />
<glyph unicode="&#xaf3f;" d="M737 463l-52 6q25 132 25 257h-238v45h289v-30q0 -147 -24 -278zM356 463l-51 9q36 128 38 254h-213v45h265v-26q0 -146 -39 -282zM484 273v-52q0 -63 49 -117t117 -84.5t144 -43.5l-21 -42q-104 20 -192.5 71t-123.5 128q-35 -77 -123 -128t-192 -71l-21 42 q75 13 143 43.5t117 84.5t49 117v52h54zM502 390h357v-45h-801v45h391v179h53v-179z" />
<glyph unicode="&#xaf41;" d="M737 477l-51 6q24 134 24 250h-238v45h289v-29q0 -144 -24 -272zM356 477l-51 8q36 125 38 248h-213v45h265v-26q0 -143 -39 -275zM456 -24q116 0 184 32.5t68 88.5q0 55 -68 87.5t-184 32.5q-115 0 -183 -32.5t-68 -87.5q0 -56 68 -88.5t183 -32.5zM456 261 q144 0 225 -43t81 -121t-81.5 -121.5t-224.5 -43.5t-223.5 43.5t-80.5 121.5t80.5 121t223.5 43zM502 398h357v-45h-801v45h391v182h53v-182z" />
<glyph unicode="&#xaf42;" d="M737 478l-51 6q24 129 24 250h-238v45h289v-30q0 -143 -24 -271zM356 478l-51 9q36 124 38 247h-213v45h265v-26q0 -143 -39 -275zM764 200h-276q11 -86 104.5 -146t205.5 -79l-21 -41q-104 18 -193.5 69.5t-124.5 129.5q-35 -77 -124 -128t-194 -70l-21 42 q72 12 137 39.5t115.5 76t58.5 107.5h-275v45h608v-45zM502 401h357v-44h-801v44h391v182h53v-182z" />
<glyph unicode="&#xaf43;" d="M737 489l-51 7q24 128 24 241h-238v45h289v-28q0 -140 -24 -265zM357 490l-52 9q36 120 38 238h-213v45h265v-27q0 -139 -38 -265zM750 198h-267q3 -78 98.5 -140.5t204.5 -80.5l-21 -42q-98 18 -186 68t-123 121q-35 -70 -122 -120.5t-184 -68.5l-22 42q109 18 204 80.5 t98 140.5h-266v44h266v102h53v-102h267v-44zM502 425h357v-44h-801v44h391v168h53v-168z" />
<glyph unicode="&#xaf48;" d="M511 664v4h-175v45h224v-49q0 -180 -22 -331l-49 6q22 150 22 325zM228 657v11h-151v45h201v-56q0 -179 -45 -331l-51 11q46 145 46 320zM374 455v-268q143 7 244 20l3 -40q-221 -35 -564 -35l-9 47q153 0 276 5v271h50zM883 438v-45h-153v-463h-53v889h53v-381h153z" />
<glyph unicode="&#xaf49;" d="M521 449l-51 7q28 117 28 254h-168v45h219v-44q0 -144 -28 -262zM241 450l-52 8q34 125 36 252h-145v45h195v-22q0 -145 -34 -283zM612 390l3 -40q-217 -34 -558 -34l-8 46q149 0 268 5v179h50v-177q168 10 245 21zM155 176v45h576v-283h-53v238h-523zM868 553v-46h-137 v-241h-53v552h53v-265h137z" />
<glyph unicode="&#xaf50;" d="M525 492l-51 7q24 106 24 221h-168v45h219v-39q0 -128 -24 -234zM242 491l-52 8q33 114 35 221h-145v45h195v-19q0 -132 -33 -255zM614 444l3 -39q-217 -35 -560 -35l-7 46q140 0 267 4v162h50v-159q148 7 247 21zM221 103v-116h545v-44h-598v202h510v104h-512v43h565 v-189h-510zM731 591h137v-45h-137v-211h-53v484h53v-228z" />
<glyph unicode="&#xaf5c;" d="M522 454l-51 6q27 117 27 254h-168v44h219v-43q0 -143 -27 -261zM241 455l-52 7q34 127 36 252h-145v44h195v-21q0 -145 -34 -282zM611 397l4 -39q-200 -34 -559 -34l-7 45q172 0 268 4v179h50v-177q156 9 244 22zM650 248v-42q0 -68 48 -131.5t126 -92.5l-27 -41 q-61 24 -105.5 69.5t-66.5 101.5q-19 -57 -62 -104.5t-103 -73.5q-62 25 -104 72t-62 106q-47 -122 -171 -171l-28 41q78 29 126 92.5t48 131.5v42h51v-42q0 -63 37 -124t102 -95q65 34 102.5 95t37.5 124v42h51zM731 571h137v-46h-137v-239h-53v533h53v-248z" />
<glyph unicode="&#xaf5d;" d="M521 457l-51 6q28 115 28 251h-168v44h219v-42q0 -142 -28 -259zM241 455l-52 7q34 125 36 252h-145v44h195v-21q0 -145 -34 -282zM611 400l4 -40q-199 -35 -558 -35l-8 46q172 0 268 4v178h50v-175q150 7 244 22zM455 -22q108 0 170.5 29t62.5 80t-63 80t-170 29 q-108 0 -171 -29t-63 -80t63 -80t171 -29zM455 238q134 0 209.5 -39.5t75.5 -111.5t-75.5 -112t-209.5 -40q-135 0 -210.5 40t-75.5 112t75.5 111.5t210.5 39.5zM731 566h137v-46h-137v-264h-53v563h53v-253z" />
<glyph unicode="&#xaf64;" d="M451 650v17h-152v46h200v-63q0 -168 -19 -292l-48 7q19 123 19 285zM215 355l-49 8q36 151 36 304h-128v46h176v-35q0 -168 -35 -323zM335 444v-243q131 7 204 18l5 -39q-174 -32 -485 -32l-9 47q121 0 237 4v245h48zM749 819h51v-889h-51v459h-119v-412h-51v820h51v-363 h119v385z" />
<glyph unicode="&#xaf65;" d="M479 467l-47 4q19 111 19 243h-156v45h203v-42q0 -139 -19 -250zM218 465l-47 10q29 121 31 239h-128v45h175v-19q0 -141 -31 -275zM536 393l3 -40q-184 -29 -478 -29l-8 46q122 0 235 4v188h48v-185q116 5 200 16zM202 179v45h598v-295h-53v250h-545zM748 819h52v-552 h-52v251h-116v-244h-51v528h51v-239h116v256z" />
<glyph unicode="&#xaf79;" d="M632 517v-229h-51v514h51v-240h116v257h52v-560h-52v258h-116zM479 467l-47 5q19 110 19 242h-156v45h203v-42q0 -139 -19 -250zM218 466l-47 9q29 126 31 239h-128v45h175v-18q0 -142 -31 -275zM536 397l3 -40q-183 -32 -478 -32l-8 46q127 0 235 5v186h48v-184 q116 7 200 19zM505 -24q114 0 180.5 30.5t66.5 84.5q0 53 -66.5 83.5t-180.5 30.5t-180 -30.5t-66 -83.5q0 -54 66 -84.5t180 -30.5zM505 248q142 0 221.5 -41t79.5 -116q0 -76 -79.5 -117.5t-221.5 -41.5t-221.5 41.5t-79.5 117.5q0 75 79.5 116t221.5 41z" />
<glyph unicode="&#xaf80;" d="M535 664v4h-181v45h231v-49q0 -180 -23 -332l-49 6q22 151 22 326zM250 329l-51 8q40 159 40 331h-153v45h203v-38q0 -180 -39 -346zM392 458v-272q147 7 260 23l4 -41q-226 -36 -590 -36l-8 47q183 0 284 4v275h50zM717 819h53v-889h-53v889z" />
<glyph unicode="&#xaf84;" d="M776 819v-662h-52v662h52zM569 431l-50 7q28 117 28 255h-190v45h240v-44q0 -143 -28 -263zM263 433l-50 8q35 131 37 252h-153v45h203v-22q0 -145 -37 -283zM654 371l4 -41q-238 -34 -594 -36l-6 46q144 0 284 7v181h51v-179q144 6 261 22zM259 -3h546v-45h-599v250h53 v-205z" />
<glyph unicode="&#xaf88;" d="M776 819v-492h-52v492h52zM571 492l-49 7q24 106 24 222h-190v45h239v-39q0 -129 -24 -235zM265 491l-51 8q33 115 35 222h-153v45h203v-19q0 -133 -34 -256zM652 442l5 -40q-233 -36 -592 -36l-9 46q159 0 285 5v166h50v-164q166 9 261 23zM245 -13h566v-44h-618v196 h531v103h-534v43h586v-188h-531v-110z" />
<glyph unicode="&#xaf90;" d="M569 460l-49 6q27 116 27 240h-191v45h241v-42q0 -136 -28 -249zM264 462l-50 8q34 121 36 236h-153v45h203v-20q0 -139 -36 -269zM654 403l4 -41q-238 -34 -594 -36l-6 46q144 0 284 7v174h51v-172q146 7 261 22zM258 192v-203h467v203h-467zM206 -56v292h570v-292h-570 zM724 817h52v-530h-52v530z" />
<glyph unicode="&#xaf91;" d="M569 466l-49 6q27 116 27 240h-191v45h241v-42q0 -137 -28 -249zM264 468l-50 7q34 122 36 237h-153v45h203v-20q0 -139 -36 -269zM654 415l4 -41q-236 -35 -594 -37l-6 47q144 0 284 7v172h51v-170q144 6 261 22zM724 -12v132h-471v-132h471zM724 163v114h52v-333h-576 v333h53v-114h471zM724 817h52v-508h-52v508z" />
<glyph unicode="&#xaf95;" d="M776 817v-551h-52v551h52zM569 458l-49 7q27 115 27 240h-191v44h241v-41q0 -136 -28 -250zM264 461l-50 7q34 123 36 237h-153v44h203v-20q0 -139 -36 -268zM654 401l4 -41q-238 -34 -594 -36l-6 46q144 0 284 7v175h51v-173q144 6 261 22zM491 -24q109 0 173.5 31 t64.5 85q0 53 -64.5 84.5t-173.5 31.5q-110 0 -174.5 -31.5t-64.5 -84.5q0 -54 64.5 -85t174.5 -31zM491 251q136 0 213 -42t77 -117q0 -76 -76.5 -117.5t-213.5 -41.5t-214 41.5t-77 117.5q0 75 77.5 117t213.5 42z" />
<glyph unicode="&#xaf9c;" d="M709 657v18h-268v46h320v-64q0 -209 -36 -389l-53 8q37 172 37 381zM303 269l-53 14q55 192 55 392h-196v46h248v-37q0 -207 -54 -415zM606 112h253v-45h-802v45h311v285h52v-285h134v285h52v-285z" />
<glyph unicode="&#xafb8;" d="M858 376v-45h-373v-401h-53v401h-376v45h250q47 174 49 331h-233v44h284v-12q0 -176 -44 -363h313q39 173 39 331h-240v44h292v-26q0 -173 -37 -349h129z" />
<glyph unicode="&#xafb9;" d="M863 408h-379v-178h274v-296h-53v251h-560v45h286v178h-375v45h272q33 140 38 277h-228v44h280v-11q0 -153 -38 -310h300q32 141 34 277h-221v44h272v-22q0 -152 -32 -299h130v-45z" />
<glyph unicode="&#xafbc;" d="M219 226v-229h553v-45h-606v274h53zM733 417h129v-44h-373v-230h-52v230h-381v44h271q37 162 39 298h-228v45h280v-11q0 -163 -38 -332h300q31 146 34 298h-221v45h272v-23q0 -161 -32 -320z" />
<glyph unicode="&#xafc0;" d="M863 454h-380v-132h274v-208h-547v-127h578v-44h-630v215h547v120h-550v44h276v132h-376v44h274q32 122 37 241h-228v45h280v-13q0 -139 -34 -273h298q30 122 32 241h-221v45h272v-21q0 -135 -29 -265h127v-44z" />
<glyph unicode="&#xafc7;" d="M196 103v-115q178 0 265 17l7 -43q-99 -18 -277 -18h-46v200h222v104h-224v42h275v-187h-222zM635 -28q44 0 70.5 21t26.5 56t-26.5 56t-70.5 21t-71 -21t-27 -56t27 -56t71 -21zM635 165q63 0 103.5 -31.5t40.5 -84.5t-40.5 -84.5t-103.5 -31.5q-64 0 -104.5 31.5 t-40.5 84.5t40.5 84.5t104.5 31.5zM660 334v-89h160v-43h-369v43h157v89h52zM735 492h126v-45h-379v-143h-53v143h-373v45h274q31 124 36 244h-228v45h280v-13q0 -140 -34 -276h299q29 123 31 244h-221v45h272v-20q0 -138 -30 -269z" />
<glyph unicode="&#xafc8;" d="M707 -11v215h-497v-215h497zM863 419h-379v-172h275v-302h-600v302h272v172h-376v44h275q32 134 37 266h-229v45h280v-11q0 -149 -34 -300h298q29 131 32 266h-221v45h272v-23q0 -147 -29 -288h127v-44z" />
<glyph unicode="&#xafc9;" d="M700 -12v139h-482v-139h482zM700 171v127h53v-355h-587v355h52v-127h482zM737 475h125v-46h-379v-182h-53v182h-373v46h274q31 131 36 259h-229v45h280v-11q0 -145 -33 -293h298q29 132 31 259h-221v45h272v-22q0 -144 -28 -282z" />
<glyph unicode="&#xafcb;" d="M484 221v-42q0 -53 49 -98t117.5 -70.5t143.5 -33.5l-21 -43q-105 15 -193.5 58.5t-123.5 111.5q-35 -68 -123 -111.5t-193 -58.5l-21 43q74 8 142.5 33.5t118 70.5t49.5 98v42h55zM734 453h128v-45h-379v-149h-52v149h-374v45h272q33 139 38 275h-229v45h280v-11 q0 -153 -36 -309h298q32 139 34 275h-221v45h272v-23q0 -151 -31 -297z" />
<glyph unicode="&#xafcd;" d="M707 100q0 55 -68 88t-183 33q-114 0 -182 -33t-68 -88t68 -87.5t182 -32.5q115 0 183 32.5t68 87.5zM863 409h-379v-145q131 -5 203.5 -47.5t72.5 -116.5q0 -78 -81 -121t-223 -43t-222.5 43t-80.5 121q0 74 73.5 116.5t204.5 47.5v145h-375v45h274q32 137 37 271h-228 v45h279v-11q0 -151 -35 -305h298q30 132 33 271h-221v45h272v-23q0 -150 -30 -293h128v-45z" />
<glyph unicode="&#xafce;" d="M862 411h-377v-157h278v-45h-275q4 -46 34 -86t75.5 -68t97 -47t103.5 -28l-24 -42q-65 12 -125 37t-113 67.5t-77 95.5q-35 -78 -123.5 -129t-191.5 -69l-24 41q114 19 208 80t103 148h-276v45h278v157h-377v45h274q32 139 37 272h-229v44h280v-11q0 -150 -35 -305h299 q29 132 32 272h-221v44h272v-22q0 -150 -30 -294h127v-45z" />
<glyph unicode="&#xafd4;" d="M650 424l4 -42q-134 -16 -281 -24v-379h-53v378q-118 -5 -267 -5l-9 47q58 0 194 2q35 146 35 297h-168v45h219v-37q0 -160 -32 -305q103 3 206 9q31 134 31 287v1h-159v45h210v-46q0 -153 -28 -283q61 5 98 10zM719 818h53v-888h-53v280h-216v44h216v564z" />
<glyph unicode="&#xafdc;" d="M512 423h206v395h53v-502h-53v65h-206v42zM300 318v158q-115 -4 -241 -4l-8 46q123 0 190 2q27 111 29 208h-156v44h207v-18q0 -121 -27 -233q134 4 197 8q24 98 26 199h-152v44h203v-25q0 -114 -24 -215q30 2 86 8l4 -40q-123 -14 -281 -22v-160h-53zM247 -14h560v-43 h-612v193h524v102h-527v42h579v-185h-524v-109z" />
<glyph unicode="&#xafe8;" d="M513 388h206v431h53v-558h-53v85h-206v42zM300 271v174q-116 -4 -241 -4l-8 45q121 0 188 2q29 116 31 228h-156v45h207v-20q0 -130 -28 -251q117 4 197 11q27 116 27 215h-152v45h203v-27q0 -121 -24 -228q15 2 44 5.5t42 4.5l4 -39q-115 -20 -281 -29v-177h-53z M677 237v-30q0 -71 52.5 -134t134.5 -91l-27 -41q-66 24 -114 70t-71 105q-43 -130 -165 -182q-61 25 -103 73t-62 107q-24 -58 -72 -103.5t-113 -69.5l-26 41q82 28 134 91.5t52 133.5v30h51v-30q0 -63 37 -124.5t102 -96.5q66 35 102.5 97t36.5 124v30h51z" />
<glyph unicode="&#xafe9;" d="M513 385h205v434h53v-569h-53v92h-205v43zM300 261v183q-116 -4 -241 -4l-8 45q120 0 187 2q30 117 32 233h-156v45h207v-20q0 -133 -29 -256q115 4 196 11q29 118 29 220h-152v45h203v-27q0 -124 -25 -233q15 2 44 5.5t42 4.5l5 -39q-126 -21 -281 -29v-186h-53z M486 -24q109 0 173 30t64 82t-64 81.5t-173 29.5t-173 -29.5t-64 -81.5t64 -82t173 -30zM486 242q137 0 213.5 -40t76.5 -114t-76.5 -114.5t-213.5 -40.5q-136 0 -213 40.5t-77 114.5t77 114t213 40z" />
<glyph unicode="&#xaff0;" d="M539 424l4 -39q-83 -14 -232 -25v-354h-52v351q-109 -7 -214 -7l-8 46q63 0 137 3q35 136 35 276h-133v45h182v-35q0 -150 -31 -285q120 6 169 10q31 126 31 265h-134v45h182v-42q0 -144 -27 -264q58 5 91 10zM583 259v536h51v-810h-51v230h-176v44h176zM741 818h52v-887 h-52v887z" />
<glyph unicode="&#xaff1;" d="M416 381h171v422h51v-547h-51v83h-171v42zM271 260v178q-107 -4 -215 -4l-8 46q91 0 144 1q27 113 29 224h-130v44h177v-20q0 -128 -27 -247q98 3 175 10q24 101 24 213h-131v44h178v-40q0 -120 -20 -213q71 9 74 9l5 -39q-88 -16 -223 -25v-181h-52zM186 168v45h605 v-279h-53v234h-552zM739 818h52v-565h-52v565z" />
<glyph unicode="&#xaff4;" d="M791 819v-677h-52v677h52zM416 338h171v465h51v-641h-51v133h-171v43zM271 239v173q-80 -4 -215 -4l-8 45q90 0 143 1q28 122 30 242h-130v44h177v-18q0 -137 -28 -267q99 3 175 10q25 110 25 231h-131v44h178v-40q0 -127 -23 -231q45 5 77 9l5 -38q-88 -16 -223 -25 v-176h-52zM253 -3h570v-45h-623v254h53v-209z" />
<glyph unicode="&#xaff8;" d="M791 818v-505h-52v505h52zM416 426h171v377h51v-482h-51v63h-171v42zM271 312v160q-99 -5 -215 -5l-8 46q92 0 145 1q26 103 28 203h-130v45h177v-19q0 -119 -27 -228q89 3 175 9q24 93 24 193h-131v45h178v-38q0 -109 -21 -195q50 4 75 8l5 -38q-80 -15 -223 -24v-163 h-52zM256 -14h565v-43h-617v193h535v99h-538v42h590v-182h-535v-109z" />
<glyph unicode="&#xb000;" d="M416 385h171v418h51v-526h-51v66h-171v42zM271 269v174q-100 -5 -215 -5l-8 46q91 0 144 1q27 114 29 225h-130v45h178v-20q0 -129 -27 -249q99 3 175 10q23 102 23 214h-131v45h178v-40q0 -119 -19 -214q30 2 73 8l5 -39q-105 -18 -223 -24v-177h-52zM251 185v-196h488 v196h-488zM199 -56v285h592v-285h-592zM739 818h52v-551h-52v551z" />
<glyph unicode="&#xb001;" d="M416 407h171v396h51v-508h-51v70h-171v42zM271 288v163q-107 -4 -215 -4l-8 46q91 0 144 1q27 113 29 221h-130v44h178v-20q0 -126 -26 -244q98 3 174 10q23 100 23 210h-131v44h178v-40q0 -118 -20 -210q50 6 74 9l5 -39q-100 -17 -223 -25v-166h-52zM738 -12v119h-485 v-119h485zM738 150v103h53v-309h-591v309h53v-103h485zM739 819h52v-527h-52v527z" />
<glyph unicode="&#xb004;" d="M791 818v-551h-52v551h52zM416 385h171v418h51v-526h-51v66h-171v42zM271 269v174q-100 -5 -215 -5l-8 46q91 0 144 1q27 114 29 225h-130v45h178v-20q0 -129 -27 -249q99 3 175 10q23 102 23 214h-131v45h178v-40q0 -119 -19 -214q30 2 73 8l5 -39q-105 -18 -223 -24 v-177h-52zM678 234v-30q0 -70 52 -133t135 -90l-26 -41q-66 23 -114.5 69t-71.5 104q-20 -59 -62.5 -107.5t-102.5 -72.5q-60 24 -102.5 72t-62.5 107q-24 -57 -72 -102.5t-113 -69.5l-26 41q82 28 134.5 91t52.5 132v30h50v-30q0 -62 37 -123t102 -95q65 34 102 95t37 123 v30h51z" />
<glyph unicode="&#xb00c;" d="M657 417l5 -40q-103 -14 -280 -25v-370h-52v368q-146 -6 -274 -6l-8 48q60 0 198 2q36 149 36 301h-168v46h220v-38q0 -162 -34 -307q104 3 207 9q32 135 32 290h-160v46h211v-46q0 -155 -28 -287q64 6 95 9zM725 820h53v-889h-53v889z" />
<glyph unicode="&#xb010;" d="M777 817v-666h-53v666h53zM335 191v197q-121 -5 -269 -5l-10 46q125 0 193 2q32 135 34 269h-163v45h214v-23q0 -149 -32 -291q90 3 201 11q30 130 30 258h-160v45h210v-33q0 -139 -27 -264q61 5 97 11l6 -40q-123 -21 -272 -29v-199h-52zM233 -3h575v-45h-628v270h53 v-225z" />
<glyph unicode="&#xb014;" d="M777 818v-462h-53v462h53zM248 -11h567v-44h-619v213h528v112h-531v44h136v133q-125 -4 -263 -4l-8 45q57 0 195 2q28 118 30 232h-163v44h214v-20q0 -133 -27 -255q134 4 197 8q28 115 28 223h-159v44h211v-27q0 -126 -25 -238q16 2 46 4.5t46 3.5l4 -39 q-129 -15 -274 -21v-135h396v-197h-529v-128z" />
<glyph unicode="&#xb01c;" d="M724 -8v206h-475v-206h475zM382 416v-173h395v-296h-581v296h133v170q-117 -5 -263 -5l-8 46q56 0 194 2q29 128 31 251h-162v45h213v-22q0 -140 -29 -272q91 3 200 11q28 123 28 238h-161v45h212v-31q0 -131 -25 -247q14 2 46 5.5t49 5.5l4 -40q-107 -18 -276 -29z M725 818h53v-532h-53v532z" />
<glyph unicode="&#xb01d;" d="M336 260v171q-120 -5 -270 -5l-8 47q125 0 194 1q29 122 31 241h-162v45h213v-22q0 -136 -29 -264q134 4 199 8q29 120 29 233h-160v45h211v-30q0 -130 -26 -244q30 2 96 8l4 -42q-114 -13 -269 -20v-172h-53zM725 -11v125h-477v-125h477zM725 157v118h53v-331h-583v331 h53v-118h477zM725 818h53v-504h-53v504z" />
<glyph unicode="&#xb028;" d="M858 379v-45h-216v-401h-53v401h-260v-401h-53v401h-220v45h249q48 176 50 328h-234v44h285v-12q0 -174 -44 -360h313q39 170 39 328h-240v44h292v-25q0 -173 -37 -347h129z" />
<glyph unicode="&#xb044;" d="M710 640v23h-231v45h283v-68q0 -225 -40 -419l-54 6q42 186 42 413zM353 221l-55 8q58 218 61 434h-238v45h289v-24q0 -221 -57 -463zM56 114h803v-45h-803v45z" />
<glyph unicode="&#xb045;" d="M143 213v44h617v-323h-53v279h-564zM726 440h137v-45h-807v45h269q34 142 39 282h-232v45h283v-11q0 -156 -37 -316h295q30 137 33 282h-225v45h277v-23q0 -156 -32 -304z" />
<glyph unicode="&#xb048;" d="M217 246v-240h561v-45h-614v285h53zM725 400h138v-45h-808v45h268q36 154 41 308h-233v45h284v-10q0 -165 -38 -343h295q32 155 35 308h-226v45h277v-20q0 -167 -33 -333z" />
<glyph unicode="&#xb04a;" d="M208 273v-274q115 3 209 26l8 -44q-108 -27 -230 -27h-39v319h52zM604 -28q48 0 77 22t29 58t-29 58.5t-77 22.5t-76.5 -22.5t-28.5 -58.5t28.5 -58t76.5 -22zM604 173q68 0 110.5 -32.5t42.5 -88.5q0 -55 -42.5 -87.5t-110.5 -32.5t-110 32.5t-42 87.5q0 56 42 88.5 t110 32.5zM630 349v-88h170v-42h-396v42h174v88h52zM728 448h135v-45h-808v45h270q37 147 39 278h-233v45h284v-14q0 -154 -35 -309h294q33 148 33 278h-226v45h278v-27q0 -152 -31 -296z" />
<glyph unicode="&#xb04c;" d="M210 122v-133h578v-44h-630v220h547v120h-550v44h602v-207h-547zM729 486h134v-45h-808v45h271q35 131 37 249h-233v44h284v-12q0 -142 -34 -281h295q29 125 31 249h-227v44h278v-20q0 -140 -28 -273z" />
<glyph unicode="&#xb04e;" d="M196 114v-127q164 0 256 17l5 -43q-90 -17 -267 -17h-44v211h228v108h-231v43h281v-192h-228zM535 264v-278h185v278h-185zM487 -56v362h281v-362h-281zM727 457h136v-45h-807v45h269q37 144 39 274h-233v44h284v-13q0 -153 -37 -305h295q32 138 34 274h-227v44h278v-21 q0 -151 -31 -297z" />
<glyph unicode="&#xb053;" d="M196 118v-130q172 0 265 17l7 -43q-99 -18 -277 -18h-46v215h222v116h-224v43h275v-200h-222zM635 -27q45 0 71.5 23t26.5 61q0 37 -26.5 60t-71.5 23t-72 -23t-27 -60q0 -38 27 -61t72 -23zM635 180q64 0 104.5 -33.5t40.5 -89.5q0 -57 -40.5 -90.5t-104.5 -33.5 q-65 0 -105.5 33.5t-40.5 90.5q0 56 40.5 89.5t105.5 33.5zM660 361v-94h160v-43h-368v43h156v94h52zM730 465h133v-44h-807v44h272q37 142 39 269h-234v45h285v-14q0 -150 -37 -300h295q32 136 34 269h-227v45h278v-22q0 -149 -31 -292z" />
<glyph unicode="&#xb054;" d="M210 215v-225h498v225h-498zM158 -54v312h602v-312h-602zM727 450h136v-45h-808v45h270q34 141 39 280h-233v45h284v-11q0 -156 -37 -314h295q30 135 33 280h-225v45h277v-23q0 -154 -31 -302z" />
<glyph unicode="&#xb055;" d="M700 -11v152h-481v-152h481zM700 185v138h53v-379h-587v379h53v-138h481zM727 462h136v-44h-807v44h269q34 137 39 273h-233v45h284v-12q0 -152 -37 -306h295q30 132 33 273h-225v45h277v-23q0 -151 -31 -295z" />
<glyph unicode="&#xb057;" d="M484 274v-52q0 -64 49 -117.5t117 -84t144 -43.5l-22 -43q-104 20 -192 71.5t-123 127.5q-35 -76 -123 -127.5t-192 -71.5l-21 43q75 13 143 43.5t117 84t49 117.5v52h54zM727 425h136v-45h-807v45h268q35 150 40 301h-232v44h283v-9q0 -163 -38 -336h296q31 152 34 301 h-226v44h277v-20q0 -163 -31 -325z" />
<glyph unicode="&#xb059;" d="M456 -24q114 0 183 34.5t69 92.5t-68.5 92t-183.5 34q-113 0 -182 -34t-69 -92t69 -92.5t182 -34.5zM456 274q143 0 224.5 -45t81.5 -126t-81.5 -126t-224.5 -45q-142 0 -223 45t-81 126t81 126t223 45zM726 436h137v-45h-807v45h268q38 156 40 289h-232v45h283v-12 q0 -159 -38 -322h295q31 140 34 289h-225v45h277v-23q0 -158 -32 -311z" />
<glyph unicode="&#xb05d;" d="M212 107v-120h555v-43h-608v364h603v-43h-550v-115h526v-43h-526zM727 467h136v-45h-808v45h271q33 136 38 269h-233v45h284v-11q0 -149 -37 -303h296q29 131 32 269h-225v45h277v-24q0 -149 -31 -290z" />
<glyph unicode="&#xb07c;" d="M86 720h243q0 -157 -55 -310.5t-171 -272.5l-43 31q102 102 157 235t62 272h-193v45zM357 720h219q0 -407 -206 -643l-46 28q103 113 150 264t52 306h-169v45zM725 819h53v-888h-53v888z" />
<glyph unicode="&#xb07d;" d="M377 309l-40 33q175 135 189 365h-169v45h220q0 -279 -200 -443zM89 752h233q0 -127 -51 -222.5t-160 -169.5l-37 35q94 60 142 135.5t55 176.5h-182v45zM192 204v45h587v-318h-53v273h-534zM726 818h53v-526h-53v526z" />
<glyph unicode="&#xb080;" d="M779 818v-645h-53v645h53zM375 270l-38 34q176 143 190 392h-169v44h220q0 -298 -203 -470zM87 740h234q0 -268 -204 -424l-37 35q176 127 190 345h-183v44zM264 -3h541v-45h-594v265h53v-220z" />
<glyph unicode="&#xb084;" d="M778 819v-456h-53v456h53zM373 360l-40 33q92 65 137.5 144t53.5 184h-168v45h219q0 -129 -48.5 -228.5t-153.5 -177.5zM86 766h234q0 -119 -53.5 -202.5t-156.5 -154.5l-37 36q89 56 138 120t57 156h-182v45zM268 -12h549v-44h-601v213h511v115h-513v44h565v-202h-511 v-126z" />
<glyph unicode="&#xb08c;" d="M374 313l-38 32q176 136 190 366h-169v45h220q0 -281 -203 -443zM88 756h233q0 -128 -51.5 -223.5t-161.5 -169.5l-34 34q93 61 141 137t55 177h-182v45zM262 211v-222h464v222h-464zM210 -56v311h568v-311h-568zM725 817h53v-517h-53v517z" />
<glyph unicode="&#xb08d;" d="M377 323l-40 33q175 133 189 360h-168v45h220q0 -279 -201 -438zM89 761h234q0 -128 -51 -221.5t-160 -166.5l-37 36q94 59 141.5 132.5t55.5 174.5h-183v45zM726 -13v133h-460v-133h460zM726 164v126h52v-348h-564v348h52v-126h460zM725 819h53v-480h-53v480z" />
<glyph unicode="&#xb08f;" d="M778 817v-605h-53v605h53zM376 294l-40 32q175 136 190 373h-168v45h219q0 -284 -201 -450zM89 744h233q0 -129 -51 -225t-161 -170l-36 35q94 61 142 137t55 178h-182v45zM529 270v-39q0 -67 49.5 -123.5t117.5 -89t143 -45.5l-23 -42q-67 14 -127 40t-112 70.5 t-75 99.5q-34 -80 -122 -134t-192 -76l-22 42q75 13 143 45.5t117 89t49 123.5v39h54z" />
<glyph unicode="&#xb091;" d="M779 817v-535h-53v535h53zM377 310l-40 34q177 136 190 367h-168v45h219q0 -280 -201 -446zM88 756h233q0 -128 -51.5 -224t-161.5 -170l-35 34q94 61 142.5 137t55.5 178h-183v45zM487 -27q113 0 180 32.5t67 87.5q0 56 -67 89t-180 33q-112 0 -179 -33t-67 -89 q0 -55 67 -87.5t179 -32.5zM487 258q140 0 220 -43.5t80 -121.5t-80 -121t-220 -43t-219.5 43t-79.5 121t79.5 121.5t219.5 43.5z" />
<glyph unicode="&#xb098;" d="M150 206h14q217 0 416 40l8 -45q-210 -41 -424 -41h-67v572h53v-526zM886 454v-46h-154v-478h-53v889h53v-365h154z" />
<glyph unicode="&#xb099;" d="M584 471l8 -46q-204 -41 -421 -41h-66v383h52v-337h14q217 0 413 41zM174 210v45h567v-324h-53v279h-514zM880 591v-46h-139v-235h-53v509h53v-228h139z" />
<glyph unicode="&#xb09a;" d="M583 483l8 -46q-204 -41 -420 -41h-66v372h52v-326h14q216 0 412 41zM153 222v45h273v-337h-53v292h-220zM472 222v45h269v-337h-53v292h-216zM880 596v-46h-139v-229h-53v498h53v-223h139z" />
<glyph unicode="&#xb09c;" d="M585 431l7 -46q-202 -41 -421 -41h-66v407h52v-361h14q217 0 414 41zM256 238v-241h518v-45h-571v286h53zM741 547h139v-46h-139v-327h-53v644h53v-271z" />
<glyph unicode="&#xb09f;" d="M584 482l8 -45q-204 -41 -421 -41h-66v375h52v-329h14q214 0 413 40zM245 218v-228h508v-45h-561v318h551v-45h-498zM741 601h139v-46h-139v-233h-53v496h53v-217z" />
<glyph unicode="&#xb0a0;" d="M584 505l8 -45q-210 -41 -421 -41h-66v361h52v-315h14q214 0 413 40zM245 118v-129h532v-45h-585v216h496v114h-498v45h551v-201h-496zM741 623h139v-45h-139v-213h-53v453h53v-195z" />
<glyph unicode="&#xb0a1;" d="M584 500l8 -46q-210 -41 -421 -41h-66v367h52v-320h14q221 0 413 40zM206 107v-119q179 0 291 20l5 -43q-114 -21 -299 -21h-49v204h231v108h-233v43h284v-192h-230zM475 255v44h266v-362h-53v318h-213zM880 611v-45h-139v-213h-53v464h53v-206h139z" />
<glyph unicode="&#xb0a2;" d="M584 501l8 -46q-204 -41 -421 -41h-66v366h52v-319h14q221 0 413 40zM192 111v-123q158 0 242 17l6 -43q-94 -18 -256 -18h-43v208h220v111h-223v43h274v-195h-220zM520 264v-278h172v278h-172zM472 -56v362h269v-362h-269zM880 614v-46h-139v-215h-53v465h53v-204h139z " />
<glyph unicode="&#xb0a8;" d="M584 482l8 -45q-210 -41 -421 -41h-66v376h52v-330h14q216 0 413 40zM243 218v-229h446v229h-446zM192 -55v317h549v-317h-549zM880 604v-45h-139v-244h-53v502h53v-213h139z" />
<glyph unicode="&#xb0a9;" d="M584 497l8 -46q-209 -42 -421 -42h-66v367h52v-320h14q223 0 413 41zM688 -11v138h-443v-138h443zM688 173v135h53v-365h-549v365h53v-135h443zM880 610v-45h-139v-207h-53v459h53v-207h139z" />
<glyph unicode="&#xb0ab;" d="M584 457l8 -45q-204 -41 -421 -41h-66v387h52v-341h14q216 0 413 40zM507 292v-46q0 -68 49 -126t116 -92t141 -49l-22 -42q-102 22 -188.5 77t-121.5 136q-36 -82 -123 -137.5t-189 -77.5l-23 41q55 11 107.5 34t98.5 56t74 80t28 100v46h53zM741 565h139v-45h-139v-286 h-53v585h53v-254z" />
<glyph unicode="&#xb0ac;" d="M584 468l8 -45q-210 -41 -421 -41h-66v378h52v-332h14q216 0 413 40zM667 280v-77q0 -69 52.5 -133.5t133.5 -92.5l-27 -42q-66 25 -114 72.5t-71 106.5q-20 -59 -62.5 -109t-102.5 -76q-126 51 -167 183q-23 -57 -70.5 -104t-110.5 -73l-28 42q80 29 133.5 95t53.5 131 v77h50v-77q0 -65 36.5 -126t102.5 -96q64 38 102 102t38 120v77h51zM741 596h139v-46h-139v-231h-53v499h53v-222z" />
<glyph unicode="&#xb0ad;" d="M584 466l8 -45q-204 -41 -421 -41h-66v382h52v-336h14q216 0 413 40zM461 -24q105 0 170 35t65 91t-65 91t-170 35t-170 -35t-65 -91t65 -91t170 -35zM461 272q132 0 209.5 -45.5t77.5 -124.5t-77.5 -124.5t-209.5 -45.5t-209.5 45.5t-77.5 124.5t77.5 124.5t209.5 45.5z M741 588h139v-46h-139v-258h-53v534h53v-230z" />
<glyph unicode="&#xb0ae;" d="M584 478l8 -45q-204 -41 -421 -41h-66v375h52v-329h14q216 0 413 40zM499 212v-5q0 -80 91 -145t200 -87l-22 -42q-95 20 -179 72t-117 122q-33 -70 -117 -122t-179 -72l-22 42q110 22 200 86.5t90 145.5v5h-259v44h573v-44h-259zM741 588h139v-46h-139v-235h-53v513h53 v-232z" />
<glyph unicode="&#xb0af;" d="M584 497l8 -45q-210 -41 -421 -41h-66v365h52v-318h14q219 0 413 39zM763 200h-266q3 -78 94.5 -141.5t198.5 -83.5l-21 -41q-96 19 -180.5 70t-118.5 120q-34 -69 -118.5 -120t-180.5 -70l-22 41q107 20 199 84t95 141h-266v45h266v107h53v-107h267v-45zM741 601h139 v-46h-139v-227h-53v490h53v-217z" />
<glyph unicode="&#xb0b1;" d="M584 493l8 -45q-204 -41 -421 -41h-66v364h52v-318h14q214 0 413 40zM248 101v-114h519v-43h-572v351h551v-43h-498v-109h487v-42h-487zM741 606h139v-45h-139v-219h-53v476h53v-212z" />
<glyph unicode="&#xb0b3;" d="M584 516l8 -45q-210 -41 -421 -41h-66v349h52v-303h14q214 0 413 40zM478 -26q87 0 139 24t52 65t-52 65t-139 24t-139 -24t-52 -65t52 -65t139 -24zM478 193q115 0 179.5 -34t64.5 -96t-64.5 -96t-179.5 -34t-179.5 34t-64.5 96t64.5 96t179.5 34zM505 382v-97h281v-44 h-615v44h281v97h53zM741 625h139v-45h-139v-225h-53v463h53v-193z" />
<glyph unicode="&#xb0b4;" d="M159 706v-490q174 0 318 30l7 -47q-155 -31 -325 -31h-53v538h53zM754 819h51v-889h-51v469h-154v-421h-51v819h51v-351h154v373z" />
<glyph unicode="&#xb0b5;" d="M476 465l8 -46q-153 -30 -325 -30h-53v367h53v-321q177 0 317 30zM215 203v45h585v-318h-53v273h-532zM749 817h51v-523h-51v246h-150v-239h-51v500h51v-216h150v232z" />
<glyph unicode="&#xb0b8;" d="M599 508v-319h-51v612h51v-248h150v264h51v-661h-51v352h-150zM477 427l7 -46q-146 -28 -325 -28h-53v388h53v-343q173 0 318 29zM284 10h546v-45h-599v287h53v-242z" />
<glyph unicode="&#xb0bc;" d="M599 567v-203h-51v437h51v-189h150v206h51v-459h-51v208h-150zM478 495l6 -46q-152 -28 -325 -28h-53v345h53v-299q179 0 319 28zM280 -12h557v-44h-609v212h520v112h-522v44h574v-198h-520v-126z" />
<glyph unicode="&#xb0c4;" d="M477 456l7 -46q-152 -28 -325 -28h-53v379h53v-333q172 0 318 28zM280 218v-229h469v229h-469zM228 -56v318h572v-318h-572zM749 817h51v-509h-51v228h-151v-222h-51v487h51v-220h151v236z" />
<glyph unicode="&#xb0c5;" d="M478 473l7 -45q-146 -28 -326 -28h-53v359h53v-313q177 0 319 27zM749 -10v135h-466v-135h466zM749 169v122h51v-347h-570v347h53v-122h466zM749 818h51v-484h-51v213h-150v-206h-51v460h51v-209h150v226z" />
<glyph unicode="&#xb0c7;" d="M599 528v-221h-51v495h51v-229h150v245h51v-586h-51v296h-150zM475 438l8 -46q-149 -37 -324 -37h-53v382h53v-337q179 0 316 38zM539 268v-40q0 -62 51 -117t120 -88t141 -46l-22 -43q-65 13 -126 40t-114 71.5t-76 97.5q-36 -79 -125.5 -133.5t-191.5 -75.5l-22 43 q72 13 141 46t120 88t51 117v40h53z" />
<glyph unicode="&#xb0c8;" d="M599 541v-227h-51v487h51v-215h150v231h51v-512h-51v236h-150zM477 446l7 -46q-150 -29 -325 -29h-53v373h53v-326q178 0 318 28zM685 277v-70q0 -69 52.5 -133.5t133.5 -93.5l-27 -41q-65 24 -113.5 71.5t-71.5 106.5q-20 -58 -62.5 -108t-102.5 -77q-126 52 -167 184 q-24 -58 -71.5 -105t-110.5 -72l-27 41q80 30 133 95.5t53 131.5v70h51v-70q0 -66 36 -126.5t102 -95.5q65 38 103 102t38 120v70h51z" />
<glyph unicode="&#xb0c9;" d="M599 531v-222h-51v492h51v-225h150v241h51v-541h-51v255h-150zM478 445l7 -46q-152 -28 -326 -28h-53v375h53v-329q173 0 319 28zM514 -23q109 0 174 32t65 86q0 55 -65 87.5t-174 32.5t-174 -32.5t-65 -87.5q0 -54 65 -86t174 -32zM514 258q136 0 213.5 -43t77.5 -120 t-77.5 -119.5t-213.5 -42.5t-213.5 42.5t-77.5 119.5t77.5 120t213.5 43z" />
<glyph unicode="&#xb0d0;" d="M150 206h14q217 0 416 40l8 -46q-210 -41 -424 -41h-67v572h53v-525zM883 539h-151v-221h151v-45h-151v-343h-53v888h53v-233h151v-46z" />
<glyph unicode="&#xb0d1;" d="M584 471l8 -46q-204 -41 -421 -41h-66v382h52v-336h14q217 0 413 41zM174 210v45h567v-324h-53v279h-514zM879 635h-138v-142h138v-45h-138v-138h-53v508h53v-138h138v-45z" />
<glyph unicode="&#xb0d4;" d="M585 430l7 -45q-202 -41 -421 -41h-66v406h52v-360h14q215 0 414 40zM256 238v-241h518v-45h-571v286h53zM879 602h-138v-174h138v-45h-138v-209h-53v643h53v-169h138v-46z" />
<glyph unicode="&#xb0d8;" d="M584 505l8 -45q-210 -41 -421 -41h-66v361h52v-315h14q214 0 413 40zM245 118v-129h532v-45h-585v216h496v114h-498v45h551v-201h-496zM879 654h-138v-120h138v-45h-138v-124h-53v453h53v-120h138v-44z" />
<glyph unicode="&#xb0e0;" d="M584 483l8 -46q-210 -41 -421 -41h-66v376h52v-330h14q217 0 413 41zM243 218v-229h446v229h-446zM192 -55v317h549v-317h-549zM880 637h-139v-139h139v-45h-139v-138h-53v502h53v-135h139v-45z" />
<glyph unicode="&#xb0e5;" d="M584 466l7 -45q-202 -41 -420 -41h-66v381h52v-335h14q222 0 413 40zM461 -24q105 0 170 35t65 91t-65 91t-170 35t-170 -35t-65 -91t65 -91t170 -35zM461 272q132 0 209.5 -45.5t77.5 -124.5t-77.5 -124.5t-209.5 -45.5t-209.5 45.5t-77.5 124.5t77.5 124.5t209.5 45.5z M880 626h-139v-143h139v-45h-139v-154h-53v534h53v-146h139v-46z" />
<glyph unicode="&#xb108;" d="M159 194h12q225 0 397 36l9 -46q-187 -36 -406 -36h-65v569h53v-523zM728 818h53v-889h-53v541h-294v45h294v303z" />
<glyph unicode="&#xb109;" d="M570 445l8 -47q-174 -35 -403 -35h-65v398h53v-352h12q228 0 395 36zM194 201v45h586v-316h-53v271h-533zM727 818h53v-529h-53v298h-274v45h274v186z" />
<glyph unicode="&#xb10b;" d="M727 318v283h-273v45h273v173h53v-501h-53zM569 459l8 -47q-179 -36 -402 -36h-65v393h53v-346h12q227 0 394 36zM159 220v45h292v-335h-53v290h-239zM693 282v-71q0 -77 44 -144t120 -98l-29 -41q-59 25 -100.5 72t-61.5 106q-21 -59 -63 -106.5t-101 -72.5l-29 40 q77 32 122.5 100.5t45.5 143.5v71h52z" />
<glyph unicode="&#xb10c;" d="M727 171v397h-273v45h273v205h53v-647h-53zM570 412l8 -47q-180 -35 -403 -35h-65v417h53v-370h12q226 0 395 35zM276 -3h530v-45h-583v272h53v-227z" />
<glyph unicode="&#xb110;" d="M727 353v259h-275v44h275v162h53v-465h-53zM571 482l8 -46q-182 -35 -403 -35h-66v371h53v-325h13q226 0 395 35zM272 -11h545v-45h-597v209h508v109h-511v45h563v-196h-508v-122z" />
<glyph unicode="&#xb112;" d="M570 473l9 -47q-182 -35 -403 -35h-66v379h53v-333h13q228 0 394 36zM219 106v-121q156 0 249 16l6 -43q-90 -17 -263 -17h-43v207h226v104h-229v43h280v-189h-226zM554 253v-274h177v274h-177zM506 -64v359h273v-359h-273zM726 818h53v-481h-53v270h-273v45h273v166z " />
<glyph unicode="&#xb113;" d="M570 479l9 -46q-175 -35 -403 -35h-66v372h53v-326h13q227 0 394 35zM219 106v-121q156 0 249 16l6 -43q-90 -17 -263 -17h-43v207h226v104h-229v43h280v-189h-226zM730 -15v148h-175v-148h175zM730 176v129h50v-364h-275v364h50v-129h175zM727 818h53v-476h-53v270h-274 v45h274v161z" />
<glyph unicode="&#xb118;" d="M571 459l7 -48q-180 -35 -403 -35h-65v386h53v-339h12q228 0 396 36zM271 214v-225h458v225h-458zM220 -56v314h560v-314h-560zM727 819h53v-514h-53v291h-274v45h274v178z" />
<glyph unicode="&#xb119;" d="M571 470l7 -48q-180 -35 -403 -35h-65v384h53v-337h12q228 0 396 36zM728 -11v133h-457v-133h457zM728 166v131h52v-353h-561v353h52v-131h457zM727 818h53v-477h-53v263h-274v45h274v169z" />
<glyph unicode="&#xb11b;" d="M727 203v367h-274v45h274v204h53v-616h-53zM570 429l8 -48q-182 -35 -403 -35h-65v408h53v-361h12q227 0 395 36zM527 279v-44q0 -98 95 -168t214 -91l-23 -42q-102 21 -189.5 74.5t-122.5 132.5q-36 -80 -124 -133t-192 -75l-22 43q74 13 142.5 45t118.5 89.5t50 124.5 v44h53z" />
<glyph unicode="&#xb11c;" d="M727 298v291h-274v45h274v184h53v-520h-53zM569 449l8 -47q-179 -35 -402 -35h-65v392h53v-346h12q228 0 394 36zM676 282v-73q0 -70 52.5 -134.5t134.5 -92.5l-27 -41q-66 24 -114.5 71t-71.5 107q-20 -58 -62.5 -108.5t-101.5 -76.5q-63 25 -105.5 73.5t-61.5 109.5 q-23 -57 -71 -104t-112 -72l-27 41q80 30 133.5 95.5t53.5 131.5v73h51v-73q0 -65 36.5 -126.5t101.5 -96.5q64 39 102 102.5t38 120.5v73h51z" />
<glyph unicode="&#xb11d;" d="M727 264v324h-273v45h273v185h53v-554h-53zM571 447l7 -48q-180 -35 -403 -35h-65v388h53v-341h12q228 0 396 36zM493 -25q109 0 174 33t65 88q0 56 -65 89t-174 33t-173.5 -33t-64.5 -89q0 -55 64.5 -88t173.5 -33zM493 262q136 0 213.5 -43.5t77.5 -122.5 q0 -78 -77.5 -121t-213.5 -43t-213.5 43t-77.5 121q0 79 77.5 122.5t213.5 43.5z" />
<glyph unicode="&#xb123;" d="M727 336v287h-274v45h274v151h53v-483h-53zM571 503l9 -46q-176 -35 -405 -35h-66v355h53v-309h13q227 0 396 35zM495 -26q89 0 141 24t52 65t-52.5 65t-140.5 24t-140 -24t-52 -65t52 -65t140 -24zM495 192q116 0 180.5 -33.5t64.5 -95.5t-65 -96t-180 -34t-179.5 34 t-64.5 96t64.5 95.5t179.5 33.5zM523 282h281v-43h-618v43h284v98h53v-98z" />
<glyph unicode="&#xb124;" d="M159 211q173 0 319 30l8 -47q-148 -30 -327 -30h-53v552h52zM566 509v284h51v-813h-51v484h-213v45h213zM755 818h51v-887h-51v887z" />
<glyph unicode="&#xb125;" d="M575 310v273h-208v45h208v170h51v-488h-51zM480 443l7 -46q-152 -28 -326 -28h-54v386h53v-341h1q173 0 319 29zM212 207v45h590v-322h-53v277h-537zM750 817h52v-517h-52v517z" />
<glyph unicode="&#xb128;" d="M802 817v-657h-52v657h52zM575 186v373h-209v45h209v195h51v-613h-51zM480 406l7 -46q-152 -28 -326 -28h-54v406h53v-360h1q172 0 319 28zM295 -3h540v-45h-593v288h53v-243z" />
<glyph unicode="&#xb12c;" d="M802 817v-462h-52v462h52zM575 364v242h-209v44h209v148h51v-434h-51zM480 481l7 -45q-146 -28 -326 -28h-54v360h53v-314h1q177 0 319 27zM281 -14h558v-42h-610v212h521v110h-524v44h576v-196h-521v-128z" />
<glyph unicode="&#xb134;" d="M575 321v270h-209v45h209v162h51v-477h-51zM479 452l7 -45q-146 -28 -325 -28h-54v380h53v-334h1q177 0 318 27zM285 220v-231h465v231h-465zM233 -56v320h569v-320h-569zM750 818h52v-508h-52v508z" />
<glyph unicode="&#xb135;" d="M575 336v264h-209v45h209v154h51v-463h-51zM480 450l7 -46q-150 -29 -326 -29h-54v382h53v-336h1q174 0 319 29zM750 -11v136h-461v-136h461zM750 169v122h52v-347h-566v347h53v-122h461zM750 818h52v-489h-52v489z" />
<glyph unicode="&#xb137;" d="M802 817v-603h-52v603h52zM575 295v266h-208v45h208v192h51v-503h-51zM479 411l7 -46q-151 -29 -326 -29h-53v401h53v-356q169 0 319 30zM539 261v-36q0 -62 51 -117t120 -87.5t141 -45.5l-21 -41q-102 20 -192 74t-125 132q-36 -77 -126 -131.5t-191 -74.5l-22 41 q71 13 140.5 45.5t120.5 87.5t51 117v36h53z" />
<glyph unicode="&#xb138;" d="M802 818v-527h-52v527h52zM575 306v269h-209v45h209v179h51v-493h-51zM479 437l7 -46q-150 -29 -325 -29h-54v395h53v-349h1q173 0 318 29zM685 267v-59q0 -69 52.5 -133.5t133.5 -92.5l-27 -42q-66 25 -114 72.5t-71 106.5q-20 -59 -62.5 -109t-102.5 -76 q-126 51 -167 183q-24 -57 -71.5 -104t-110.5 -73l-27 42q80 30 133 95.5t53 130.5v59h51v-59q0 -65 36.5 -126t101.5 -96q65 38 103 102t38 120v59h51z" />
<glyph unicode="&#xb139;" d="M802 818v-543h-52v543h52zM575 308v260h-209v45h209v185h51v-490h-51zM479 428l7 -46q-146 -28 -325 -28h-54v392h53v-346h1q178 0 318 28zM515 -20q108 0 173.5 32t65.5 87t-65.5 87t-173.5 32t-173.5 -32t-65.5 -87t65.5 -87t173.5 -32zM515 261q136 0 213.5 -42.5 t77.5 -119.5t-77.5 -119.5t-213.5 -42.5t-213.5 42.5t-77.5 119.5t77.5 119.5t213.5 42.5z" />
<glyph unicode="&#xb140;" d="M159 190h12q224 0 393 35l7 -46q-182 -35 -400 -35h-65v573h53v-527zM728 819h53v-890h-53v421h-285v45h285v158h-285v46h285v220z" />
<glyph unicode="&#xb141;" d="M563 411l8 -46q-175 -35 -397 -35h-64v430h53v-383h11q230 0 389 34zM194 187v46h586v-302h-53v256h-533zM727 818h53v-541h-53v214h-273v44h273v121h-273v43h273v119z" />
<glyph unicode="&#xb144;" d="M727 157v319h-273v44h273v128h-273v45h273v125h53v-661h-53zM568 381l6 -46q-188 -34 -399 -34h-65v448h53v-402h12q209 0 393 34zM276 -3h530v-45h-583v260h53v-215z" />
<glyph unicode="&#xb148;" d="M727 343v177h-273v43h273v107h-273v44h273v105h53v-476h-53zM565 453l7 -45q-167 -34 -397 -34h-65v401h53v-355h12q233 0 390 33zM272 -12h544v-44h-596v203h508v105h-511v44h563v-191h-508v-117z" />
<glyph unicode="&#xb150;" d="M563 425l8 -45q-165 -34 -397 -34h-63v424h53v-379h10q229 0 389 34zM272 208v-219h456v219h-456zM220 -56v308h560v-308h-560zM727 818h53v-524h-53v212h-273v44h273v113h-273v44h273v111z" />
<glyph unicode="&#xb151;" d="M565 441l7 -45q-171 -34 -398 -34h-63v414h53v-368h10q230 0 391 33zM727 -11v135h-452v-135h452zM727 168v119h53v-343h-557v343h52v-119h452zM727 819h53v-486h-53v185h-273v44h273v107h-273v44h273v106z" />
<glyph unicode="&#xb154;" d="M727 289v217h-273v44h273v108h-273v44h273v116h53v-529h-53zM564 421l6 -45q-164 -34 -396 -34h-63v421h53v-376h10q229 0 390 34zM676 269v-60q0 -70 52.5 -134t134.5 -92l-27 -41q-66 24 -114.5 71t-71.5 107q-20 -58 -62.5 -108.5t-101.5 -76.5q-126 51 -167 183 q-23 -57 -71 -104t-112 -72l-27 41q80 29 133.5 95t53.5 131v60h51v-60q0 -65 36.5 -126t101.5 -96q64 38 102 102t38 120v60h51z" />
<glyph unicode="&#xb155;" d="M727 266v230h-272v44h272v115h-272v43h272v120h53v-552h-53zM569 420l6 -45q-162 -34 -400 -34h-64v418h53v-373h11q234 0 394 34zM493 -24q109 0 174 32.5t65 87.5t-65 88t-174 33t-173.5 -33t-64.5 -88t64.5 -87.5t173.5 -32.5zM493 260q136 0 213.5 -43t77.5 -121 t-77.5 -121t-213.5 -43t-213.5 43t-77.5 121t77.5 121t213.5 43z" />
<glyph unicode="&#xb158;" d="M563 422l7 -45q-166 -35 -396 -35h-63v421h53v-375h10q232 0 389 34zM191 208v45h589v-322h-53v140l-549 -26l-9 44l558 22v97h-536zM727 818h53v-520h-53v203h-273v44h273v116h-273v44h273v113z" />
<glyph unicode="&#xb15c;" d="M159 206q172 0 318 30l7 -47q-152 -30 -325 -30h-53v558h52zM566 598v196h51v-815h-51v383h-202v45h202v146h-202v45h202zM755 819h51v-889h-51v889z" />
<glyph unicode="&#xb160;" d="M802 818v-660h-52v660h52zM575 184v281h-199v44h199v112h-199v44h199v134h51v-615h-51zM478 379l7 -46q-149 -28 -325 -28h-53v433h53v-387q174 0 318 28zM295 -3h540v-45h-593v271h53v-226z" />
<glyph unicode="&#xb178;" d="M484 98h378v-45h-806v45h375v260h-271v381h53v-336h553v-45h-282v-260z" />
<glyph unicode="&#xb179;" d="M153 175v45h606v-290h-53v245h-553zM485 369h375v-45h-802v45h374v136h-262v291h53v-246h544v-45h-282v-136z" />
<glyph unicode="&#xb17c;" d="M216 213v-216h557v-45h-609v261h52zM484 341h376v-44h-802v44h374v143h-261v297h52v-253h543v-44h-282v-143z" />
<glyph unicode="&#xb180;" d="M216 108v-120h572v-44h-624v206h539v103h-542v43h594v-188h-539zM484 429h378v-46h-806v46h376v113h-262v262h52v-217h544v-45h-282v-113z" />
<glyph unicode="&#xb182;" d="M197 101v-116q165 0 255 17l6 -43q-90 -17 -267 -17h-45v200h228v101h-230v42h280v-184h-227zM535 243v-259h185v259h-185zM487 -58v343h281v-343h-281zM485 414h376v-45h-805v45h376v116h-262v268h53v-223h542v-45h-280v-116z" />
<glyph unicode="&#xb188;" d="M214 190v-201h491v201h-491zM162 -56v290h594v-290h-594zM485 382h375v-45h-802v45h374v135h-261v283h53v-239h543v-44h-282v-135z" />
<glyph unicode="&#xb189;" d="M698 -11v132h-476v-132h476zM698 165v115h53v-336h-582v336h53v-115h476zM485 400h375v-45h-802v45h374v121h-261v278h53v-233h542v-45h-281v-121z" />
<glyph unicode="&#xb18b;" d="M485 257v-35q0 -63 49 -117t116.5 -85t141.5 -44l-21 -42q-103 20 -190.5 72t-122.5 129q-34 -77 -121.5 -128.5t-191.5 -71.5l-22 42q75 13 142.5 43.5t116.5 84.5t49 117v35h54zM485 372h375v-45h-802v45h374v140h-261v285h53v-241h540v-44h-279v-140z" />
<glyph unicode="&#xb18d;" d="M458 -24q115 0 182 31.5t67 85.5t-67.5 85t-181.5 31t-181.5 -31t-67.5 -85t67 -85.5t182 -31.5zM458 252q142 0 222 -41.5t80 -117.5q0 -77 -80 -118.5t-222 -41.5t-222 41.5t-80 118.5q0 76 80 117.5t222 41.5zM485 377h375v-45h-802v45h374v134h-261v287h53v-242h543 v-45h-282v-134z" />
<glyph unicode="&#xb192;" d="M346 203v-214h225v214h-225zM624 203v-214h152v-45h-636v45h154v214h-146v45h621v-45h-145zM485 398h374v-45h-802v45h375v132h-261v267h53v-222h542v-45h-281v-132z" />
<glyph unicode="&#xb193;" d="M459 -27q100 0 155 20t55 59q0 38 -55.5 58.5t-154.5 20.5q-100 0 -155 -20.5t-55 -58.5q0 -39 55 -59t155 -20zM459 171q264 0 264 -119t-264 -119t-264 119t264 119zM485 359v-93h299v-45h-650v45h298v93h53zM486 443h375v-44h-805v44h377v105h-262v258h53v-214h543 v-44h-281v-105z" />
<glyph unicode="&#xb194;" d="M368 397v-213q144 7 246 20l3 -40q-215 -33 -561 -33l-11 47q142 0 270 4v215h-198v328h53v-283h394v-45h-196zM883 434v-46h-154v-458h-53v888h53v-384h154z" />
<glyph unicode="&#xb198;" d="M621 361l4 -40q-207 -38 -562 -38l-8 46q165 0 258 4v146h-186v277h53v-232h381v-45h-195v-143q151 7 255 25zM248 197v-200h518v-45h-571v245h53zM737 516h139v-45h-139v-329h-53v676h53v-302z" />
<glyph unicode="&#xb19c;" d="M622 447l3 -39q-201 -34 -562 -34l-7 46q162 0 252 3v121h-182v234h53v-189h376v-45h-194v-118q169 8 261 21zM228 102v-115h544v-44h-596v201h509v103h-512v43h565v-188h-510zM738 595h138v-45h-138v-217h-53v486h53v-224z" />
<glyph unicode="&#xb1a8;" d="M622 396l3 -40q-212 -38 -561 -38l-7 46q140 0 255 5v128h-186v261h53v-216h383v-45h-197v-126q158 9 257 25zM657 246v-37q0 -70 51.5 -133t133.5 -91l-26 -41q-65 24 -112.5 69.5t-70.5 102.5q-20 -60 -62.5 -108.5t-104.5 -73.5q-61 25 -103 73t-62 108 q-50 -121 -183 -171l-27 41q83 28 134.5 91t51.5 133v37h50v-39q0 -62 37 -124t102 -97q65 35 102.5 97t37.5 124v39h51zM737 563h139v-45h-139v-240h-53v540h53v-255z" />
<glyph unicode="&#xb1cc;" d="M384 396v-211q162 7 270 22l4 -41q-239 -36 -587 -34l-10 46q151 0 270 5v213h-196v329h53v-284h402v-45h-206zM717 818h53v-888h-53v888z" />
<glyph unicode="&#xb1d0;" d="M776 818v-658h-53v658h53zM641 361l3 -41q-238 -35 -576 -35l-8 47q150 0 267 5v144h-187v275h53v-230h382v-45h-196v-142q169 9 262 22zM269 -3h533v-45h-586v255h53v-210z" />
<glyph unicode="&#xb1d4;" d="M776 817v-474h-53v474h53zM642 449l3 -40q-238 -35 -577 -35l-8 45q125 0 266 6v116h-185v236h53v-192h379v-44h-194v-114q147 7 263 22zM256 -13h556v-44h-609v204h520v101h-522v44h575v-188h-520v-117z" />
<glyph unicode="&#xb1dc;" d="M642 404l3 -41q-214 -37 -576 -37l-9 46q171 0 267 4v129h-186v267h53v-222h382v-45h-196v-126q156 7 262 25zM259 190v-201h466v201h-466zM207 -56v290h569v-290h-569zM723 817h53v-537h-53v537z" />
<glyph unicode="&#xb1dd;" d="M640 416l3 -42q-246 -36 -577 -36l-8 47q126 0 269 6v128h-186v258h53v-213h382v-45h-196v-126q154 9 260 23zM724 -12v128h-458v-128h458zM724 159v114h52v-329h-563v329h53v-114h458zM723 818h53v-502h-53v502z" />
<glyph unicode="&#xb1df;" d="M776 818v-630h-53v630h53zM641 383l2 -41q-237 -35 -575 -35l-9 47q149 0 267 5v139h-186v266h53v-222h382v-44h-196v-136q156 7 262 21zM517 248v-38q0 -88 93.5 -151t211.5 -82l-21 -43q-102 18 -188.5 67.5t-121.5 122.5q-36 -73 -123 -122.5t-188 -67.5l-22 43 q74 12 141.5 41.5t116 80.5t48.5 111v38h53z" />
<glyph unicode="&#xb1e8;" d="M348 353v-251h227v251h-227zM628 102h234v-45h-806v45h239v251h-138v383h53v-338h557v-45h-139v-251z" />
<glyph unicode="&#xb1e9;" d="M153 173v44h606v-297h-53v253h-553zM347 505v-139h222v139h-222zM622 366h238v-45h-802v45h236v139h-126v290h53v-245h543v-45h-142v-139z" />
<glyph unicode="&#xb1ec;" d="M216 216v-219h557v-45h-609v264h52zM347 486v-146h222v146h-222zM622 340h237v-45h-801v45h236v146h-123v295h52v-251h543v-44h-144v-146z" />
<glyph unicode="&#xb1f0;" d="M216 107v-120h572v-44h-624v206h539v103h-542v43h594v-188h-539zM347 542v-115h222v115h-222zM622 427h240v-45h-806v45h238v115h-124v262h52v-216h544v-46h-144v-115z" />
<glyph unicode="&#xb1f9;" d="M698 -12v132h-476v-132h476zM698 164v115h53v-336h-582v336h53v-115h476zM346 523v-126h224v126h-224zM622 397h238v-45h-802v45h235v126h-122v276h53v-231h542v-45h-144v-126z" />
<glyph unicode="&#xb1fb;" d="M485 256v-36q0 -63 49 -116.5t116 -84.5t142 -44l-21 -42q-103 20 -190.5 71.5t-122.5 127.5q-35 -76 -123 -127t-191 -71l-21 42q75 13 142.5 43.5t116.5 84t49 116.5v36h54zM346 514v-143h223v143h-223zM622 371h237v-44h-801v44h236v143h-123v283h53v-238h540v-45 h-142v-143z" />
<glyph unicode="&#xb1fd;" d="M458 -24q114 0 181.5 31.5t67.5 85.5t-67.5 85t-181.5 31t-181.5 -31t-67.5 -85t67 -85.5t182 -31.5zM458 252q142 0 222 -41.5t80 -117.5q0 -77 -80 -118.5t-222 -41.5t-222 41.5t-80 118.5q0 76 80 117.5t222 41.5zM346 514v-137h224v137h-224zM622 377h238v-44h-802 v44h235v137h-122v284h53v-240h543v-44h-145v-137z" />
<glyph unicode="&#xb204;" d="M762 507v-45h-600v308h53v-263h547zM862 308v-45h-379v-333h-53v333h-374v45h806z" />
<glyph unicode="&#xb205;" d="M767 549v-44h-597v291h53v-247h544zM860 351h-375v-140h274v-294h-53v249h-553v45h279v140h-374v44h802v-44z" />
<glyph unicode="&#xb208;" d="M767 531v-44h-596v293h52v-249h544zM216 207v-210h557v-45h-609v255h52zM57 366h803v-45h-372v-199h-52v199h-379v45z" />
<glyph unicode="&#xb20b;" d="M766 559v-44h-595v282h52v-238h543zM860 361h-376v-126h277v-45h-553v-200h558v-46h-609v291h275v126h-374v44h802v-44z" />
<glyph unicode="&#xb20c;" d="M766 586v-45h-596v263h52v-218h544zM862 404h-378v-109h271v-188h-539v-120h572v-44h-624v206h539v103h-542v43h270v109h-375v45h806v-45z" />
<glyph unicode="&#xb214;" d="M767 561v-44h-596v283h53v-239h543zM705 -11v202h-491v-202h491zM860 362h-377v-127h273v-290h-594v290h269v127h-374v45h803v-45z" />
<glyph unicode="&#xb215;" d="M766 566v-45h-595v278h53v-233h542zM698 -12v130h-476v-130h476zM698 162v118h53v-337h-582v337h53v-118h476zM58 412h802v-44h-376v-149h-52v149h-374v44z" />
<glyph unicode="&#xb217;" d="M766 568v-44h-595v274h53v-230h542zM484 225v-45q0 -54 49 -99.5t117 -70.5t143 -34l-18 -42q-105 15 -194.5 58.5t-124.5 111.5q-35 -67 -124 -111t-194 -59l-18 42q74 10 142 35t117.5 70t49.5 99v45h55zM57 420h805v-45h-378v-114h-53v114h-374v45z" />
<glyph unicode="&#xb219;" d="M767 556v-44h-596v286h53v-242h543zM707 93q0 54 -67.5 85t-181.5 31t-181.5 -31t-67.5 -85t67 -85.5t182 -31.5t182 31.5t67 85.5zM860 364h-376v-112q131 -5 203.5 -46t72.5 -113q0 -77 -80 -118.5t-222 -41.5t-222 41.5t-80 118.5q0 72 72.5 113t203.5 46v112h-374v44 h802v-44z" />
<glyph unicode="&#xb220;" d="M572 524v-45h-435v290h53v-245h382zM641 372l4 -41q-111 -15 -278 -22v-351h-52v348q-120 -4 -256 -4l-8 47q379 2 590 23zM718 818h53v-889h-53v240h-216v44h216v605z" />
<glyph unicode="&#xb234;" d="M527 370h192v448h53v-562h-53v72h-192v42zM562 602v-44h-412v230h53v-186h359zM307 263v156q-111 -5 -247 -5l-9 46q373 0 576 30l5 -40q-139 -22 -272 -28v-159h-53zM672 226v-22q0 -70 52.5 -132t134.5 -90l-26 -41q-66 25 -114.5 70.5t-70.5 103.5 q-20 -59 -62.5 -107.5t-103.5 -73.5q-61 25 -103 72.5t-62 105.5q-24 -57 -72 -102t-113 -69l-26 41q82 28 134.5 90.5t52.5 131.5v22h50v-22q0 -62 37 -123t102 -95q65 35 102 96t37 122v22h51z" />
<glyph unicode="&#xb23c;" d="M476 535v-45h-364v257h53v-212h311zM517 396l4 -39q-98 -16 -218 -24v-330h-51v327q-109 -6 -198 -6l-8 47q277 0 471 25zM580 248v547h51v-815h-51v224h-180v44h180zM741 818h52v-888h-52v888z" />
<glyph unicode="&#xb258;" d="M568 521v-45h-425v280h53v-235h372zM652 358l4 -40q-112 -16 -279 -25v-335h-52v333q-117 -5 -266 -5l-8 47q387 2 601 25zM723 818h53v-889h-53v889z" />
<glyph unicode="&#xb25c;" d="M768 819v-676h-53v676h53zM558 543v-44h-413v258h53v-214h360zM337 174v169q-121 -5 -271 -5l-8 47q372 0 584 22l6 -40q-96 -13 -258 -22v-171h-53zM246 -3h552v-45h-605v255h53v-210z" />
<glyph unicode="&#xb260;" d="M768 818v-489h-53v489h53zM555 590v-45h-411v240h53v-195h358zM248 -13h556v-44h-608v198h520v101h-523v44h132v126q-150 -5 -257 -5l-8 46q357 0 584 20l4 -39q-116 -13 -270 -20v-128h390v-186h-520v-113z" />
<glyph unicode="&#xb268;" d="M558 562v-44h-414v254h53v-210h361zM715 -10v198h-465v-198h465zM377 372v-141h390v-285h-568v285h125v139q-114 -5 -256 -5l-9 46q378 0 584 30l5 -41q-127 -20 -271 -28zM715 818h53v-542h-53v542z" />
<glyph unicode="&#xb269;" d="M558 580v-45h-414v241h53v-196h361zM338 234v158q-116 -6 -270 -6l-9 46q378 0 584 30l5 -40q-111 -18 -258 -27v-161h-52zM716 -12v117h-463v-117h463zM716 149v112h52v-317h-568v317h53v-112h463zM715 818h53v-514h-53v514z" />
<glyph unicode="&#xb274;" d="M762 506v-45h-600v309h53v-264h547zM860 315v-45h-223v-340h-53v340h-253v-340h-53v340h-222v45h804z" />
<glyph unicode="&#xb275;" d="M767 561v-45h-596v279h53v-234h543zM581 207v155h-244v-155h244zM860 362h-226v-155h125v-286h-53v241h-562v45h140v155h-226v44h802v-44z" />
<glyph unicode="&#xb27c;" d="M766 586v-44h-596v262h53v-218h543zM583 295v115h-246v-115h246zM862 410h-227v-115h120v-188h-539v-120h572v-44h-624v206h539v103h-542v43h123v115h-228v45h806v-45z" />
<glyph unicode="&#xb284;" d="M767 574v-45h-596v268h53v-223h543zM580 235v136h-242v-136h242zM708 -11v202h-498v-202h498zM860 371h-227v-136h127v-290h-601v290h126v136h-228v44h803v-44z" />
<glyph unicode="&#xb285;" d="M767 569v-45h-596v274h53v-229h543zM701 -17v120h-484v-120h484zM701 146v117h54v-325h-591v325h53v-117h484zM57 421h803v-45h-251v-142h-53v142h-193v-142h-53v142h-253v45z" />
<glyph unicode="&#xb289;" d="M767 557v-45h-596v286h53v-241h543zM593 240v124h-269v-124q58 12 134 12t135 -12zM707 93q0 54 -67.5 85t-181.5 31t-181.5 -31t-67.5 -85t67.5 -85.5t181.5 -31.5t181.5 31.5t67.5 85.5zM860 364h-215v-139q115 -40 115 -132q0 -77 -80 -118.5t-222 -41.5t-222 41.5 t-80 118.5q0 91 116 133v138h-214v45h802v-45z" />
<glyph unicode="&#xb290;" d="M766 411v-45h-606v375h53v-330h553zM56 109h806v-46h-806v46z" />
<glyph unicode="&#xb291;" d="M767 558v-45h-597v281h54v-236h543zM146 171v45h613v-295h-50v250h-563zM58 395h802v-45h-802v45z" />
<glyph unicode="&#xb294;" d="M767 535v-45h-597v296h53v-251h544zM219 210v-212h553v-45h-606v257h53zM56 355h806v-45h-806v45z" />
<glyph unicode="&#xb298;" d="M766 586v-45h-596v263h52v-218h544zM216 105v-117h572v-44h-624v203h539v106h-542v44h594v-192h-539zM55 437h807v-46h-807v46z" />
<glyph unicode="&#xb299;" d="M766 583v-45h-595v265h51v-220h544zM199 108v-120q198 0 309 24l6 -43q-119 -25 -315 -25h-51v205h237v102h-240v43h291v-186h-237zM488 249v45h277v-355h-53v310h-224zM56 436h805v-46h-805v46z" />
<glyph unicode="&#xb29a;" d="M766 584v-45h-595v264h51v-219h544zM202 106v-119q164 0 254 17l7 -43q-91 -17 -267 -17h-44v202h227v104h-230v42h280v-186h-227zM541 250v-264h185v264h-185zM493 -56v348h281v-348h-281zM56 435h805v-46h-805v46z" />
<glyph unicode="&#xb2a0;" d="M767 561v-44h-596v283h53v-239h543zM214 191v-202h491v202h-491zM162 -55v290h594v-290h-594zM57 404h803v-45h-803v45z" />
<glyph unicode="&#xb2a1;" d="M766 565v-44h-595v278h53v-234h542zM698 -12v132h-476v-132h476zM698 164v114h53v-335h-582v335h53v-114h476zM58 410h802v-45h-802v45z" />
<glyph unicode="&#xb2a3;" d="M764 556v-44h-593v285h53v-241h540zM485 260v-34q0 -64 49 -118t116.5 -84.5t141.5 -43.5l-21 -42q-103 20 -190.5 71.5t-122.5 128.5q-34 -76 -121.5 -127.5t-191.5 -71.5l-22 42q75 13 142.5 43.5t116.5 84t49 117.5v34h54zM58 389h802v-45h-802v45z" />
<glyph unicode="&#xb2a5;" d="M767 556v-45h-596v287h53v-242h543zM458 -22q114 0 181.5 31t67.5 85t-67.5 85t-181.5 31t-181.5 -31t-67.5 -85t67.5 -85t181.5 -31zM458 254q142 0 222 -42t80 -118q0 -77 -80 -118.5t-222 -41.5t-222 41.5t-80 118.5q0 76 80 118t222 42zM58 391h802v-45h-802v45z" />
<glyph unicode="&#xb2a6;" d="M766 562v-45h-594v279h53v-234h541zM764 207h-277q3 -46 33 -86.5t76 -68.5t98 -47t105 -28l-21 -42q-105 18 -194 68.5t-124 126.5q-36 -76 -125 -126.5t-194 -68.5l-21 42q74 12 141 40.5t117.5 79t54.5 110.5h-277v45h608v-45zM58 407h802v-44h-802v44z" />
<glyph unicode="&#xb2aa;" d="M765 572v-45h-594v270h53v-225h541zM346 210v-221h225v221h-225zM624 210v-221h152v-45h-636v45h154v221h-146v45h621v-45h-145zM57 412h802v-45h-802v45z" />
<glyph unicode="&#xb2ac;" d="M575 469v-45h-440v317h53v-272h387zM70 145l-10 47q387 2 595 29l3 -41q-232 -35 -588 -35zM718 819h53v-889h-53v889z" />
<glyph unicode="&#xb2b0;" d="M777 817v-656h-53v656h53zM575 534v-45h-431v276h53v-231h378zM641 381l3 -42q-238 -35 -576 -35l-9 47q366 2 582 30zM271 -3h533v-45h-586v256h53v-211z" />
<glyph unicode="&#xb2b4;" d="M776 817v-478h-53v478h53zM572 583v-44h-428v237h53v-193h375zM642 458l3 -40q-244 -36 -577 -36l-8 46q366 2 582 30zM255 -10h557v-46h-609v203h520v102h-522v44h575v-188h-521v-115z" />
<glyph unicode="&#xb2c8;" d="M171 212h17q225 0 428 43l8 -46q-214 -44 -436 -44h-69v566h52v-519zM722 818h53v-888h-53v888z" />
<glyph unicode="&#xb2c9;" d="M614 473l9 -45q-219 -43 -440 -43h-68v382h52v-335h16q230 0 431 41zM193 205v45h586v-321h-53v276h-533zM726 818h53v-517h-53v517z" />
<glyph unicode="&#xb2cc;" d="M779 818v-645h-53v645h53zM616 439l8 -46q-192 -40 -441 -40h-68v399h53v-353h15q248 0 433 40zM262 -3h547v-45h-600v281h53v-236z" />
<glyph unicode="&#xb2d0;" d="M779 819v-446h-53v446h53zM615 508l8 -44q-191 -40 -440 -40h-69v352h53v-307h16q251 0 432 39zM270 -12h544v-44h-596v217h509v116h-512v44h564v-202h-509v-131z" />
<glyph unicode="&#xb2d2;" d="M616 497l8 -45q-191 -40 -441 -40h-68v364h53v-318h15q252 0 433 39zM228 112v-127q157 0 242 17l5 -44q-90 -16 -256 -16h-42v211h222v109h-225v42h276v-192h-222zM555 263v-280h176v280h-176zM507 -59v363h272v-363h-272zM726 818h53v-467h-53v467z" />
<glyph unicode="&#xb2d8;" d="M614 481l9 -45q-210 -42 -440 -42h-68v373h52v-327h16q227 0 431 41zM266 222v-233h461v233h-461zM215 -55v321h563v-321h-563zM725 818h53v-505h-53v505z" />
<glyph unicode="&#xb2d9;" d="M613 492l9 -45q-210 -42 -439 -42h-69v369h53v-323h16q233 0 430 41zM727 -11v140h-456v-140h456zM727 173v138h52v-367h-561v367h53v-138h456zM726 818h53v-464h-53v464z" />
<glyph unicode="&#xb2db;" d="M780 818v-608h-53v608h53zM614 453l9 -46q-192 -40 -440 -40h-69v388h53v-342h16q247 0 431 40zM526 293v-45q0 -53 28 -100t73.5 -81t98 -57t107.5 -34l-23 -42q-103 23 -190 80t-122 140q-34 -83 -121.5 -140t-191.5 -80l-23 42q75 14 142.5 48.5t117 94t49.5 129.5v45 h55z" />
<glyph unicode="&#xb2dd;" d="M778 818v-541h-53v541h53zM616 457l8 -46q-199 -40 -441 -40h-68v387h52v-341h16q248 0 433 40zM487 -23q110 0 176 34t66 92t-66 92t-176 34t-176 -34t-66 -92t66 -92t176 -34zM487 273q137 0 216 -45t79 -125t-79 -125t-216 -45t-216 45t-79 125t79 125t216 45z" />
<glyph unicode="&#xb2e2;" d="M778 817v-485h-53v485h53zM618 479l10 -45q-212 -43 -444 -43h-69v375h52v-329h17q237 0 434 42zM384 228v-239h217v239h-217zM653 -11h142v-45h-604v45h140v239h-132v45h586v-45h-132v-239z" />
<glyph unicode="&#xb2e4;" d="M150 202h14q249 0 419 32l7 -46q-170 -32 -426 -32h-67v574h411v-45h-358v-483zM888 454v-45h-156v-480h-53v889h53v-364h156z" />
<glyph unicode="&#xb2e5;" d="M579 450l6 -44q-164 -33 -417 -33h-66v382h390v-45h-337v-291h13q254 0 411 31zM173 197v45h568v-313h-53v268h-515zM880 584v-46h-139v-244h-53v524h53v-234h139z" />
<glyph unicode="&#xb2e6;" d="M578 452l7 -44q-165 -33 -417 -33h-66v381h389v-45h-336v-290h13q253 0 410 31zM153 215v45h275v-329h-53v284h-222zM472 215v45h269v-329h-53v284h-216zM880 580v-46h-139v-230h-53v514h53v-238h139z" />
<glyph unicode="&#xb2e8;" d="M579 416l6 -45q-165 -32 -417 -32h-66v400h390v-45h-337v-309h13q254 0 411 31zM252 237v-240h533v-45h-586v285h53zM741 543h139v-46h-139v-322h-53v645h53v-277z" />
<glyph unicode="&#xb2eb;" d="M579 455l6 -44q-164 -33 -417 -33h-66v381h389v-45h-336v-290h13q254 0 411 31zM253 217v-228h514v-45h-567v318h551v-45h-498zM741 601h139v-46h-139v-238h-53v502h53v-218z" />
<glyph unicode="&#xb2ec;" d="M578 486l8 -45q-162 -32 -419 -32h-65v356h389v-45h-336v-266h12q255 0 411 32zM244 115v-126h533v-45h-585v214h497v115h-499v45h551v-203h-497zM741 620h139v-45h-139v-207h-53v451h53v-199z" />
<glyph unicode="&#xb2ed;" d="M578 467l8 -45q-164 -32 -419 -32h-65v368h389v-44h-336v-279h12q253 0 411 32zM206 105v-118q180 0 291 21l5 -43q-114 -21 -298 -21h-49v202h230v105h-233v43h284v-189h-230zM475 250v44h266v-357h-53v313h-213zM880 598v-45h-139v-216h-53v482h53v-221h139z" />
<glyph unicode="&#xb2ee;" d="M579 466l7 -44q-168 -33 -419 -33h-65v369h389v-44h-336v-280h12q254 0 412 32zM191 107v-119q157 0 243 16l6 -43q-97 -17 -257 -17h-43v204h221v104h-224v43h275v-188h-221zM520 253v-267h172v267h-172zM472 -56v351h269v-351h-269zM880 603v-45h-139v-217h-53v478h53 v-216h139z" />
<glyph unicode="&#xb2ef;" d="M578 467l8 -44q-169 -33 -419 -33h-65v368h389v-44h-336v-278h12q254 0 411 31zM190 107v-119q155 0 243 18l5 -43q-93 -18 -256 -18h-43v202h220v103h-222v44h274v-187h-221zM691 -12v146h-175v-146h175zM691 177v127h50v-360h-275v360h50v-127h175zM880 606v-45h-139 v-220h-53v478h53v-213h139z" />
<glyph unicode="&#xb2f3;" d="M578 471l7 -44q-166 -33 -418 -33h-65v368h389v-44h-336v-278h12q254 0 411 31zM189 105v-119q158 0 246 19l5 -44q-89 -18 -259 -18h-43v203h221v105h-224v43h275v-189h-221zM620 -29q46 0 74 22t28 58q0 35 -28 57t-74 22t-73.5 -22t-27.5 -57q0 -36 27.5 -58t73.5 -22 zM620 169q66 0 107 -32t41 -86q0 -55 -41 -87t-107 -32q-65 0 -106.5 32t-41.5 87q0 54 41.5 86t106.5 32zM647 345v-88h161v-43h-367v43h154v88h52zM741 616h139v-45h-139v-198h-53v446h53v-203z" />
<glyph unicode="&#xb2f4;" d="M578 452l7 -45q-160 -32 -417 -32h-66v382h389v-45h-336v-292h13q255 0 410 32zM246 216v-227h442v227h-442zM194 -55v314h547v-314h-547zM880 591v-45h-139v-233h-53v505h53v-227h139z" />
<glyph unicode="&#xb2f5;" d="M578 460l7 -45q-160 -32 -417 -32h-66v374h389v-45h-336v-283h13q260 0 410 31zM688 -8v132h-443v-132h443zM688 168v128h53v-349h-548v349h52v-128h443zM880 600v-45h-139v-208h-53v471h53v-218h139z" />
<glyph unicode="&#xb2f7;" d="M578 426l8 -45q-166 -33 -418 -33h-66v397h389v-44h-336v-307h13q255 0 410 32zM507 280v-40q0 -42 19 -80t49.5 -67.5t71 -53t83.5 -39t86 -23.5l-23 -43q-102 22 -189.5 76t-122.5 135q-36 -81 -123 -135t-189 -76l-23 43q54 10 107 32t99 54.5t74 78.5t28 98v40h53z M741 559h139v-45h-139v-281h-53v585h53v-259z" />
<glyph unicode="&#xb2f8;" d="M578 452l7 -44q-169 -33 -417 -33h-66v382h389v-45h-336v-291h13q251 0 410 31zM667 277v-68q0 -69 52.5 -133.5t133.5 -93.5l-27 -41q-66 25 -114 72.5t-71 106.5q-20 -58 -62.5 -108.5t-102.5 -77.5q-126 52 -167 184q-23 -57 -71 -104.5t-110 -72.5l-28 41 q81 30 134 96t53 131v68h50v-68q0 -66 36.5 -127t102.5 -96q64 39 102 103t38 120v68h51zM741 593h139v-46h-139v-234h-53v505h53v-225z" />
<glyph unicode="&#xb2f9;" d="M579 442l7 -44q-166 -32 -418 -32h-66v379h389v-45h-336v-289h13q255 0 411 31zM461 -23q107 0 171 32.5t64 87.5t-64 87t-171 32t-171 -32t-64 -87t64 -87.5t171 -32.5zM461 260q134 0 210.5 -43t76.5 -120q0 -78 -76.5 -121t-210.5 -43t-210 43t-76 121q0 77 76 120 t210 43zM741 575h139v-46h-139v-249h-53v538h53v-243z" />
<glyph unicode="&#xb2fa;" d="M579 454l6 -44q-168 -33 -417 -33h-66v380h389v-45h-336v-289h13q251 0 411 31zM498 207q0 -80 90.5 -145t199.5 -86l-21 -43q-95 20 -178.5 71.5t-117.5 120.5q-34 -70 -117 -120.5t-179 -70.5l-21 42q69 13 134 44.5t110.5 82t45.5 104.5v1h-259v45h573v-45zM741 578 h139v-45h-139v-234h-53v519h53v-240z" />
<glyph unicode="&#xb2fb;" d="M579 479l7 -45q-168 -33 -418 -33h-66v365h389v-45h-336v-274h13q253 0 411 32zM763 193h-266q8 -77 98 -138t196 -80l-21 -41q-96 19 -181 70.5t-119 121.5q-34 -70 -119 -121.5t-181 -70.5l-21 41q105 19 195.5 80.5t98.5 137.5h-266v44h266v105h53v-105h267v-44z M741 604h139v-46h-139v-241h-53v502h53v-215z" />
<glyph unicode="&#xb2ff;" d="M578 494l8 -44q-169 -33 -419 -33h-65v351h389v-45h-336v-260h12q252 0 411 31zM478 -30q87 0 138.5 23.5t51.5 63.5q0 41 -51 64.5t-139 23.5t-139 -23.5t-51 -64.5q0 -40 51.5 -63.5t138.5 -23.5zM478 186q115 0 179.5 -34t64.5 -95t-64.5 -94t-179.5 -33t-179.5 33 t-64.5 94t64.5 95t179.5 34zM505 373v-94h281v-44h-615v44h281v94h53zM741 616h139v-46h-139v-225h-53v474h53v-203z" />
<glyph unicode="&#xb300;" d="M145 207h2q214 0 331 28l7 -46q-128 -28 -337 -28h-55v547h331v-46h-279v-455zM754 818h52v-887h-52v477h-153v-429h-51v817h51v-343h153v365z" />
<glyph unicode="&#xb301;" d="M487 440l5 -45q-138 -28 -336 -28h-54v380h332v-45h-280v-290h2q196 0 331 28zM214 200v45h586v-315h-53v270h-533zM749 817h51v-526h-51v246h-149v-240h-51v504h51v-219h149v235z" />
<glyph unicode="&#xb304;" d="M600 509v-322h-51v614h51v-247h149v263h51v-662h-51v354h-149zM487 408l5 -45q-138 -28 -336 -28h-54v394h332v-45h-280v-304h2q196 0 331 28zM285 -3h545v-45h-598v283h53v-238z" />
<glyph unicode="&#xb308;" d="M600 565v-207h-51v443h51v-192h149v209h51v-471h-51v218h-149zM488 478l5 -45q-139 -28 -337 -28h-54v355h332v-45h-280v-265h2q202 0 332 28zM280 -12h557v-44h-609v209h521v109h-523v44h574v-196h-520v-122z" />
<glyph unicode="&#xb310;" d="M488 447l5 -45q-138 -28 -337 -28h-54v376h332v-45h-280v-286h2q198 0 332 28zM279 215v-226h470v226h-470zM227 -55v313h573v-313h-573zM749 817h51v-513h-51v244h-149v-234h-51v487h51v-208h149v224z" />
<glyph unicode="&#xb311;" d="M488 446l5 -45q-139 -28 -337 -28h-54v375h332v-44h-280v-286h2q197 0 332 28zM749 -9v134h-466v-134h466zM749 168v121h51v-343h-570v343h53v-121h466zM749 817h51v-483h-51v219h-149v-210h-51v458h51v-203h149v219z" />
<glyph unicode="&#xb313;" d="M600 530v-224h-51v495h51v-226h149v244h51v-589h-51v300h-149zM488 425l5 -45q-133 -28 -337 -28h-54v386h332v-45h-280v-296h2q202 0 332 28zM539 268v-39q0 -62 50.5 -118t119.5 -89t141 -46l-24 -41q-100 21 -189.5 75.5t-124.5 132.5q-36 -78 -125 -132.5t-189 -75.5 l-24 41q71 13 140 46t120 89t51 118v39h54z" />
<glyph unicode="&#xb314;" d="M600 540v-234h-51v495h51v-216h149v232h51v-517h-51v240h-149zM488 436l5 -45q-139 -28 -337 -28h-54v382h332v-45h-280v-292h2q197 0 332 28zM685 266v-68q0 -69 52 -133t134 -94l-27 -41q-65 24 -113.5 71.5t-71.5 106.5q-21 -58 -63.5 -108t-102.5 -77 q-63 26 -105.5 74.5t-61.5 108.5q-24 -57 -72 -104t-111 -72l-27 41q81 30 134 95.5t53 131.5v68h50v-68q0 -66 36.5 -126.5t102.5 -95.5q65 38 103.5 101.5t38.5 120.5v68h51z" />
<glyph unicode="&#xb315;" d="M600 526v-233h-51v508h51v-230h150v247h51v-553h-51v261h-150zM488 430l5 -45q-139 -28 -337 -28h-54v383h330v-45h-277v-293h1q198 0 332 28zM514 -23q109 0 174 31.5t65 85.5q0 53 -65 84.5t-174 31.5t-174 -31.5t-65 -84.5q0 -54 65 -85.5t174 -31.5zM514 253 q136 0 213.5 -42t77.5 -117q0 -77 -77 -119t-214 -42t-214 42t-77 119q0 75 77 117t214 42z" />
<glyph unicode="&#xb31c;" d="M150 202h14q249 0 419 32l7 -45q-170 -32 -426 -32h-67v573h411v-45h-358v-483zM883 545h-151v-221h151v-46h-151v-349h-53v889h53v-228h151v-45z" />
<glyph unicode="&#xb354;" d="M156 198h12q248 0 407 31l8 -45q-164 -32 -415 -32h-65v579h405v-47h-352v-486zM728 818h53v-889h-53v513h-277v45h277v331z" />
<glyph unicode="&#xb355;" d="M569 416l6 -45q-164 -31 -405 -31h-65v416h408v-45h-355v-326h12q245 0 399 31zM194 195v45h586v-310h-53v265h-533zM727 818h53v-528h-53v249h-273v45h273v234z" />
<glyph unicode="&#xb356;" d="M569 423l7 -44q-162 -31 -406 -31h-65v408h409v-45h-356v-318h12q240 0 399 30zM161 215v44h291v-327h-53v283h-238zM496 215v44h283v-327h-53v283h-230zM727 818h53v-511h-53v235h-273v45h273v231z" />
<glyph unicode="&#xb358;" d="M454 564h273v254h53v-648h-53v349h-273v45zM571 383l6 -44q-161 -31 -406 -31h-64v430h408v-45h-356v-340h12q249 0 400 30zM276 -10h530v-45h-583v270h53v-225z" />
<glyph unicode="&#xb35b;" d="M454 594h273v225h53v-511h-53v241h-273v45zM569 435l7 -45q-165 -31 -405 -31h-64v402h407v-45h-355v-312h12q243 0 398 31zM266 -11h532v-45h-585v312h570v-45h-517v-222z" />
<glyph unicode="&#xb35c;" d="M454 615h272v204h53v-475h-53v227h-272v44zM569 460l6 -44q-165 -31 -406 -31h-64v376h408v-44h-355v-287h11q251 0 400 30zM271 -12h546v-44h-598v203h508v105h-510v44h562v-191h-508v-117z" />
<glyph unicode="&#xb35e;" d="M570 445l7 -44q-160 -30 -406 -30h-65v389h408v-44h-355v-301h12q250 0 399 30zM219 108v-120q156 0 249 16l6 -43q-97 -17 -263 -17h-43v205h226v103h-229v43h280v-187h-226zM554 253v-270h177v270h-177zM506 -59v354h273v-354h-273zM726 819h53v-483h-53v218h-272v44 h272v221z" />
<glyph unicode="&#xb35f;" d="M570 444l7 -44q-165 -31 -406 -31h-64v391h407v-44h-355v-303h12q245 0 399 31zM218 110v-122q156 0 248 17l7 -44q-97 -17 -263 -17h-44v208h226v104h-228v43h279v-189h-225zM728 -11v148h-175v-148h175zM728 180v130h50v-365h-274v365h49v-130h175zM726 819h53v-476 h-53v211h-273v44h273v221z" />
<glyph unicode="&#xb364;" d="M569 434l6 -44q-159 -31 -405 -31h-65v397h408v-44h-355v-308h12q250 0 399 30zM265 211v-221h464v221h-464zM213 -54v309h567v-309h-567zM727 818h53v-515h-53v248h-273v45h273v222z" />
<glyph unicode="&#xb365;" d="M568 446l7 -44q-159 -31 -405 -31h-65v388h408v-44h-355v-299h12q249 0 398 30zM728 -11v133h-457v-133h457zM728 166v130h52v-352h-561v352h52v-130h457zM727 819h53v-480h-53v216h-273v44h273v220z" />
<glyph unicode="&#xb367;" d="M454 578h273v240h53v-616h-53v331h-273v45zM568 418l7 -44q-164 -32 -405 -32h-65v415h407v-45h-354v-325h12q244 0 398 31zM529 279v-40q0 -51 28 -97t74 -78.5t99 -54.5t108 -33l-22 -42q-104 21 -192 76.5t-123 136.5q-34 -81 -122 -136.5t-190 -76.5l-22 42 q43 8 85 23.5t82.5 40t71.5 53.5t49.5 67t18.5 79v40h55z" />
<glyph unicode="&#xb369;" d="M455 589h272v229h53v-548h-53v275h-272v44zM569 422l6 -45q-168 -31 -405 -31h-65v409h408v-44h-355v-320h12q243 0 399 31zM493 -25q109 0 174 32.5t65 87.5t-65 88t-174 33t-173.5 -33t-64.5 -88t64.5 -87.5t173.5 -32.5zM493 259q136 0 213.5 -43t77.5 -121 t-77.5 -121t-213.5 -43t-213.5 43t-77.5 121t77.5 121t213.5 43z" />
<glyph unicode="&#xb36b;" d="M455 608h273v211h53v-507h-53v252h-273v44zM568 456l7 -44q-161 -30 -406 -30h-64v386h408v-44h-355v-298h11q244 0 399 30zM532 188v-4q0 -70 95.5 -131t202.5 -77l-19 -42q-97 18 -184 66.5t-122 113.5q-35 -66 -124 -114.5t-187 -65.5l-19 42q108 16 205.5 76.5 t97.5 131.5v4h-267v44h267v99h54v-99h269v-44h-269z" />
<glyph unicode="&#xb36e;" d="M454 598h273v221h53v-500h-53v234h-273v45zM569 433l7 -44q-159 -31 -405 -31h-64v402h408v-44h-356v-313h12q250 0 398 30zM389 220v-231h209v231h-209zM651 -11h148v-45h-607v45h144v231h-136v44h588v-44h-137v-231z" />
<glyph unicode="&#xb370;" d="M147 200h2q212 0 328 27l7 -46q-126 -27 -335 -27h-55v550h331v-45h-278v-459zM578 471v323h51v-815h-51v447h-213v45h213zM754 818h52v-888h-52v888z" />
<glyph unicode="&#xb371;" d="M379 584h205v214h51v-510h-51v251h-205v45zM488 420l6 -45q-132 -26 -337 -26h-54v397h332v-44h-279v-309h1q204 0 331 27zM212 192v45h590v-309h-53v264h-537zM750 817h52v-536h-52v536z" />
<glyph unicode="&#xb374;" d="M802 817v-658h-52v658h52zM378 565h204v234h51v-615h-51v336h-204v45zM488 395l6 -45q-141 -28 -337 -28h-54v409h332v-44h-279v-320h1q199 0 331 28zM286 -3h545v-45h-598v284h53v-239z" />
<glyph unicode="&#xb378;" d="M802 818v-477h-52v477h52zM379 616h205v183h51v-447h-51v221h-205v43zM488 470l6 -45q-134 -26 -337 -26h-54v364h332v-45h-278v-275q203 0 331 27zM280 -12h558v-44h-610v204h522v104h-524v44h576v-191h-522v-117z" />
<glyph unicode="&#xb380;" d="M379 597h205v201h51v-486h-51v240h-205v45zM488 432l6 -44q-133 -27 -337 -27h-54v391h332v-45h-279v-301h1q202 0 331 26zM282 214v-225h468v225h-468zM230 -56v313h572v-313h-572zM750 817h52v-515h-52v515z" />
<glyph unicode="&#xb381;" d="M378 605h206v193h51v-462h-51v224h-206v45zM488 448l6 -45q-134 -26 -337 -26h-54v380h332v-45h-279v-291h1q197 0 331 27zM750 -13v137h-465v-137h465zM750 168v121h52v-347h-570v347h53v-121h465zM750 818h52v-489h-52v489z" />
<glyph unicode="&#xb383;" d="M802 818v-602h-52v602h52zM378 583h206v216h51v-503h-51v242h-206v45zM488 412l6 -45q-137 -26 -337 -26h-54v401h331v-45h-277v-312q200 0 331 27zM540 263v-39q0 -62 51 -116.5t120.5 -87t140.5 -44.5l-21 -42q-64 12 -125.5 38.5t-114.5 70.5t-77 96 q-36 -78 -126.5 -132t-191.5 -73l-21 42q71 12 140.5 44.5t120.5 87t51 116.5v39h53z" />
<glyph unicode="&#xb384;" d="M802 817v-527h-52v527h52zM379 587h205v211h51v-492h-51v236h-205v45zM488 417l6 -45q-138 -26 -337 -26h-54v398h332v-44h-279v-310h1q192 0 331 27zM685 266v-59q0 -69 52.5 -133.5t133.5 -93.5l-27 -40q-65 24 -113.5 71.5t-71.5 105.5q-20 -58 -62.5 -108t-101.5 -76 q-127 52 -168 183q-24 -57 -71.5 -104t-110.5 -72l-27 40q81 30 133.5 95.5t52.5 131.5v59h51v-59q0 -65 36.5 -126t102.5 -96q64 39 102 103t38 119v59h51z" />
<glyph unicode="&#xb385;" d="M802 818v-542h-52v542h52zM379 585h205v214h51v-489h-51v230h-205v45zM488 416l7 -44q-133 -27 -338 -27h-54v399h335v-44h-282v-311h1q198 0 331 27zM515 -24q109 0 174 31.5t65 85.5t-65 85.5t-174 31.5t-174.5 -31.5t-65.5 -85.5t65.5 -85.5t174.5 -31.5zM515 253 q137 0 214.5 -42t77.5 -118t-77.5 -118t-214.5 -42t-214.5 42t-77.5 118t77.5 118t214.5 42z" />
<glyph unicode="&#xb38c;" d="M157 189h12q248 0 407 31l8 -45q-165 -31 -415 -31h-65v589h406v-45h-353v-499zM728 818h53v-889h-53v402h-274v45h274v159h-274v46h274v237z" />
<glyph unicode="&#xb390;" d="M462 630h265v188h53v-658h-53v254h-265v44h265v128h-265v44zM557 351l7 -44q-154 -30 -395 -30h-63v461h396v-44h-343v-373h10q234 0 388 30zM274 -3h532v-45h-583v247h51v-202z" />
<glyph unicode="&#xb394;" d="M463 670h263v149h53v-485h-53v147h-263v44h263v102h-263v43zM554 437l7 -44q-152 -29 -393 -29h-63v402h396v-44h-343v-314h10q239 0 386 29zM271 -13h544v-44h-596v201h508v106h-510v44h562v-192h-508v-115z" />
<glyph unicode="&#xb3a0;" d="M467 652h259v166h53v-529h-53v160h-259v45h259v113h-259v45zM553 403l8 -45q-153 -29 -392 -29h-64v425h397v-45h-344v-336h11q232 0 384 30zM676 266v-58q0 -70 52.5 -134t134.5 -93l-27 -41q-66 25 -114.5 72t-71.5 107q-20 -58 -62.5 -108.5t-101.5 -77.5 q-126 52 -167 184q-23 -57 -71 -104t-111 -73l-27 41q80 30 133 96t53 131v58h51v-58q0 -65 36.5 -126t101.5 -96q64 38 102 102t38 120v58h51z" />
<glyph unicode="&#xb3a1;" d="M464 645h262v173h53v-562h-53v189h-262v45h262v111h-262v44zM555 402l7 -45q-157 -31 -392 -31h-63v428h395v-45h-343v-339h11q229 0 385 32zM493 -26q109 0 174 32.5t65 87.5t-65 88t-174 33t-173.5 -33t-64.5 -88t64.5 -87.5t173.5 -32.5zM493 258q136 0 213.5 -43 t77.5 -121q0 -77 -77.5 -120t-213.5 -43t-213.5 43t-77.5 120q0 78 77.5 121t213.5 43z" />
<glyph unicode="&#xb3a8;" d="M147 198h2q205 0 327 27l7 -45q-126 -27 -334 -27h-55v553h334v-45h-281v-463zM578 561v233h51v-815h-51v348h-209v45h209v145h-209v44h209zM754 818h52v-888h-52v888z" />
<glyph unicode="&#xb3ac;" d="M802 818v-660h-52v660h52zM386 623h196v176h51v-615h-51v243h-196v44h196v108h-196v44zM479 362l7 -44q-139 -28 -330 -28h-53v443h322v-44h-269v-354q195 0 323 27zM286 -3h545v-45h-598v257h53v-212z" />
<glyph unicode="&#xb3c4;" d="M484 94h378v-45h-806v45h375v253h-267v395h591v-45h-538v-305h547v-45h-280v-253z" />
<glyph unicode="&#xb3c5;" d="M146 177v45h613v-301h-53v256h-560zM485 368h375v-44h-804v44h376v124h-272v291h597v-45h-544v-202h552v-44h-280v-124z" />
<glyph unicode="&#xb3c8;" d="M217 205v-208h556v-45h-609v253h53zM484 342h376v-45h-803v45h374v134h-271v296h597v-45h-544v-206h551v-45h-280v-134z" />
<glyph unicode="&#xb3cb;" d="M213 182v-194h556v-45h-608v284h600v-45h-548zM485 379h375v-45h-803v45h375v122h-268v281h589v-45h-536v-191h547v-45h-279v-122z" />
<glyph unicode="&#xb3cc;" d="M211 98v-110h571v-44h-623v195h542v100h-544v42h596v-183h-542zM485 417h374v-45h-802v45h375v101h-264v264h585v-45h-532v-174h542v-45h-278v-101z" />
<glyph unicode="&#xb3ce;" d="M197 101v-115q165 0 255 17l6 -43q-90 -17 -267 -17h-45v199h228v101h-230v43h280v-185h-227zM534 245v-261h186v261h-186zM487 -57v343h279v-343h-279zM485 417h374v-44h-803v44h376v103h-272v257h595v-44h-542v-168h549v-45h-277v-103z" />
<glyph unicode="&#xb3d0;" d="M197 101v-115q156 0 243 17l6 -43q-89 -16 -257 -16h-43v198h226v102h-228v42h278v-185h-225zM664 303v-70q0 -76 41.5 -147t116.5 -105l-31 -38q-113 55 -154 187q-19 -61 -59 -110.5t-97 -76.5l-31 38q75 35 118.5 106t43.5 146v70h52zM485 414h375v-45h-804v45h376 v104h-272v259h595v-44h-542v-170h550v-45h-278v-104z" />
<glyph unicode="&#xb3d4;" d="M209 187v-198h500v198h-500zM158 -56v287h602v-287h-602zM484 380h376v-45h-803v45h374v118h-271v285h597v-45h-544v-195h552v-45h-281v-118z" />
<glyph unicode="&#xb3d5;" d="M700 -12v132h-481v-132h481zM700 164v114h53v-335h-587v335h53v-114h481zM484 389h376v-45h-803v45h374v119h-271v276h597v-45h-544v-186h552v-45h-281v-119z" />
<glyph unicode="&#xb3d7;" d="M485 254v-34q0 -63 48.5 -116.5t116 -84.5t142.5 -43l-22 -42q-103 20 -190 71t-122 128q-23 -52 -75 -94.5t-111.5 -67t-125.5 -37.5l-22 42q55 9 108 29.5t98 50.5t73 73t28 91v34h54zM485 360h375v-45h-803v45h375v124h-272v294h597v-45h-544v-205h552v-44h-280v-124z " />
<glyph unicode="&#xb3d9;" d="M458 -25q115 0 182 30.5t67 84.5t-67 84.5t-182 30.5t-182 -30.5t-67 -84.5t67 -84.5t182 -30.5zM458 248q142 0 222 -41.5t80 -116.5q0 -76 -80 -117t-222 -41t-222 41t-80 117q0 75 80 116.5t222 41.5zM483 369h377v-45h-803v45h374v119h-271v289h597v-45h-545v-199 h552v-45h-281v-119z" />
<glyph unicode="&#xb3db;" d="M750 185h-265q6 -51 55 -97t114.5 -74.5t132.5 -38.5l-21 -41q-97 17 -184.5 66.5t-123.5 118.5q-34 -72 -121 -120t-190 -65l-21 41q113 18 204 74t99 136h-265v44h266v94h53v-94h267v-44zM485 409h376v-45h-804v45h375v111h-270v259h594v-45h-541v-169h549v-45h-279 v-111z" />
<glyph unicode="&#xb3dd;" d="M211 86v-101h558v-43h-610v325h603v-43h-551v-96h529v-42h-529zM485 402h375v-44h-803v44h375v114h-271v264h597v-45h-544v-174h551v-45h-280v-114z" />
<glyph unicode="&#xb3e0;" d="M357 378v-194q153 7 257 21l3 -41q-214 -34 -562 -34l-9 47q135 0 258 4v197h-194v345h440v-45h-387v-255h394v-45h-200zM883 440v-46h-155v-464h-53v888h53v-378h155z" />
<glyph unicode="&#xb3e4;" d="M619 360l4 -41q-207 -36 -560 -36l-7 47q159 0 249 4v131h-181v292h406v-44h-353v-204h361v-44h-180v-129q152 7 261 24zM245 193v-196h521v-45h-574v241h53zM735 506h141v-46h-141v-318h-53v676h53v-312z" />
<glyph unicode="&#xb3e8;" d="M622 433l3 -40q-218 -35 -562 -35l-7 44q101 0 249 5v108h-180v253h406v-44h-353v-165h361v-44h-181v-105q152 7 264 23zM228 95v-108h544v-44h-596v195h510v100h-513v44h565v-187h-510zM738 587h138v-46h-138v-215h-53v493h53v-232z" />
<glyph unicode="&#xb3fc;" d="M314 378v-192q140 8 202 16l4 -40q-179 -29 -465 -29l-9 47q112 0 216 4v194h-164v344h373v-45h-321v-255h328v-44h-164zM740 818h52v-888h-52v465h-130v-414h-51v815h51v-356h130v378z" />
<glyph unicode="&#xb410;" d="M610 513v-239h-51v529h51v-245h129v261h52v-550h-52v244h-129zM512 376l4 -38q-159 -30 -457 -30l-9 46q139 0 220 4v124h-162v278h365v-45h-313v-188h318v-45h-157v-122q111 5 191 16zM679 227v-25q0 -69 52 -131t134 -90l-26 -41q-66 24 -114 69t-71 103 q-20 -58 -62 -106t-103 -73q-61 25 -103.5 73t-61.5 106q-24 -58 -72 -103t-114 -69l-27 41q83 28 135.5 90t52.5 131v25h51v-25q0 -61 37 -122t101 -95q65 35 102.5 96t37.5 121v25h51z" />
<glyph unicode="&#xb418;" d="M377 377v-191q163 7 276 21l4 -39q-227 -35 -586 -35l-9 47q139 0 262 4v193h-191v355h445v-46h-392v-264h396v-45h-205zM716 818h53v-889h-53v889z" />
<glyph unicode="&#xb41c;" d="M775 818v-662h-53v662h53zM640 350l3 -40q-246 -35 -573 -35l-10 47q110 0 265 5v145h-181v286h417v-44h-365v-197h371v-45h-189v-142q155 7 262 20zM270 -3h538v-45h-591v246h53v-201z" />
<glyph unicode="&#xb420;" d="M777 817v-484h-53v484h53zM642 438l3 -40q-238 -34 -575 -34l-8 45q125 0 264 6v111h-182v254h413v-44h-359v-166h369v-44h-188v-109q158 7 263 21zM256 -13h557v-44h-609v198h521v102h-523v44h575v-189h-521v-111z" />
<glyph unicode="&#xb428;" d="M642 401l3 -41q-207 -33 -575 -35l-8 46q170 0 265 4v120h-183v272h426v-44h-374v-183h382v-45h-198v-118q171 10 262 24zM259 186v-197h466v197h-466zM208 -56v286h569v-286h-569zM724 818h53v-539h-53v539z" />
<glyph unicode="&#xb429;" d="M641 414l3 -41q-214 -36 -574 -36l-9 46q169 0 264 4v112h-182v272h414v-44h-361v-183h370v-45h-188v-110q161 9 263 25zM725 -11v124h-466v-124h466zM725 157v110h51v-323h-569v323h52v-110h466zM724 817h52v-509h-52v509z" />
<glyph unicode="&#xb42b;" d="M777 818v-630h-53v630h53zM642 385l2 -41q-233 -37 -574 -37l-9 46q125 0 266 6v124h-184v284h420v-45h-367v-194h375v-45h-191v-121q134 4 262 23zM517 246v-38q0 -60 48 -110.5t115.5 -79.5t141.5 -41l-21 -43q-103 19 -189.5 67.5t-121.5 121.5q-35 -72 -121.5 -121 t-188.5 -68l-22 43q74 12 141.5 41t116 79.5t48.5 110.5v38h53z" />
<glyph unicode="&#xb434;" d="M353 335v-231h219v231h-219zM625 104h237v-45h-806v45h245v231h-137v403h591v-45h-538v-313h547v-45h-139v-231z" />
<glyph unicode="&#xb450;" d="M756 478v-45h-584v331h569v-45h-515v-241h530zM861 301v-45h-378v-322h-53v322h-374v45h805z" />
<glyph unicode="&#xb451;" d="M765 542v-44h-605v286h597v-45h-544v-197h552zM860 343h-375v-135h274v-278h-53v233h-560v45h286v135h-375v45h803v-45z" />
<glyph unicode="&#xb454;" d="M765 513v-45h-605v303h597v-45h-544v-213h552zM217 201v-204h556v-45h-609v249h53zM57 356h803v-45h-367v-192h-53v192h-383v45z" />
<glyph unicode="&#xb458;" d="M763 563v-45h-595v264h585v-45h-532v-174h542zM859 386h-375v-105h269v-183h-542v-110h571v-44h-623v195h542v100h-544v42h275v105h-375v45h802v-45z" />
<glyph unicode="&#xb460;" d="M765 543v-45h-605v285h597v-45h-544v-195h552zM709 -11v199h-500v-199h500zM860 353h-376v-121h276v-287h-602v287h274v121h-375v45h803v-45z" />
<glyph unicode="&#xb461;" d="M765 551v-44h-605v277h597v-45h-544v-188h552zM700 -12v130h-481v-130h481zM700 161v117h53v-335h-587v335h53v-117h481zM57 408h803v-45h-375v-146h-53v146h-375v45z" />
<glyph unicode="&#xb463;" d="M764 545v-45h-603v283h596v-45h-544v-193h551zM484 209v-35q0 -53 49.5 -97t118 -68t142.5 -32l-18 -43q-107 15 -195.5 57t-123.5 108q-36 -66 -124.5 -108t-195.5 -57l-18 43q74 8 142.5 32t118 68t49.5 97v35h55zM56 398h806v-45h-379v-105h-53v105h-374v45z" />
<glyph unicode="&#xb465;" d="M764 535v-45h-604v287h597v-45h-545v-197h552zM707 90q0 54 -67 84.5t-182 30.5t-182 -30.5t-67 -84.5t67 -84.5t182 -30.5t182 30.5t67 84.5zM860 350h-375v-102q130 -5 202.5 -46t72.5 -112q0 -76 -80 -117t-222 -41t-222 41t-80 117q0 71 72.5 112t203.5 46v102h-375 v44h803v-44z" />
<glyph unicode="&#xb46c;" d="M571 509v-46h-435v306h424v-46h-373v-214h384zM644 366l4 -41q-112 -15 -281 -22v-345h-52v342q-120 -4 -255 -4l-9 47q392 2 593 23zM719 818h53v-888h-53v233h-215v45h215v610z" />
<glyph unicode="&#xb480;" d="M527 359h192v460h53v-568h-53v67h-192v41zM541 578v-43h-399v257h396v-44h-343v-170h346zM307 258v152q-89 -4 -248 -4l-8 45q373 0 575 29l4 -40q-130 -21 -270 -27v-155h-53zM672 222v-19q0 -69 53 -131.5t134 -89.5l-26 -41q-65 23 -113.5 68.5t-71.5 103.5 q-20 -58 -62.5 -106t-103.5 -73q-61 24 -103 72t-62 106q-23 -57 -71 -102.5t-114 -68.5l-26 41q82 27 134.5 89.5t52.5 131.5v19h50v-19q0 -61 37.5 -122t101.5 -95q65 34 102 95t37 122v19h51z" />
<glyph unicode="&#xb488;" d="M467 502v-45h-360v285h359v-45h-307v-195h308zM516 375l5 -40q-88 -14 -218 -23v-307h-51v304q-108 -6 -198 -6l-8 47q283 2 470 25zM580 233v563h51v-815h-51v208h-180v44h180zM741 819h52v-888h-52v888z" />
<glyph unicode="&#xb49d;" d="M791 818v-591h-52v591h52zM409 360h178v443h51v-543h-51v59h-178v41zM486 573v-44h-358v238h357v-43h-305v-151h306zM267 250v154q-95 -5 -207 -5l-8 47q316 0 478 26l4 -39q-92 -19 -216 -26v-157h-51zM502 -26q114 0 180 28.5t66 77.5t-66 77t-180 28t-180 -28t-66 -77 t66 -77.5t180 -28.5zM502 227q143 0 222.5 -38.5t79.5 -108.5q0 -71 -79 -109.5t-223 -38.5t-223 38.5t-79 109.5q0 70 79.5 108.5t222.5 38.5z" />
<glyph unicode="&#xb4a4;" d="M578 500v-45h-439v313h426v-45h-373v-223h386zM652 353l4 -41q-115 -15 -278 -24v-329h-53v327q-94 -4 -266 -4l-8 46q385 2 601 25zM722 818h53v-888h-53v888z" />
<glyph unicode="&#xb4a8;" d="M768 819v-677h-53v677h53zM566 520v-44h-417v290h411v-45h-358v-201h364zM331 174v158q-118 -5 -264 -5l-8 47q372 0 584 22l5 -40q-121 -16 -264 -22v-160h-53zM245 -4h553v-45h-606v254h53v-209z" />
<glyph unicode="&#xb4ac;" d="M768 818v-490h-53v490h53zM558 581v-44h-408v255h403v-43h-350v-168h355zM248 -13h556v-44h-608v201h520v104h-523v43h131v121q-114 -5 -255 -5l-8 45q377 0 583 29l5 -39q-127 -20 -272 -28v-123h391v-188h-520v-116z" />
<glyph unicode="&#xb4b5;" d="M563 559v-45h-414v271h409v-45h-356v-181h361zM327 252v132q-123 -4 -259 -4l-8 46q371 0 584 20l5 -39q-110 -14 -269 -21v-134h-53zM716 -12v120h-464v-120h464zM716 151v108h52v-315h-569v315h53v-108h464zM715 819h53v-518h-53v518z" />
<glyph unicode="&#xb4b7;" d="M768 818v-645h-53v645h53zM570 547v-44h-420v271h418v-45h-366v-182h368zM314 194v162q-131 -3 -245 -3l-8 46q372 0 585 22l4 -41q-113 -15 -284 -22v-164h-52zM535 249v-41q0 -60 48 -110t115.5 -79t141.5 -41l-22 -43q-103 19 -189.5 67.5t-120.5 121.5 q-35 -73 -121 -122t-190 -68l-20 44q74 12 141.5 41t115.5 79t48 110v41h53z" />
<glyph unicode="&#xb4b9;" d="M768 818v-571h-53v571h53zM564 546v-45h-415v275h410v-45h-357v-185h362zM486 -23q108 0 172 30t64 82t-63.5 82t-172.5 30t-172.5 -30t-63.5 -82t64 -82t172 -30zM375 366v-131q51 9 111 9q135 0 211.5 -40.5t76.5 -114.5t-76.5 -114t-211.5 -40t-211.5 40t-76.5 114 q0 95 124 134v141q-120 -4 -253 -4l-8 46q373 0 585 22l4 -40q-110 -15 -275 -22z" />
<glyph unicode="&#xb4c0;" d="M756 485v-45h-584v328h570v-45h-516v-238h530zM862 303v-45h-225v-327h-53v327h-252v-327h-53v327h-223v45h806z" />
<glyph unicode="&#xb4c4;" d="M765 515v-45h-605v301h597v-45h-544v-211h552zM216 189v-192h559v-45h-612v237h53zM57 359h803v-44h-216v-198h-52v198h-199v-198h-53v198h-283v44z" />
<glyph unicode="&#xb4c8;" d="M763 566v-45h-595v264h585v-45h-532v-174h542zM583 281v108h-245v-108h245zM859 389h-223v-108h117v-183h-542v-110h571v-44h-623v195h542v100h-544v42h129v108h-229v45h802v-45z" />
<glyph unicode="&#xb4d0;" d="M765 545v-44h-605v282h597v-45h-544v-193h552zM580 232v124h-242v-124h242zM709 -11v199h-500v-199h500zM860 356h-228v-124h128v-287h-602v287h128v124h-229v45h803v-45z" />
<glyph unicode="&#xb4d5;" d="M764 541v-45h-604v283h597v-45h-545v-193h552zM591 237v113h-264v-113q60 11 132 11t132 -11zM707 90q0 54 -67 84.5t-181 30.5q-115 0 -182.5 -30.5t-67.5 -84.5t67.5 -84.5t182.5 -30.5q114 0 181 30.5t67 84.5zM860 350h-216v-128q116 -40 116 -132q0 -76 -79.5 -117 t-221.5 -41q-143 0 -223 41t-80 117q0 92 118 132v128h-217v44h803v-44z" />
<glyph unicode="&#xb4dc;" d="M764 382v-45h-600v394h591v-45h-539v-304h548zM56 104h806v-45h-806v45z" />
<glyph unicode="&#xb4dd;" d="M765 539v-45h-605v289h597v-45h-544v-199h552zM146 165v45h613v-285h-53v240h-560zM57 379h803v-44h-803v44z" />
<glyph unicode="&#xb4e0;" d="M764 523v-45h-604v299h597v-45h-544v-209h551zM217 209v-211h556v-45h-609v256h53zM57 364h803v-45h-803v45z" />
<glyph unicode="&#xb4e3;" d="M763 550v-45h-599v283h589v-45h-536v-193h546zM213 185v-195h556v-45h-608v285h599v-45h-547zM57 389h802v-45h-802v45z" />
<glyph unicode="&#xb4e4;" d="M763 563v-45h-595v264h585v-45h-532v-174h542zM211 100v-113h571v-43h-623v198h542v106h-544v44h596v-192h-542zM57 431h803v-45h-803v45z" />
<glyph unicode="&#xb4e6;" d="M762 560v-45h-602v274h595v-45h-541v-184h548zM197 102v-117q165 0 255 17l6 -43q-90 -17 -267 -17h-45v200h228v105h-230v42h280v-187h-227zM534 249v-266h186v266h-186zM487 -58v347h279v-347h-279zM57 425h802v-44h-802v44z" />
<glyph unicode="&#xb4ec;" d="M765 546v-44h-605v286h597v-45h-544v-197h552zM209 190v-199h500v199h-500zM158 -53v287h602v-287h-602zM57 395h803v-45h-803v45z" />
<glyph unicode="&#xb4ed;" d="M765 559v-44h-605v273h597v-45h-544v-184h552zM700 -10v132h-481v-132h481zM700 166v113h53v-334h-587v334h53v-113h481zM57 407h803v-45h-803v45z" />
<glyph unicode="&#xb4ef;" d="M765 529v-44h-605v300h597v-45h-544v-211h552zM485 256v-34q0 -48 28 -91t73.5 -73t98 -50.5t107.5 -29.5l-22 -43q-103 20 -190 71.5t-122 127.5q-34 -76 -121.5 -127.5t-190.5 -71.5l-22 43q75 13 142.5 43.5t116 84t48.5 116.5v34h54zM57 380h803v-45h-803v45z" />
<glyph unicode="&#xb4f1;" d="M764 529v-45h-604v292h597v-45h-545v-202h552zM458 -24q115 0 182 30.5t67 84.5t-67 84.5t-182 30.5t-182 -30.5t-67 -84.5t67 -84.5t182 -30.5zM458 249q142 0 222 -41.5t80 -116.5q0 -76 -80 -117t-222 -41t-222 41t-80 117q0 75 80 116.5t222 41.5zM57 385h803v-45 h-803v45z" />
<glyph unicode="&#xb4f8;" d="M581 431v-45h-446v345h432v-45h-379v-255h393zM70 145l-9 47q386 2 593 27l4 -40q-230 -34 -588 -34zM716 818h53v-889h-53v889z" />
<glyph unicode="&#xb514;" d="M169 202h16q254 0 428 32l7 -46q-185 -33 -435 -33h-69v576h414v-47h-361v-482zM724 818h53v-889h-53v889z" />
<glyph unicode="&#xb515;" d="M625 437l7 -45q-176 -33 -449 -33h-70v386h415v-44h-362v-297h17q277 0 442 33zM193 190v45h586v-305h-53v260h-533zM726 818h53v-530h-53v530z" />
<glyph unicode="&#xb518;" d="M778 818v-645h-53v645h53zM615 413l7 -45q-178 -33 -441 -33h-69v406h415v-44h-362v-317h16q268 0 434 33zM261 -3h547v-45h-600v273h53v-228z" />
<glyph unicode="&#xb51b;" d="M779 818v-512h-53v512h53zM624 457l8 -45q-183 -34 -449 -34h-70v376h415v-45h-362v-286h17q271 0 441 34zM268 -10h538v-45h-591v313h571v-45h-518v-223z" />
<glyph unicode="&#xb51c;" d="M778 819v-456h-53v456h53zM624 494l7 -45q-178 -33 -448 -33h-70v348h418v-44h-365v-260h17q270 0 441 34zM269 -18h544v-44h-596v214h509v117h-512v44h564v-203h-509v-128z" />
<glyph unicode="&#xb524;" d="M624 462l8 -45q-176 -34 -449 -34h-70v370h415v-45h-362v-280h17q277 0 441 34zM267 212v-222h460v222h-460zM215 -54v310h564v-310h-564zM726 818h53v-513h-53v513z" />
<glyph unicode="&#xb525;" d="M624 472l8 -45q-176 -34 -449 -34h-70v367h415v-45h-362v-277h17q277 0 441 34zM727 -11v133h-456v-133h456zM727 166v131h52v-353h-561v353h53v-131h456zM726 819h53v-477h-53v477z" />
<glyph unicode="&#xb527;" d="M779 819v-599h-53v599h53zM624 433l7 -44q-179 -34 -448 -34h-70v387h418v-45h-365v-297h17q274 0 441 33zM526 289v-42q0 -69 48.5 -128t116 -93t141.5 -49l-24 -43q-102 24 -188.5 80.5t-120.5 138.5q-35 -83 -122.5 -139.5t-190.5 -79.5l-23 43q54 11 107 33.5t99 56 t74 80.5t28 100v42h55z" />
<glyph unicode="&#xb528;" d="M779 818v-522h-53v522h53zM625 456l7 -45q-184 -34 -449 -34h-70v376h419v-45h-366v-286h17q269 0 442 34zM674 279v-72q0 -70 52 -133.5t135 -92.5l-27 -41q-66 25 -114.5 71.5t-71.5 105.5q-21 -58 -63.5 -107.5t-101.5 -76.5q-126 51 -167 182q-24 -56 -72 -102.5 t-112 -72.5l-27 41q81 31 134 96t53 130v72h51v-72q0 -65 36.5 -126t102.5 -95q64 38 102.5 101.5t38.5 119.5v72h51z" />
<glyph unicode="&#xb529;" d="M779 818v-556h-53v556h53zM624 448l8 -45q-183 -34 -449 -34h-70v377h415v-45h-362v-287h17q271 0 441 34zM487 -25q110 0 176 33.5t66 90.5q0 56 -66 89.5t-176 33.5t-175.5 -33.5t-65.5 -89.5q0 -57 65.5 -90.5t175.5 -33.5zM487 266q137 0 216 -44t79 -123t-79 -123 t-216 -44t-215.5 44t-78.5 123t78.5 123t215.5 44z" />
<glyph unicode="&#xb52a;" d="M779 817v-517h-53v517h53zM624 462l7 -46q-186 -34 -448 -34h-70v371h419v-45h-366v-280h17q268 0 441 34zM789 207h-261q1 -81 93 -145.5t203 -84.5l-22 -43q-97 19 -181.5 70t-119.5 122q-34 -71 -118 -122t-180 -70l-22 43q111 20 201.5 84.5t91.5 145.5h-259v44h574 v-44z" />
<glyph unicode="&#xb530;" d="M140 677v-460q102 2 182 21l6 -45q-93 -21 -204 -21h-36v550h222v-45h-170zM415 677v-460q125 0 218 23l7 -45q-99 -23 -237 -23h-40v550h233v-45h-181zM886 459v-45h-142v-484h-53v889h53v-360h142z" />
<glyph unicode="&#xb531;" d="M642 433l5 -45q-96 -22 -236 -22h-40v381h233v-45h-182v-290q127 0 220 21zM333 434l6 -46q-93 -22 -206 -22h-37v381h217v-45h-165v-290q105 2 185 22zM182 196v45h572v-312h-53v267h-519zM880 572v-45h-126v-243h-53v534h53v-246h126z" />
<glyph unicode="&#xb534;" d="M642 400l5 -45q-96 -22 -236 -22h-40v398h233v-45h-182v-307q127 0 220 21zM332 398l7 -46q-95 -21 -206 -21h-37v400h217v-45h-165v-310q104 2 184 22zM258 223v-226h532v-45h-585v271h53zM754 543h126v-46h-126v-327h-53v649h53v-276z" />
<glyph unicode="&#xb538;" d="M642 483l5 -45q-91 -21 -236 -21h-40v343h233v-45h-181v-254q121 0 219 22zM333 480l6 -45q-93 -22 -206 -22h-37v347h220v-45h-168v-257q104 2 185 22zM244 110v-122h545v-44h-596v209h509v112h-512v44h564v-199h-510zM754 614h126v-45h-126v-217h-53v467h53v-205z" />
<glyph unicode="&#xb540;" d="M642 438l5 -46q-96 -21 -236 -21h-40v378h233v-44h-181v-289q121 0 219 22zM333 438l6 -46q-93 -21 -206 -21h-37v378h217v-44h-165v-289q105 2 185 22zM249 210v-221h453v221h-453zM197 -56v310h557v-310h-557zM880 589v-46h-126v-239h-53v513h53v-228h126z" />
<glyph unicode="&#xb541;" d="M642 450l7 -45q-91 -21 -238 -21h-40v367h233v-44h-181v-278q121 0 219 21zM338 448l8 -46q-101 -22 -212 -22h-38v371h217v-44h-165v-281q109 2 190 22zM700 -10v132h-455v-132h455zM700 167v131h53v-354h-560v354h52v-131h455zM880 600v-47h-127v-215h-54v479h54v-217 h127z" />
<glyph unicode="&#xb543;" d="M642 416l5 -45q-96 -22 -236 -22h-40v389h233v-44h-181v-299q126 0 219 21zM333 414l6 -46q-93 -21 -206 -21h-37v391h217v-44h-165v-302q105 2 185 22zM511 277v-36q0 -52 29 -98.5t75.5 -79.5t99.5 -55t107 -32l-22 -42q-105 23 -193.5 78.5t-122.5 138.5 q-35 -83 -123.5 -138.5t-193.5 -78.5l-22 42q75 14 143 47t118 91t50 127v36h55zM754 557h126v-45h-126v-299h-53v607h53v-263z" />
<glyph unicode="&#xb544;" d="M642 438l5 -46q-96 -21 -236 -21h-40v378h233v-44h-181v-289q121 0 219 22zM333 435l6 -46q-93 -22 -206 -22h-37v382h217v-44h-165v-292q105 2 185 22zM676 277v-68q0 -70 52.5 -134.5t134.5 -92.5l-27 -41q-66 24 -114.5 71t-71.5 107q-20 -59 -62 -109t-102 -76 q-63 25 -105.5 73.5t-61.5 109.5q-23 -57 -71 -104t-111 -72l-27 41q80 30 133.5 96t53.5 131v68h50v-68q0 -65 36.5 -126.5t101.5 -96.5q64 39 102 102.5t38 120.5v68h51zM754 586h126v-45h-126v-234h-53v510h53v-231z" />
<glyph unicode="&#xb545;" d="M642 431l5 -46q-96 -21 -236 -21h-40v380h233v-45h-181v-290q121 0 219 22zM332 428l7 -46q-93 -22 -206 -22h-37v384h217v-45h-165v-293q104 2 184 22zM474 -24q108 0 172 33t64 90q0 56 -64.5 89.5t-171.5 33.5q-108 0 -172.5 -33.5t-64.5 -89.5q0 -57 64.5 -90 t172.5 -33zM474 265q134 0 211 -44t77 -122q0 -79 -77 -123t-211 -44q-136 0 -213 44t-77 123q0 78 77 122t213 44zM754 574h126v-46h-126v-248h-53v538h53v-244z" />
<glyph unicode="&#xb54b;" d="M641 497l6 -45q-96 -21 -236 -21h-40v335h233v-45h-181v-245q126 0 218 21zM332 494l7 -45q-95 -21 -206 -21h-37v338h217v-45h-165v-249q104 2 184 22zM479 -30q87 0 139 24t52 64t-52 64t-139 24t-139 -24t-52 -64t51.5 -64t139.5 -24zM479 186q114 0 178.5 -34 t64.5 -94q0 -61 -64.5 -94.5t-178.5 -33.5t-179 33.5t-65 94.5q0 60 65 94t179 34zM505 379v-95h283v-44h-619v44h283v95h53zM754 620h126v-45h-126v-221h-53v465h53v-199z" />
<glyph unicode="&#xb54c;" d="M140 658v-441q85 2 151 19l7 -46q-80 -19 -176 -19h-32v532h193v-45h-143zM374 658v-441q100 2 169 23l8 -46q-81 -23 -193 -23h-34v532h196v-45h-146zM765 818h51v-888h-51v471h-128v-424h-51v818h51v-349h128v372z" />
<glyph unicode="&#xb54d;" d="M537 421l7 -45q-82 -20 -186 -20h-33v389h193v-45h-143v-299q92 2 162 20zM287 420l9 -45q-84 -19 -175 -19h-31v389h186v-45h-136v-299q83 2 147 19zM202 192v45h611v-305h-53v260h-558zM761 818h52v-531h-52v249h-124v-239h-50v504h50v-220h124v237z" />
<glyph unicode="&#xb550;" d="M637 506v-319h-50v614h50v-250h124v267h52v-662h-52v350h-124zM537 400l7 -45q-82 -20 -186 -20h-33v393h193v-44h-143v-304q92 2 162 20zM287 399l9 -45q-84 -19 -175 -19h-31v393h185v-44h-135v-304q82 2 147 19zM283 -3h557v-45h-610v282h53v-237z" />
<glyph unicode="&#xb554;" d="M637 566v-201h-50v436h50v-190h124v208h52v-463h-52v210h-124zM537 466l7 -45q-78 -19 -186 -19h-33v363h193v-45h-143v-274q92 2 162 20zM287 465l9 -44q-80 -19 -175 -19h-31v363h185v-45h-135v-274q82 2 147 19zM281 -12h568v-44h-620v207h532v111h-535v44h587v-197 h-532v-121z" />
<glyph unicode="&#xb55c;" d="M537 441l7 -45q-78 -19 -186 -19h-33v375h193v-45h-143v-285q96 2 162 19zM288 440l8 -44q-80 -19 -175 -19h-31v375h186v-45h-136v-285q87 2 148 18zM279 214v-225h481v225h-481zM227 -55v313h586v-313h-586zM761 818h52v-514h-52v237h-124v-232h-50v492h50v-215h124 v232z" />
<glyph unicode="&#xb55d;" d="M537 449l7 -45q-78 -19 -186 -19h-33v372h193v-45h-143v-282q96 2 162 19zM287 449l9 -45q-80 -19 -175 -19h-31v372h185v-45h-135v-282q82 2 147 19zM760 -12v137h-478v-137h478zM760 169v121h53v-347h-583v347h52v-121h478zM761 818h52v-485h-52v222h-124v-216h-50v462 h50v-202h124v219z" />
<glyph unicode="&#xb55f;" d="M637 523v-235h-50v513h50v-233h124v251h52v-603h-52v307h-124zM537 416l7 -45q-78 -19 -186 -19h-33v386h193v-44h-143v-297q96 2 162 19zM287 415l9 -45q-84 -19 -175 -19h-31v387h186v-44h-136v-298q83 2 147 19zM540 264v-40q0 -61 51.5 -115.5t121 -87t140.5 -45.5 l-21 -41q-65 12 -126.5 38.5t-114.5 70.5t-77 96q-36 -78 -126.5 -132t-192.5 -73l-21 41q115 21 214 90t99 158v40h53z" />
<glyph unicode="&#xb560;" d="M637 543v-234h-50v492h50v-214h124v231h52v-518h-52v243h-124zM537 426l7 -45q-78 -20 -186 -20h-33v385h193v-44h-143v-296q92 2 162 20zM287 425l9 -45q-80 -19 -175 -19h-31v385h186v-44h-136v-296q83 2 147 19zM692 264v-57q0 -69 53 -133t135 -93l-27 -42 q-66 25 -115 72.5t-72 105.5q-21 -59 -63 -108.5t-102 -75.5q-62 25 -104.5 72.5t-62.5 108.5q-24 -57 -71.5 -103.5t-110.5 -71.5l-27 42q80 30 133 95.5t53 130.5v57h50v-57q0 -65 36.5 -125.5t102.5 -96.5q64 38 102.5 101.5t38.5 120.5v57h51z" />
<glyph unicode="&#xb561;" d="M637 527v-227h-50v501h50v-229h124v246h52v-546h-52v255h-124zM537 432l7 -45q-78 -20 -186 -20h-33v377h193v-44h-144v-288q97 2 163 20zM294 429l8 -46q-81 -19 -180 -19h-32v380h189v-44h-139v-291q86 2 154 20zM512 -24q116 0 183.5 32.5t67.5 88.5q0 55 -68 87 t-183 32q-114 0 -182.5 -32t-68.5 -87q0 -56 68 -88.5t183 -32.5zM512 259q143 0 223.5 -42.5t80.5 -119.5q0 -78 -80.5 -121t-223.5 -43t-224 43t-81 121q0 77 81 119.5t224 42.5z" />
<glyph unicode="&#xb5a0;" d="M140 679v-469q96 2 169 20l8 -45q-89 -20 -194 -20h-35v559h212v-45h-160zM406 679v-469q133 0 230 24l7 -45q-98 -24 -248 -24h-41v559h241v-45h-189zM737 818h52v-887h-52v508h-191v45h191v334z" />
<glyph unicode="&#xb5a1;" d="M644 420l6 -44q-106 -23 -250 -23h-42v395h244v-45h-192v-305q131 0 234 22zM316 419l6 -45q-91 -21 -200 -21h-36v395h220v-45h-168v-305q95 2 178 21zM193 191v45h597v-307h-53v262h-544zM737 818h53v-536h-53v258h-187v45h187v233z" />
<glyph unicode="&#xb5a4;" d="M551 569h186v249h53v-649h-53v355h-186v45zM644 391l6 -45q-107 -22 -250 -22h-42v417h244v-44h-192v-328q131 0 234 22zM319 390l7 -45q-92 -21 -204 -21h-36v417h220v-44h-168v-328q102 2 181 21zM264 -3h548v-45h-601v271h53v-226z" />
<glyph unicode="&#xb5a8;" d="M549 617h188v202h53v-463h-53v217h-188v44zM644 469l6 -44q-106 -23 -250 -23h-42v359h244v-44h-192v-270q137 0 234 22zM316 468l7 -45q-91 -21 -201 -21h-36v359h217v-44h-165v-270q95 2 178 21zM265 -12h561v-44h-613v208h525v110h-528v44h580v-197h-525v-121z" />
<glyph unicode="&#xb5aa;" d="M644 467l6 -44q-107 -22 -250 -22h-42v360h244v-45h-192v-271q131 0 234 22zM316 466l8 -45q-92 -20 -202 -20h-36v360h218v-45h-166v-271q95 2 178 21zM229 115v-127q155 0 248 16l6 -43q-97 -17 -262 -17h-43v213h225v107h-228v43h279v-192h-225zM564 265v-279h178v279 h-178zM516 -56v363h274v-363h-274zM737 819h53v-465h-53v218h-187v44h187v203z" />
<glyph unicode="&#xb5ab;" d="M644 468l7 -44q-107 -23 -251 -23h-42v360h244v-45h-192v-271q132 0 234 23zM316 467l8 -45q-91 -21 -202 -21h-36v360h218v-45h-166v-271q96 2 178 22zM228 109v-122q156 0 248 17l7 -43q-92 -17 -263 -17h-43v207h225v104h-228v43h279v-189h-225zM740 -12v148h-175 v-148h175zM740 179v130h50v-365h-275v365h50v-130h175zM737 819h53v-465h-53v218h-187v44h187v203z" />
<glyph unicode="&#xb5b0;" d="M644 428l6 -45q-107 -22 -250 -22h-42v390h244v-44h-192v-301q131 0 234 22zM316 425l8 -46q-93 -20 -202 -20h-36v392h217v-44h-165v-303q101 2 178 21zM267 212v-223h471v223h-471zM215 -55v311h575v-311h-575zM737 818h53v-510h-53v239h-187v45h187v226z" />
<glyph unicode="&#xb5b1;" d="M644 445l6 -45q-106 -23 -250 -23h-42v382h244v-44h-192v-293q132 0 234 23zM316 440l7 -46q-93 -20 -201 -20h-36v385h220v-44h-168v-296q95 2 178 21zM738 -11v136h-468v-136h468zM738 169v128h52v-353h-572v353h52v-128h468zM737 818h53v-478h-53v218h-187v44h187v216 z" />
<glyph unicode="&#xb5b3;" d="M550 580h187v238h53v-616h-53v333h-187v45zM644 417l6 -45q-101 -22 -250 -22h-42v399h244v-45h-192v-309q137 0 234 22zM316 416l7 -46q-92 -20 -201 -20h-36v399h220v-45h-168v-309q101 2 178 21zM526 281v-46q0 -51 28.5 -96t75 -77t100 -54t108.5 -32l-22 -42 q-105 22 -194 76t-124 134q-35 -80 -123 -134t-192 -76l-22 42q74 14 142.5 47t118.5 89.5t50 122.5v46h54z" />
<glyph unicode="&#xb5b4;" d="M550 583h187v235h53v-513h-53v234h-187v44zM643 420l7 -44q-106 -23 -250 -23h-42v397h244v-45h-193v-307q131 0 234 22zM316 416l8 -46q-93 -20 -202 -20h-36v400h221v-45h-169v-310q95 2 178 21zM674 265v-57q0 -70 52.5 -134t135.5 -93l-27 -41q-66 25 -115 72.5 t-72 106.5q-20 -59 -62 -109t-102 -77q-126 52 -166 183q-25 -57 -73 -104t-111 -72l-27 41q81 30 134.5 96t53.5 131v57h50v-57q0 -65 36.5 -126t101.5 -96q64 38 102 102t38 120v57h51z" />
<glyph unicode="&#xb5b5;" d="M550 587h186v231h53v-548h-53v272h-186v45zM644 425l6 -45q-101 -22 -250 -22h-42v392h244v-44h-192v-303q137 0 234 22zM316 420l7 -45q-91 -21 -201 -21h-36v396h217v-44h-165v-307q95 2 178 21zM501 -24q109 0 174.5 31.5t65.5 85.5t-65.5 86t-174.5 32 q-110 0 -175 -31.5t-65 -86.5q0 -54 65 -85.5t175 -31.5zM501 254q137 0 214.5 -42t77.5 -119q0 -76 -77.5 -118.5t-214.5 -42.5t-215 42.5t-78 118.5q0 77 77.5 119t215.5 42z" />
<glyph unicode="&#xb5bb;" d="M551 626h186v192h53v-471h-53v235h-186v44zM643 481l6 -44q-105 -23 -250 -23h-42v355h245v-44h-192v-266q137 0 233 22zM316 480l8 -45q-91 -21 -202 -21h-36v355h218v-44h-166v-266q95 2 178 21zM496 -28q90 0 141 23.5t51 64.5t-51 64.5t-141 23.5q-89 0 -140 -23.5 t-51 -64.5t51 -64.5t140 -23.5zM496 188q118 0 182 -33t64 -95t-64 -95t-182 -33q-117 0 -181 33t-64 95t64 95t181 33zM523 283h284v-44h-621v44h284v94h53v-94z" />
<glyph unicode="&#xb5bc;" d="M140 659v-442q81 2 145 19l6 -46q-73 -18 -170 -18h-31v531h179v-44h-129zM364 659v-438q103 0 180 24l6 -46q-85 -24 -200 -24h-35v528h204v-44h-155zM606 478v316h49v-815h-49v454h-153v45h153zM765 818h51v-888h-51v888z" />
<glyph unicode="&#xb5bd;" d="M465 592h142v208h50v-510h-50v257h-142v45zM549 423l8 -45q-92 -22 -206 -22h-36v395h201v-45h-151v-305q106 2 184 22zM278 419l7 -45q-71 -18 -165 -18h-30v395h179v-45h-129v-305q78 2 138 18zM208 195v45h605v-311h-53v266h-552zM761 818h52v-535h-52v535z" />
<glyph unicode="&#xb5c0;" d="M813 818v-662h-52v662h52zM466 564h141v234h50v-616h-50v337h-141v45zM549 392l8 -44q-92 -23 -206 -23h-36v409h201v-45h-151v-319q106 2 184 22zM278 388l7 -45q-75 -18 -165 -18h-30v409h179v-45h-129v-319q77 2 138 18zM284 -3h556v-45h-609v280h53v-235z" />
<glyph unicode="&#xb5c4;" d="M812 819v-476h-51v476h51zM468 614h140v185h49v-444h-49v215h-140v44zM547 463l8 -45q-92 -22 -206 -22h-35v365h204v-44h-155v-276q106 2 184 22zM278 459l7 -45q-71 -18 -165 -18h-30v365h179v-44h-129v-276q78 2 138 18zM278 -13h568v-44h-620v205h534v109h-536v44 h588v-195h-534v-119z" />
<glyph unicode="&#xb5cc;" d="M465 591h142v207h50v-485h-50v233h-142v45zM549 433l8 -45q-88 -22 -206 -22h-36v387h201v-45h-151v-297q102 0 184 22zM279 429l7 -45q-71 -18 -166 -18h-30v387h179v-45h-129v-297q78 2 139 18zM279 211v-222h481v222h-481zM227 -55v310h586v-310h-586zM761 818h52 v-519h-52v519z" />
<glyph unicode="&#xb5cd;" d="M465 602h142v196h49v-461h-49v221h-142v44zM549 448l8 -45q-92 -22 -206 -22h-36v377h201v-44h-151v-288q106 2 184 22zM278 444l7 -45q-71 -18 -165 -18h-30v377h179v-44h-129v-288q77 2 138 18zM760 -11v135h-478v-135h478zM760 167v121h53v-344h-583v344h52v-121h478z M761 819h52v-489h-52v489z" />
<glyph unicode="&#xb5cf;" d="M813 819v-604h-52v604h52zM465 579h142v220h50v-503h-50v238h-142v45zM550 407l7 -45q-88 -22 -206 -22h-36v402h201v-45h-151v-312q106 2 185 22zM278 402l7 -45q-75 -18 -165 -18h-30v403h179v-45h-129v-313q78 2 138 18zM540 263v-39q0 -62 51.5 -116.5t121 -87 t140.5 -44.5l-21 -42q-65 12 -126.5 38.5t-114.5 70.5t-77 96q-36 -78 -126.5 -132t-192.5 -73l-21 42q71 12 140.5 44.5t121 87t51.5 116.5v39h53z" />
<glyph unicode="&#xb5d0;" d="M813 818v-518h-52v518h52zM465 589h142v209h50v-483h-50v229h-142v45zM549 419l8 -45q-92 -22 -206 -22h-36v398h201v-45h-151v-308q106 2 184 22zM278 415l7 -45q-71 -18 -165 -18h-30v398h179v-45h-129v-308q78 2 138 18zM692 265v-57q0 -69 53 -133t135 -94l-27 -41 q-66 25 -115 72.5t-72 105.5q-21 -59 -63 -108.5t-102 -76.5q-125 51 -167 182q-24 -57 -71.5 -103.5t-110.5 -71.5l-27 41q80 31 133 96.5t53 130.5v57h50v-57q0 -66 36.5 -126.5t102.5 -95.5q64 38 102.5 102t38.5 120v57h51z" />
<glyph unicode="&#xb5d1;" d="M813 818v-554h-52v554h52zM465 585h142v213h49v-502h-49v243h-142v46zM549 421l8 -45q-88 -22 -206 -22h-36v393h201v-44h-152v-304q102 0 185 22zM283 417l7 -46q-78 -18 -170 -18h-30v394h179v-44h-129v-305q80 2 143 19zM512 -24q116 0 183.5 31.5t67.5 86.5 q0 54 -68 85.5t-183 31.5t-183 -31.5t-68 -85.5q0 -55 67.5 -86.5t183.5 -31.5zM512 254q144 0 224 -41.5t80 -118.5t-80 -119t-224 -42t-224.5 42t-80.5 119t80.5 118.5t224.5 41.5z" />
<glyph unicode="&#xb5d8;" d="M141 680v-480q93 2 173 22l8 -47q-92 -20 -198 -20h-36v570h221v-45h-168zM412 680v-480q128 0 224 24l8 -46q-102 -23 -244 -23h-40v570h237v-45h-185zM736 818h53v-888h-53v404h-185v45h185v159h-185v45h185v235z" />
<glyph unicode="&#xb5ec;" d="M565 647h172v171h53v-523h-53v168h-172v44h172v96h-172v44zM639 408l7 -45q-107 -22 -250 -22h-42v408h243v-45h-190v-318q131 0 232 22zM313 407l6 -46q-91 -20 -197 -20h-36v408h217v-45h-165v-318q92 2 175 21zM674 265v-57q0 -70 52.5 -134.5t135.5 -92.5l-27 -41 q-66 24 -115 71.5t-72 106.5q-20 -59 -62 -109t-102 -76q-63 25 -105 73t-61 109q-25 -57 -72.5 -103.5t-111.5 -71.5l-27 41q81 30 134.5 96t53.5 131v57h50v-57q0 -65 36.5 -126t101.5 -96q64 37 102 101.5t38 120.5v57h51z" />
<glyph unicode="&#xb610;" d="M796 389v-45h-320v385h308v-45h-255v-295h267zM432 416l7 -45q-117 -27 -264 -27h-44v383h291v-44h-239v-294q137 0 249 27zM484 95h378v-45h-806v45h375v201h53v-201z" />
<glyph unicode="&#xb611;" d="M786 544v-45h-302v283h296v-45h-243v-193h249zM446 571l7 -44q-123 -28 -274 -28h-46v283h296v-45h-243v-193q141 0 260 27zM145 157v45h612v-280h-53v235h-559zM485 357h374v-45h-803v45h376v128h53v-128z" />
<glyph unicode="&#xb614;" d="M786 536v-44h-302v285h296v-45h-243v-196h249zM447 563l6 -46q-122 -25 -274 -25h-46v285h296v-45h-243v-196q138 0 261 27zM218 211v-214h553v-45h-606v259h53zM485 345h374v-45h-803v45h376v131h53v-131z" />
<glyph unicode="&#xb618;" d="M786 576v-44h-302v252h296v-44h-243v-164h249zM446 604l7 -44q-123 -28 -274 -28h-46v252h296v-44h-243v-164q137 0 260 28zM211 98v-110h571v-44h-623v195h542v100h-544v42h596v-183h-542zM485 414h374v-45h-803v45h376v106h53v-106z" />
<glyph unicode="&#xb625;" d="M786 539v-45h-302v281h296v-45h-243v-191h249zM447 567l8 -45q-124 -28 -276 -28h-46v281h296v-45h-243v-191q143 0 261 28zM458 -26q115 0 182 30t67 83q0 52 -67.5 82.5t-181.5 30.5t-181.5 -30.5t-67.5 -82.5q0 -53 67 -83t182 -30zM458 242q143 0 222.5 -40.5 t79.5 -114.5q0 -75 -79.5 -115.5t-222.5 -40.5t-222.5 40.5t-79.5 115.5q0 74 79.5 114.5t222.5 40.5zM484 368h379v-45h-808v45h376v114h53v-114z" />
<glyph unicode="&#xb62c;" d="M604 440v-45h-241v332h229v-45h-177v-242h189zM322 459l6 -45q-88 -19 -200 -19h-35v332h222v-45h-170v-242q95 0 177 19zM365 352v-179q160 7 267 22l3 -41q-220 -34 -581 -34l-8 47q141 0 266 4v181h53zM882 439v-45h-138v-464h-53v888h53v-379h138z" />
<glyph unicode="&#xb634;" d="M590 570v-44h-239v241h227v-43h-175v-154h187zM318 591l7 -43q-83 -22 -199 -22h-35v241h213v-43h-160v-154q103 2 174 21zM621 442l4 -39q-227 -36 -570 -36l-7 45q100 0 250 5v100h53v-98q174 9 270 23zM220 103v-116h556v-44h-608v202h519v108h-522v44h575v-194h-520z M740 599h133v-45h-133v-213h-52v478h52v-220z" />
<glyph unicode="&#xb648;" d="M525 447v-44h-206v323h197v-45h-147v-234h156zM284 466l8 -46q-82 -21 -171 -21h-31v327h188v-45h-138v-237q78 3 144 22zM322 366v-160q150 8 215 17l4 -40q-188 -30 -485 -30l-7 47q113 0 221 4v162h52zM762 818h51v-888h-51v475h-126v-428h-51v819h51v-346h126v368z " />
<glyph unicode="&#xb664;" d="M631 435v-45h-245v337h237v-45h-185v-247h193zM350 456l7 -46q-91 -20 -212 -20h-37v337h229v-45h-177v-247q107 2 190 21zM392 362v-179q157 7 281 23l3 -40q-223 -35 -609 -35l-9 47q182 0 281 3v181h53zM735 818h53v-888h-53v888z" />
<glyph unicode="&#xb668;" d="M784 816v-657h-53v657h53zM618 514v-45h-244v283h235v-45h-182v-193h191zM338 535l7 -44q-87 -22 -200 -22h-35v283h219v-45h-167v-193q101 2 176 21zM655 355l5 -41q-223 -35 -596 -35l-9 47q183 0 283 4v127h53v-125q150 7 264 23zM262 -10h549v-45h-602v255h53v-210z " />
<glyph unicode="&#xb69c;" d="M796 471v-44h-311v340h300v-45h-247v-251h258zM444 497l6 -45q-120 -25 -273 -25h-45v338h298v-44h-245v-249q142 0 259 25zM862 307l-1 -45h-378v-331h-53v331h-375v45h807z" />
<glyph unicode="&#xb69d;" d="M786 535v-44h-302v295h296v-45h-242v-206h248zM443 563l7 -44q-120 -28 -272 -28h-45v295h297v-45h-243v-206q135 0 256 28zM859 349h-374v-134h272v-285h-53v240h-559v45h287v134h-376v45h803v-45z" />
<glyph unicode="&#xb6a0;" d="M791 514v-44h-307v304h296v-45h-243v-215h254zM443 542l7 -45q-121 -27 -272 -27h-45v304h297v-45h-244v-215q135 0 257 28zM216 209v-212h555v-45h-608v257h53zM56 364h803v-45h-368v-195h-53v195h-382v45z" />
<glyph unicode="&#xb6a4;" d="M790 562v-44h-306v267h296v-44h-243v-179h253zM447 591l8 -45q-123 -28 -276 -28h-46v267h297v-44h-244v-179q140 0 261 29zM859 388h-375v-107h269v-183h-542v-110h571v-44h-623v195h542v100h-544v42h275v107h-376v45h803v-45z" />
<glyph unicode="&#xb6ab;" d="M791 570v-44h-307v258h296v-44h-243v-170h254zM448 599l7 -45q-121 -28 -276 -28h-46v258h297v-44h-244v-170q141 0 262 29zM196 99v-112q172 0 265 17l7 -43q-100 -17 -277 -17h-46v196h222v100h-224v43h275v-184h-222zM635 -28q44 0 70.5 21t26.5 56t-26.5 55.5 t-70.5 20.5t-71 -21t-27 -55q0 -35 27 -56t71 -21zM635 164q64 0 104 -31t40 -84t-40 -84.5t-104 -31.5t-104.5 31.5t-40.5 84.5t40.5 84t104.5 31zM660 325v-85h160v-42h-369v42h157v85h52zM56 450h803v-44h-375v-121h-53v121h-375v44z" />
<glyph unicode="&#xb6ac;" d="M791 541v-45h-307v289h296v-45h-243v-199h254zM447 569l8 -45q-128 -28 -276 -28h-46v289h298v-45h-245v-199q143 0 261 28zM709 -10v200h-500v-200h500zM860 357h-375v-123h275v-288h-602v288h274v123h-375v45h803v-45z" />
<glyph unicode="&#xb6b1;" d="M791 538v-44h-307v281h296v-45h-243v-192h254zM447 567l8 -45q-123 -28 -276 -28h-46v281h298v-45h-245v-192q140 0 261 29zM707 87q0 53 -67 83t-182 30t-182 -30t-67 -83q0 -52 67.5 -82.5t181.5 -30.5t181.5 30.5t67.5 82.5zM859 359h-374v-116q131 -5 203 -45 t72 -111q0 -75 -79.5 -115.5t-222.5 -40.5t-222.5 40.5t-79.5 115.5q0 71 72 111t204 45v116h-376v45h803v-45z" />
<glyph unicode="&#xb6d4;" d="M519 492v-44h-203v295h197v-46h-148v-205h154zM287 512l6 -44q-71 -20 -177 -20h-32v295h193v-46h-145v-205q94 2 155 20zM547 375l4 -40q-111 -20 -233 -26v-304h-52v301q-132 -5 -216 -5l-7 47q327 0 504 27zM601 231v565h50v-815h-50v206h-184v44h184zM758 819h51 v-888h-51v888z" />
<glyph unicode="&#xb6f0;" d="M627 484v-45h-238v311h231v-45h-178v-221h185zM350 504l6 -45q-88 -20 -206 -20h-37v311h226v-45h-174v-221q104 2 185 20zM672 340l3 -41q-121 -18 -285 -25v-315h-53v313q-100 -4 -280 -4l-8 47q405 0 623 25zM733 817h53v-888h-53v888z" />
<glyph unicode="&#xb6f4;" d="M787 819v-677h-53v677h53zM630 517v-44h-241v288h229v-45h-177v-199h189zM353 538l6 -45q-88 -20 -201 -20h-35v288h219v-45h-167v-199q104 2 178 21zM355 165v166q-129 -5 -290 -5l-8 47q386 0 609 23l4 -40q-107 -15 -262 -22v-169h-53zM243 -3h572v-45h-624v254h52 v-209z" />
<glyph unicode="&#xb6f8;" d="M787 818v-471h-53v471h53zM628 577v-43h-244v247h233v-44h-181v-160h192zM348 598l6 -44q-88 -20 -200 -20h-36v247h219v-44h-167v-160q95 0 178 21zM246 -13h577v-44h-629v204h541v108h-544v43h152v111q-99 -3 -276 -3l-9 45q406 0 611 22l5 -39q-112 -16 -278 -23v-113 h391v-193h-541v-118z" />
<glyph unicode="&#xb700;" d="M628 541v-44h-244v271h233v-44h-180v-183h191zM348 562l6 -45q-88 -20 -200 -20h-36v271h219v-44h-166v-183q101 2 177 21zM734 -11v190h-480v-190h480zM394 370v-147h393v-279h-585v279h139v145q-129 -4 -274 -4l-9 45q374 0 611 21l4 -39q-118 -14 -279 -21zM734 817 h53v-538h-53v538z" />
<glyph unicode="&#xb701;" d="M633 562v-45h-249v254h237v-46h-185v-163h197zM352 579l7 -44q-91 -21 -205 -21h-36v257h219v-46h-167v-167q102 2 182 21zM349 242v143q-125 -5 -283 -5l-8 48q386 0 609 21l5 -40q-102 -13 -271 -22v-145h-52zM733 -11v127h-477v-127h477zM733 161v112h53v-329h-583 v329h53v-112h477zM734 817h53v-508h-53v508z" />
<glyph unicode="&#xb705;" d="M787 819v-568h-53v568h53zM628 536v-45h-244v273h233v-45h-180v-183h191zM347 557l7 -46q-88 -20 -200 -20h-36v273h219v-45h-166v-183q100 2 176 21zM498 -24q110 0 175 30t65 82t-64.5 82.5t-175.5 30.5q-109 0 -174 -30.5t-65 -82.5t65 -82t174 -30zM394 364v-128 q51 8 104 8q138 0 215.5 -40.5t77.5 -115.5q0 -74 -77.5 -114.5t-215.5 -40.5q-137 0 -214.5 40.5t-77.5 114.5q0 99 135 138v136q-129 -4 -274 -4l-9 45q376 0 610 22l4 -40q-116 -14 -278 -21z" />
<glyph unicode="&#xb728;" d="M795 371v-45h-320v393h308v-44h-255v-304h267zM433 398l7 -45q-114 -27 -264 -27h-44v392h292v-45h-240v-302q142 0 249 27zM55 105h807v-46h-807v46z" />
<glyph unicode="&#xb729;" d="M786 529v-45h-302v300h296v-45h-242v-210h248zM443 557l7 -45q-125 -28 -272 -28h-45v300h297v-45h-243v-210q135 0 256 28zM145 180v44h612v-294h-53v250h-559zM56 383h803v-45h-803v45z" />
<glyph unicode="&#xb72c;" d="M786 509v-45h-302v307h296v-45h-242v-217h248zM443 536l7 -44q-120 -28 -272 -28h-45v307h297v-45h-243v-217q139 0 256 27zM217 211v-214h555v-45h-608v259h53zM56 354h803v-45h-803v45z" />
<glyph unicode="&#xb72f;" d="M786 535v-45h-302v295h296v-44h-242v-206h248zM443 562l7 -44q-120 -28 -272 -28h-45v295h297v-44h-243v-207q135 0 256 28zM210 184v-195h558v-45h-609v285h600v-45h-549zM56 391h803v-45h-803v45z" />
<glyph unicode="&#xb730;" d="M790 558v-44h-306v267h296v-44h-243v-179h253zM447 587l8 -45q-128 -28 -276 -28h-46v267h297v-44h-244v-179q140 0 261 29zM211 98v-110h571v-44h-623v195h542v100h-544v42h596v-183h-542zM56 425h803v-45h-803v45z" />
<glyph unicode="&#xb738;" d="M791 535v-45h-307v291h296v-45h-243v-201h254zM447 563l8 -45q-123 -28 -276 -28h-46v291h298v-45h-245v-201q143 0 261 28zM209 189v-200h500v200h-500zM158 -56v289h602v-289h-602zM56 390h803v-45h-803v45z" />
<glyph unicode="&#xb739;" d="M790 539v-45h-306v290h296v-44h-243v-201h253zM448 568l7 -46q-128 -28 -276 -28h-46v290h298v-44h-245v-201q144 0 262 29zM700 -11v134h-481v-134h481zM700 167v116h53v-339h-587v339h53v-116h481zM57 402h803v-45h-803v45z" />
<glyph unicode="&#xb73b;" d="M791 525v-44h-307v294h296v-44h-243v-206h254zM447 554l8 -45q-123 -28 -276 -28h-46v294h298v-44h-245v-206q139 0 261 29zM485 254v-34q0 -48 28 -91t73.5 -73t98 -50.5t107.5 -29.5l-22 -42q-103 20 -190 71t-122 127q-34 -76 -121.5 -127t-190.5 -71l-23 42 q76 13 143.5 43.5t116 84t48.5 116.5v34h54zM56 383h803v-45h-803v45z" />
<glyph unicode="&#xb744;" d="M629 429v-45h-245v338h237v-45h-184v-248h192zM349 450l6 -46q-91 -20 -211 -20h-38v338h229v-45h-176v-248q108 2 190 21zM67 147l-9 47q401 0 613 28l4 -40q-227 -35 -608 -35zM733 818h53v-888h-53v888z" />
<glyph unicode="&#xb748;" d="M786 816v-663h-53v663h53zM626 506v-44h-243v288h235v-44h-183v-200h191zM347 528l7 -45q-86 -21 -200 -21h-35v288h218v-44h-166v-200q103 2 176 22zM661 376l4 -40q-225 -35 -601 -35l-8 46q390 0 605 29zM270 -3h543v-45h-596v253h53v-208z" />
<glyph unicode="&#xb74c;" d="M785 819v-471h-53v471h53zM632 574v-44h-248v253h236v-44h-183v-165h195zM348 595l6 -45q-88 -20 -201 -20h-36v253h220v-44h-168v-165q96 0 179 21zM664 460l5 -39q-221 -25 -603 -25l-9 45q382 0 607 19zM244 -13h577v-44h-629v205h541v109h-543v43h595v-194h-541v-119 z" />
<glyph unicode="&#xb754;" d="M633 539v-45h-248v278h236v-44h-183v-189h195zM352 559l7 -44q-90 -21 -205 -21h-36v278h220v-44h-167v-190q102 2 181 21zM664 420l4 -41q-231 -35 -602 -35l-8 46q391 0 606 30zM250 189v-200h483v200h-483zM198 -56v289h586v-289h-586zM731 818h53v-539h-53v539z" />
<glyph unicode="&#xb755;" d="M633 549v-45h-248v272h236v-45h-183v-182h195zM353 569l6 -44q-90 -21 -205 -21h-36v272h220v-45h-167v-183q103 2 182 21zM664 438l5 -41q-225 -35 -603 -35l-8 46q391 0 606 30zM732 -11v129h-476v-129h476zM732 162v114h53v-332h-582v332h53v-114h476zM732 817h53 v-498h-53v498z" />
<glyph unicode="&#xb760;" d="M149 679v-467q115 2 202 24l7 -46q-106 -24 -223 -24h-39v559h240v-46h-187zM446 679v-467q137 0 235 24l7 -45q-103 -25 -252 -25h-42v559h246v-46h-194zM736 818h53v-888h-53v888z" />
<glyph unicode="&#xb764;" d="M789 818v-645h-53v645h53zM669 410l6 -44q-107 -23 -246 -23h-41v391h241v-45h-189v-301q125 0 229 22zM342 411l7 -45q-104 -23 -218 -23h-39v391h240v-45h-187v-301q105 2 197 23zM280 -3h545v-45h-598v277h53v-232z" />
<glyph unicode="&#xb768;" d="M789 819v-451h-53v451h53zM671 487l6 -44q-94 -20 -248 -20h-41v338h245v-45h-193v-248q144 0 231 19zM343 491l6 -45q-104 -23 -218 -23h-39v338h240v-45h-187v-248q112 2 198 23zM259 -12h567v-44h-618v214h530v116h-533v44h584v-203h-530v-127z" />
<glyph unicode="&#xb770;" d="M669 458l6 -45q-102 -22 -245 -22h-42v356h242v-44h-189v-267q131 0 228 22zM342 458l8 -45q-105 -23 -219 -23h-39v357h240v-44h-187v-268q105 2 197 23zM263 215v-226h475v226h-475zM211 -56v314h579v-314h-579zM737 818h53v-502h-53v502z" />
<glyph unicode="&#xb771;" d="M670 469l5 -44q-102 -22 -245 -22h-42v351h242v-45h-190v-262q126 0 230 22zM353 468l8 -45q-114 -24 -229 -24h-40v355h240v-45h-187v-265q113 2 208 24zM737 -11v138h-471v-138h471zM737 172v135h53v-363h-577v363h53v-135h471zM737 818h53v-465h-53v465z" />
<glyph unicode="&#xb773;" d="M790 818v-601h-53v601h53zM670 432l5 -44q-107 -23 -245 -23h-42v385h242v-45h-189v-295q131 0 229 22zM342 429l8 -44q-105 -23 -219 -23h-39v388h240v-45h-187v-299q105 2 197 23zM526 283v-49q0 -66 50 -122.5t118.5 -89t143.5 -45.5l-22 -42q-105 22 -194 75.5 t-124 133.5q-34 -79 -123 -133.5t-192 -75.5l-22 42q75 14 143 46.5t118 88.5t50 122v49h54z" />
<glyph unicode="&#xb775;" d="M790 819v-542h-53v542h53zM669 438l6 -45q-108 -22 -245 -22h-42v372h242v-45h-190v-282q126 0 229 22zM342 435l8 -45q-105 -23 -219 -23h-39v376h240v-45h-188v-286q106 2 198 23zM501 -25q110 0 175 33t65 90q0 56 -65 89.5t-175 33.5q-109 0 -174 -33.5t-65 -89.5 q0 -57 65 -90t174 -33zM501 264q137 0 214.5 -44t77.5 -122q0 -79 -77.5 -123t-214.5 -44q-136 0 -213.5 44t-77.5 123q0 78 77.5 122t213.5 44z" />
<glyph unicode="&#xb77c;" d="M145 194h16q256 0 430 34l5 -46q-179 -33 -435 -33h-68v326h342v211h-345v46h397v-303h-342v-235zM888 454v-45h-156v-480h-53v889h53v-364h156z" />
<glyph unicode="&#xb77d;" d="M587 410l6 -46q-182 -29 -427 -29h-66v242h342v142h-345v45h396v-230h-341v-154h14q243 0 421 30zM173 183v45h568v-297h-53v252h-515zM880 581v-45h-139v-258h-53v540h53v-237h139z" />
<glyph unicode="&#xb780;" d="M587 384l6 -46q-182 -29 -427 -29h-66v253h342v151h-345v45h396v-239h-341v-165h14q243 0 421 30zM259 213v-216h527v-45h-580v261h53zM741 535h139v-46h-139v-325h-53v654h53v-283z" />
<glyph unicode="&#xb784;" d="M587 465l6 -45q-184 -28 -427 -28h-66v220h342v120h-345v44h396v-205h-341v-136h14q236 0 421 30zM246 108v-121h531v-44h-583v208h495v110h-498v44h550v-197h-495zM741 611h139v-45h-139v-216h-53v468h53v-207z" />
<glyph unicode="&#xb78c;" d="M587 418l6 -46q-189 -30 -427 -30h-66v242h342v140h-345v44h396v-228h-341v-153h14q237 0 421 31zM243 197v-208h446v208h-446zM192 -56v296h549v-296h-549zM880 579v-45h-139v-247h-53v531h53v-239h139z" />
<glyph unicode="&#xb78d;" d="M587 431l6 -46q-182 -29 -427 -29h-66v238h342v133h-345v45h396v-221h-341v-150h14q243 0 421 30zM688 -11v128h-442v-128h442zM688 161v126h53v-343h-548v343h53v-126h442zM880 593v-45h-139v-220h-53v489h53v-224h139z" />
<glyph unicode="&#xb78f;" d="M100 568h342v146h-345v45h396v-235h-341v-157h14q236 0 421 30l6 -45q-189 -30 -427 -30h-66v246zM507 266v-29q0 -51 28 -97t74 -78t99 -54t108 -32l-22 -42q-103 22 -190.5 75.5t-122.5 133.5q-36 -80 -123 -133.5t-190 -75.5l-22 42q54 10 107 32t99 54t74 78t28 97 v29h53zM741 566h139v-45h-139v-298h-53v595h53v-252z" />
<glyph unicode="&#xb790;" d="M442 588v137h-345v45h396v-226h-341v-148h14q263 0 421 30l6 -46q-164 -29 -427 -29h-66v237h342zM667 260v-51q0 -69 52 -133t134 -94l-27 -41q-66 25 -114 72t-71 106q-21 -59 -63 -108.5t-102 -76.5q-126 51 -168 182q-24 -57 -71.5 -103.5t-110.5 -71.5l-27 41 q80 31 133 96.5t53 130.5v51h50v-51q0 -66 37 -127t103 -95q64 38 102.5 101.5t38.5 120.5v51h51zM741 589h139v-46h-139v-249h-53v523h53v-228z" />
<glyph unicode="&#xb791;" d="M587 416l6 -46q-189 -30 -427 -30h-66v239h342v138h-345v45h396v-226h-341v-151h14q237 0 421 31zM461 -25q108 0 171.5 31t63.5 84q0 52 -64 83t-171 31t-171 -31t-64 -83q0 -53 63.5 -84t171.5 -31zM461 247q135 0 211 -41t76 -116t-76 -116.5t-211 -41.5t-211 41.5 t-76 116.5t76.5 116t210.5 41zM741 586h139v-45h-139v-261h-53v538h53v-232z" />
<glyph unicode="&#xb792;" d="M100 584h342v138h-345v45h397v-226h-342v-148h14q237 0 421 31l6 -46q-189 -30 -427 -30h-66v236zM758 196h-260q1 -78 92.5 -140t200.5 -81l-20 -42q-96 19 -180.5 68.5t-119.5 116.5q-34 -68 -118.5 -116.5t-181.5 -67.5l-20 42q110 18 201 79.5t92 140.5h-259v45h573 v-45zM741 586h139v-45h-139v-245h-53v522h53v-232z" />
<glyph unicode="&#xb796;" d="M587 423l6 -45q-189 -30 -427 -30h-66v236h342v139h-345v45h396v-227h-341v-148h14q236 0 421 30zM368 204v-216h215v216h-215zM636 204v-216h142v-44h-603v44h140v216h-132v44h585v-44h-132zM741 591h139v-45h-139v-242h-53v514h53v-227z" />
<glyph unicode="&#xb797;" d="M587 468l6 -45q-182 -29 -427 -29h-66v220h341v120h-344v44h396v-205h-341v-135h14q243 0 421 30zM478 -28q90 0 141.5 21.5t51.5 58.5q0 38 -51.5 59.5t-141.5 21.5t-141.5 -21.5t-51.5 -59.5q0 -37 51.5 -58.5t141.5 -21.5zM478 173q116 0 180 -31t64 -90t-63.5 -89.5 t-180.5 -30.5t-180.5 30.5t-63.5 89.5t63.5 90t180.5 31zM504 361v-95h282v-43h-616v43h281v95h53zM741 605h139v-45h-139v-236h-53v494h53v-213z" />
<glyph unicode="&#xb798;" d="M141 198h4q190 0 338 27l6 -45q-158 -28 -344 -28h-56v317h277v202h-279v46h330v-293h-276v-226zM754 819h52v-889h-52v483h-153v-435h-51v819h51v-339h153v361z" />
<glyph unicode="&#xb799;" d="M492 387l7 -44q-150 -30 -343 -30h-55v246h278v147h-281v44h332v-234h-278v-158h4q197 0 336 29zM214 167v45h586v-282h-53v237h-533zM749 817h51v-557h-51v268h-149v-257h-51v530h51v-228h149v244z" />
<glyph unicode="&#xb79c;" d="M600 500v-315h-51v616h51v-256h149v273h51v-662h-51v344h-149zM492 370l7 -45q-150 -30 -343 -30h-55v248h278v152h-281v44h332v-239h-278v-160h4q198 0 336 30zM285 -3h545v-45h-598v262h53v-217z" />
<glyph unicode="&#xb7a0;" d="M600 563v-210h-51v449h51v-194h149v210h51v-475h-51v220h-149zM492 457l7 -44q-144 -29 -343 -29h-55v219h278v119h-281v44h332v-206h-278v-132h4q203 0 336 29zM280 -13h556v-44h-608v205h521v106h-523v43h574v-192h-520v-118z" />
<glyph unicode="&#xb7a8;" d="M492 404l7 -44q-150 -30 -343 -30h-55v242h278v140h-281v44h332v-227h-278v-155h4q192 0 336 30zM280 194v-205h469v205h-469zM228 -56v294h572v-294h-572zM749 817h51v-532h-51v252h-149v-238h-51v502h51v-219h149v235z" />
<glyph unicode="&#xb7a9;" d="M492 434l7 -45q-151 -29 -343 -29h-55v230h278v128h-281v44h332v-215h-278v-143h4q198 0 336 30zM749 -11v132h-466v-132h466zM749 165v119h51v-340h-570v340h53v-119h466zM749 818h51v-490h-51v227h-149v-217h-51v464h51v-202h149v218z" />
<glyph unicode="&#xb7ab;" d="M600 530v-242h-51v514h51v-227h149v243h51v-609h-51v321h-149zM492 380l7 -44q-154 -31 -343 -31h-55v246h278v149h-281v44h332v-235h-278v-159h4q198 0 336 30zM539 251v-28q0 -89 98.5 -157.5t213.5 -89.5l-22 -42q-101 20 -191.5 74t-125.5 130q-36 -77 -126 -130.5 t-191 -73.5l-22 42q71 13 140.5 45t120.5 86.5t51 115.5v28h54z" />
<glyph unicode="&#xb7ac;" d="M600 535v-239h-51v505h51v-221h149v237h51v-528h-51v246h-149zM101 571h278v138h-281v44h332v-225h-278v-152h4q192 0 336 30l7 -44q-150 -30 -343 -30h-55v239zM685 255v-48q0 -69 52.5 -132.5t133.5 -92.5l-27 -41q-65 25 -113.5 72t-71.5 105q-21 -59 -63.5 -108.5 t-102.5 -75.5q-124 51 -167 180q-24 -56 -72 -102.5t-111 -71.5l-26 41q81 31 133.5 95.5t52.5 129.5v49h50v-48q0 -65 37 -125.5t102 -94.5q65 37 103.5 100.5t38.5 119.5v48h51z" />
<glyph unicode="&#xb7ad;" d="M600 525v-225h-51v501h51v-231h149v247h51v-550h-51v258h-149zM492 399l7 -45q-150 -30 -343 -30h-55v241h278v138h-281v44h332v-225h-278v-153h4q198 0 336 30zM513 -24q111 0 175.5 30.5t64.5 82.5t-64.5 82.5t-175.5 30.5q-109 0 -173.5 -30.5t-64.5 -82.5t64.5 -82.5 t173.5 -30.5zM513 245q137 0 214.5 -41t77.5 -115t-77.5 -115t-214.5 -41t-213.5 40.5t-76.5 115.5t76.5 115.5t213.5 40.5z" />
<glyph unicode="&#xb7b4;" d="M145 194h16q256 0 430 34l5 -46q-179 -33 -435 -33h-68v326h342v211h-345v46h397v-303h-342v-235zM884 535h-152v-219h152v-45h-152v-342h-53v889h53v-237h152v-46z" />
<glyph unicode="&#xb7b5;" d="M587 410l6 -46q-182 -29 -427 -29h-66v242h342v142h-345v45h396v-230h-341v-154h14q243 0 421 30zM173 183v45h568v-297h-53v252h-515zM880 620h-139v-139h139v-46h-139v-157h-53v540h53v-152h139v-46z" />
<glyph unicode="&#xb7b8;" d="M587 382l6 -44q-189 -30 -427 -30h-66v254h342v151h-345v45h396v-240h-341v-165h14q234 0 421 29zM259 213v-216h527v-45h-580v261h53zM880 597h-139v-164h139v-45h-139v-224h-53v654h53v-176h139v-45z" />
<glyph unicode="&#xb7c7;" d="M100 568h342v146h-345v45h396v-235h-341v-157h14q236 0 421 30l6 -45q-189 -30 -427 -30h-66v246zM507 268v-30q0 -51 28 -96.5t74 -77.5t99 -54t108 -32l-22 -43q-103 22 -190.5 76t-122.5 133q-36 -79 -123.5 -133.5t-189.5 -75.5l-22 43q55 10 107.5 32t98.5 54 t74 77.5t28 96.5v30h53zM880 604h-139v-140h139v-46h-139v-195h-53v595h53v-169h139v-45z" />
<glyph unicode="&#xb7c9;" d="M587 416l6 -46q-189 -30 -427 -30h-66v239h342v138h-345v45h396v-226h-341v-151h14q237 0 421 31zM461 -25q108 0 171.5 31t63.5 84q0 52 -64 83t-171 31t-171 -31t-64 -83q0 -53 63.5 -84t171.5 -31zM461 247q135 0 211 -41t76 -116t-76 -116.5t-211 -41.5t-211 41.5 t-76 116.5t76.5 116t210.5 41zM880 623h-139v-142h139v-45h-139v-157h-53v539h53v-149h139v-46z" />
<glyph unicode="&#xb7ec;" d="M143 192h13q243 0 407 31l5 -45q-167 -31 -412 -31h-65v332h341v207h-343v46h395v-298h-341v-242zM726 818h53v-889h-53v490h-187v45h187v354z" />
<glyph unicode="&#xb7ed;" d="M562 406l5 -45q-173 -27 -407 -27h-64v242h335v143h-338v45h390v-232h-335v-153h12q234 0 402 27zM194 177v44h586v-292h-53v248h-533zM727 818h53v-541h-53v277h-182v45h182v219z" />
<glyph unicode="&#xb7f0;" d="M727 167v362h-183v46h183v242h53v-650h-53zM561 364l6 -45q-150 -26 -407 -26h-65v260h334v157h-336v44h389v-245h-334v-171h12q256 0 401 26zM271 -3h539v-45h-592v262h53v-217z" />
<glyph unicode="&#xb7f4;" d="M727 350v231h-183v45h183v192h53v-468h-53zM563 461l5 -44q-187 -28 -408 -28h-64v219h334v123h-337v44h390v-209h-334v-133h11q229 0 403 28zM267 -11h552v-46h-604v203h513v111h-515v43h567v-195h-513v-116z" />
<glyph unicode="&#xb7fc;" d="M562 412l5 -45q-179 -28 -407 -28h-64v244h335v143h-338v45h390v-231h-335v-156h12q228 0 402 28zM261 198v-209h467v209h-467zM209 -56v298h571v-298h-571zM727 817h53v-521h-53v269h-182v45h182v207z" />
</font>
</defs>
</svg>
