<?xml version="1.0" standalone="no"?>
<!DOCTYPE svg PUBLIC "-//W3C//DTD SVG 1.1//EN" "http://www.w3.org/Graphics/SVG/1.1/DTD/svg11.dtd" >
<svg xmlns="http://www.w3.org/2000/svg" xmlns:xlink="http://www.w3.org/1999/xlink" version="1.1">
<metadata></metadata>
<defs>
<font id="notokr-thinregular" horiz-adv-x="920" >
<font-face units-per-em="1000" ascent="800" descent="-200" />
<missing-glyph horiz-adv-x="220" />
<glyph unicode=" "  horiz-adv-x="220" />
<glyph unicode="&#x09;" horiz-adv-x="220" />
<glyph unicode="&#xa0;" horiz-adv-x="220" />
<glyph unicode="!" horiz-adv-x="275" d="M123 190l-4 478v69h37v-69l-4 -478h-29zM137 -13q-16 0 -28 12t-12 31q0 21 12 33t28 12q17 0 29 -12t12 -33q0 -19 -12 -31t-29 -12z" />
<glyph unicode="&#x22;" horiz-adv-x="374" d="M99 540l-7 156v67h44v-67l-6 -156h-31zM243 540l-8 156v67h45v-67l-8 -156h-29z" />
<glyph unicode="#" horiz-adv-x="521" d="M103 0l29 240h-92v32h96l25 194h-99v32h101l28 217h32l-28 -217h170l29 217h32l-28 -217h90v-32h-93l-24 -194h94v-32h-99l-28 -240h-32l28 240h-170l-29 -240h-32zM168 272h171l24 194h-171z" />
<glyph unicode="$" horiz-adv-x="521" d="M435 640l-23 -23q-35 36 -65.5 51.5t-79.5 15.5q-58 0 -95.5 -38t-37.5 -94q0 -41 17.5 -71.5t46 -49.5t62.5 -35.5t68 -35.5t62.5 -42.5t46 -62.5t17.5 -91q0 -76 -47.5 -123.5t-121.5 -52.5v-109h-34v109q-101 7 -183 85l21 26q83 -79 179 -79q71 0 110 38.5t39 103.5 q0 46 -17.5 81t-46 56.5t-62.5 39.5t-68 35.5t-62.5 38.5t-46 55.5t-17.5 80.5q0 68 43.5 114.5t110.5 52.5v109h34v-108q49 -3 83 -23t67 -54z" />
<glyph unicode="%" horiz-adv-x="880" d="M198 284q-72 0 -112 59.5t-40 169.5q0 108 40 167t112 59t112.5 -59t40.5 -167q0 -110 -40 -169.5t-113 -59.5zM198 313q55 0 86.5 53t31.5 147q0 93 -31.5 145t-86.5 52t-86.5 -52t-31.5 -145t32 -146.5t86 -53.5zM216 -13l407 752h36l-406 -752h-37zM682 -13 q-73 0 -113 59.5t-40 169.5q0 108 40.5 167t112.5 59q71 0 111.5 -59t40.5 -167q0 -110 -40.5 -169.5t-111.5 -59.5zM682 16q54 0 86 53.5t32 146.5t-32 145t-86 52q-55 0 -87 -52t-32 -145t32 -146.5t87 -53.5z" />
<glyph unicode="&#x26;" horiz-adv-x="621" d="M250 20q87 0 168 83q-132 121 -212 268q-61 -48 -94 -90.5t-33 -95.5q0 -73 49.5 -119t121.5 -46zM177 583q0 -73 43 -164q49 37 74.5 59t49 58t23.5 73q0 41 -20 69.5t-62 28.5q-49 0 -78.5 -36t-29.5 -88zM607 20l-13 -33q-74 27 -151 94q-91 -94 -196 -94 q-86 0 -145.5 54t-59.5 142q0 63 39 112t111 104q-49 101 -49 182q0 69 40 113.5t104 44.5q55 0 85 -35.5t30 -91.5q0 -32 -11.5 -60.5t-40.5 -58.5t-46 -44.5t-61 -48.5l-3 -3t-3 -2.5t-4 -2.5q74 -142 207 -263q76 95 119 248h36q-47 -162 -130 -270q76 -62 142 -87z" />
<glyph unicode="'" horiz-adv-x="231" d="M99 540l-7 156v67h44v-67l-6 -156h-31z" />
<glyph unicode="(" horiz-adv-x="299" d="M244 -191q-145 234 -145 497t145 498l21 -14q-133 -210 -133 -484q0 -275 133 -484z" />
<glyph unicode=")" horiz-adv-x="299" d="M55 -191l-22 13q134 210 134 484q0 272 -134 484l22 14q145 -235 145 -498t-145 -497z" />
<glyph unicode="*" horiz-adv-x="427" d="M143 524l-24 17l59 96l-98 37l10 28l101 -29l7 111h30l7 -109l101 27l9 -28l-97 -37l60 -96l-25 -17l-69 90z" />
<glyph unicode="+" horiz-adv-x="521" d="M242 123v224h-205v32h205v225h37v-225h205v-32h-205v-224h-37z" />
<glyph unicode="," horiz-adv-x="231" d="M66 -166l-13 27q79 44 80 133q-4 -1 -13 -1q-18 0 -29.5 11t-11.5 30t12 30t29 11q22 0 35.5 -19t13.5 -51q0 -54 -28.5 -98.5t-74.5 -72.5z" />
<glyph unicode="-" horiz-adv-x="324" d="M44 256v35h239v-35h-239z" />
<glyph unicode="." horiz-adv-x="231" d="M115 -13q-16 0 -28 12t-12 31q0 21 12 33t28 12q17 0 29 -12t12 -33q0 -19 -12 -31t-29 -12z" />
<glyph unicode="/" horiz-adv-x="396" d="M9 -176l350 958h34l-349 -958h-35z" />
<glyph unicode="0" horiz-adv-x="521" d="M261 -13q-99 0 -152.5 95t-53.5 283q0 186 53.5 280t152.5 94q97 0 151 -94t54 -280q0 -188 -54 -283t-151 -95zM261 20q78 0 123 90t45 255q0 163 -45 252.5t-123 89.5t-123.5 -89.5t-45.5 -252.5q0 -165 45.5 -255t123.5 -90z" />
<glyph unicode="1" horiz-adv-x="521" d="M95 0v33h167v625h-127v26q81 13 131 42h31v-693h156v-33h-358z" />
<glyph unicode="2" horiz-adv-x="521" d="M46 0v23q188 161 269.5 283.5t81.5 228.5q0 75 -40 123t-119 48q-95 0 -169 -93l-25 23q92 103 197 103q91 0 142.5 -55.5t51.5 -148.5q0 -114 -81 -233t-248 -274q67 5 119 5h246v-33h-425z" />
<glyph unicode="3" horiz-adv-x="521" d="M253 -13q-125 0 -220 99l23 26q84 -92 199 -92q75 0 123 46.5t48 122.5q0 82 -62 128.5t-190 46.5v35q118 0 171.5 46t53.5 122q0 62 -40.5 101t-107.5 40q-95 -3 -164 -79l-23 26q86 84 187 85q81 -1 134 -46.5t53 -124.5q0 -71 -37.5 -117.5t-99.5 -66.5v-4 q70 -14 116.5 -64.5t46.5 -125.5q0 -92 -59.5 -148t-151.5 -56z" />
<glyph unicode="4" horiz-adv-x="521" d="M66 245h277v299q0 61 5 113h-5q-21 -39 -57 -96zM486 245v-32h-108v-213h-35v213h-325v19l335 494h25v-481h108z" />
<glyph unicode="5" horiz-adv-x="521" d="M247 -13q-75 0 -125.5 26t-92.5 68l23 27q82 -88 197 -88q74 0 127.5 59t53.5 150q0 93 -48.5 147t-130.5 54q-63 0 -133 -48l-30 18l26 326h317v-33h-284l-24 -267q61 38 131 38q95 0 154.5 -58.5t59.5 -174.5q0 -111 -66.5 -177.5t-154.5 -66.5z" />
<glyph unicode="6" horiz-adv-x="521" d="M289 20q63 0 105.5 57t42.5 139q0 89 -39 143t-120 54q-42 0 -89 -27t-89 -83q6 -130 53 -206.5t136 -76.5zM460 673l-24 -25q-46 58 -120 58q-96 0 -156 -85.5t-61 -274.5q80 98 181 98q94 0 144.5 -58.5t50.5 -169.5q0 -97 -55.5 -163t-132.5 -66q-106 0 -165.5 92.5 t-59.5 259.5q0 209 71.5 304.5t183.5 95.5q84 0 143 -66z" />
<glyph unicode="7" horiz-adv-x="521" d="M210 0q9 225 58 383t158 310h-378v33h427v-21q-123 -164 -169 -320t-55 -385h-41z" />
<glyph unicode="8" horiz-adv-x="521" d="M265 -13q-96 0 -158.5 55t-62.5 138q0 70 42.5 125t100.5 87v4q-101 65 -101 163q0 76 51.5 126t127.5 50q87 0 137 -53t50 -136q0 -54 -31 -103t-69 -81v-5q56 -34 89.5 -77.5t33.5 -110.5q0 -77 -59 -129.5t-151 -52.5zM318 373q98 78 98 173q0 66 -41 111.5t-110 45.5 q-62 0 -102 -41t-40 -103q0 -38 15.5 -67.5t48 -52t59.5 -35.5t72 -31zM265 20q77 0 124.5 43t47.5 106q0 35 -14 64t-30.5 47t-53 38.5t-58 29.5t-67.5 27q-133 -75 -133 -195q0 -67 52.5 -113.5t131.5 -46.5z" />
<glyph unicode="9" horiz-adv-x="521" d="M243 313q97 0 182 115q-3 128 -51 203.5t-140 75.5q-63 0 -105.5 -57t-42.5 -140q0 -88 39 -142.5t118 -54.5zM64 53l23 26q52 -59 130 -59q87 0 145 86.5t63 274.5q-87 -99 -185 -99q-91 0 -141.5 59.5t-50.5 168.5q0 98 55 163.5t133 65.5q106 0 166 -86.5t60 -243.5 q0 -114 -20.5 -198t-56 -131.5t-78.5 -70t-93 -22.5q-89 0 -150 66z" />
<glyph unicode=":" horiz-adv-x="231" d="M115 415q-16 0 -28 11.5t-12 31.5q0 21 12 33t28 12q17 0 29 -12t12 -33q0 -20 -12 -31.5t-29 -11.5zM115 -13q-16 0 -28 12t-12 31q0 21 12 33t28 12q17 0 29 -12t12 -33q0 -19 -12 -31t-29 -12z" />
<glyph unicode=";" horiz-adv-x="231" d="M115 415q-16 0 -28 11.5t-12 31.5q0 21 12 33t28 12q17 0 29 -12t12 -33q0 -20 -12 -31.5t-29 -11.5zM66 -166l-13 27q79 44 80 133q-4 -1 -13 -1q-18 0 -29.5 11t-11.5 30t12 30t29 11q22 0 35.5 -19t13.5 -51q0 -54 -28.5 -98.5t-74.5 -72.5z" />
<glyph unicode="&#x3c;" horiz-adv-x="521" d="M484 166l-447 179v41l447 178v-37l-263 -102l-146 -58v-4l146 -57l263 -103v-37z" />
<glyph unicode="=" horiz-adv-x="521" d="M37 458v31h447v-31h-447zM37 237v32h447v-32h-447z" />
<glyph unicode="&#x3e;" horiz-adv-x="521" d="M37 166v37l263 103l146 57v4l-146 58l-263 102v37l447 -178v-41z" />
<glyph unicode="?" horiz-adv-x="435" d="M180 190q-7 52 7 98t39 81t51 67.5t45 70t19 76.5q0 56 -33.5 95.5t-97.5 39.5q-89 0 -147 -72l-23 21q75 84 172 84q77 0 121.5 -47.5t44.5 -118.5q0 -41 -19 -81.5t-45.5 -74t-52 -68.5t-40 -79t-8.5 -92h-33zM201 -13q-17 0 -28.5 11.5t-11.5 31.5q0 21 11.5 33 t28.5 12t29 -12t12 -33q0 -19 -12 -31t-29 -12z" />
<glyph unicode="@" horiz-adv-x="885" d="M421 -157q-161 0 -262.5 102t-101.5 277q0 207 127.5 338.5t303.5 131.5q156 0 248 -94t92 -250q0 -129 -62 -206.5t-135 -77.5q-45 0 -73 21t-31 62h-2q-75 -77 -135 -77q-53 0 -88.5 38.5t-35.5 109.5q0 55 23 110t71.5 95t109.5 40q59 0 92 -53h2l9 44h30l-38 -203 q-38 -155 68 -155q59 0 109.5 69t50.5 180q0 145 -83.5 230t-224.5 85q-76 0 -147 -31.5t-126 -87t-88 -138.5t-33 -179q0 -159 91 -253.5t241 -94.5q99 0 187 54l17 -28q-95 -59 -206 -59zM394 102q57 0 124 77l35 195q-21 32 -40 44t-46 12q-72 0 -119 -65.5t-47 -144.5 q0 -61 25.5 -89.5t67.5 -28.5z" />
<glyph unicode="A" horiz-adv-x="574" d="M150 290h272l-50 145q-50 143 -83 253h-4q-27 -92 -84 -253zM523 0l-90 258h-294l-91 -258h-37l259 726h33l260 -726h-40z" />
<glyph unicode="B" horiz-adv-x="632" d="M110 0v726h190q112 0 174.5 -44t62.5 -132q0 -59 -29.5 -100.5t-85.5 -57.5v-5q74 -12 117 -57t43 -119q0 -102 -71.5 -156.5t-197.5 -54.5h-203zM147 404h131q220 0 220 144q0 78 -52.5 112t-160.5 34h-138v-290zM147 33h153q117 0 181 43.5t64 132.5q0 162 -245 162 h-153v-338z" />
<glyph unicode="C" horiz-adv-x="619" d="M362 -13q-135 0 -217.5 103.5t-82.5 274.5t83.5 272.5t222.5 101.5q113 0 185 -86l-23 -25q-66 76 -162 76q-124 0 -195.5 -91t-71.5 -248t71 -250t192 -93q105 0 188 92l23 -24q-89 -103 -213 -103z" />
<glyph unicode="D" horiz-adv-x="661" d="M110 0v726h163q164 0 245 -96t81 -265t-81.5 -267t-243.5 -98h-164zM147 33h121q148 0 220 90t72 242t-72 240t-220 88h-121v-660z" />
<glyph unicode="E" horiz-adv-x="562" d="M110 0v726h390v-33h-353v-289h296v-33h-296v-338h364v-33h-401z" />
<glyph unicode="F" horiz-adv-x="518" d="M110 0v726h388v-33h-351v-303h296v-32h-296v-358h-37z" />
<glyph unicode="G" horiz-adv-x="661" d="M368 -13q-138 0 -222 103.5t-84 274.5t86.5 272.5t230.5 101.5q114 0 194 -86l-23 -25q-69 76 -171 76q-129 0 -203.5 -91.5t-74.5 -247.5q0 -157 72 -250t198 -93q113 0 171 58v238h-179v33h218v-283q-76 -81 -213 -81z" />
<glyph unicode="H" horiz-adv-x="698" d="M110 0v726h37v-322h404v322h38v-726h-38v371h-404v-371h-37z" />
<glyph unicode="I" horiz-adv-x="257" d="M110 0v726h37v-726h-37z" />
<glyph unicode="J" horiz-adv-x="503" d="M221 -13q-117 0 -174 104l31 19q27 -47 61.5 -67.5t82.5 -20.5q70 0 103 42.5t33 132.5v529h38v-534q0 -93 -42 -149t-133 -56z" />
<glyph unicode="K" horiz-adv-x="607" d="M110 0v726h37v-416h2l367 416h47l-233 -266l264 -460h-44l-248 431l-155 -175v-256h-37z" />
<glyph unicode="L" horiz-adv-x="508" d="M110 0v726h37v-693h340v-33h-377z" />
<glyph unicode="M" horiz-adv-x="770" d="M110 0v726h59l155 -438q20 -54 60 -164h4q11 31 31 88.5t26 75.5l156 438h59v-726h-37v502q0 72 4 190h-4l-56 -160l-163 -451h-39l-164 451l-57 160h-4q5 -98 5 -190v-502h-35z" />
<glyph unicode="N" horiz-adv-x="696" d="M110 0v726h39l320 -529l83 -143h5q-6 105 -6 205v467h36v-726h-40l-319 529l-83 143h-4q4 -136 4 -199v-473h-35z" />
<glyph unicode="O" horiz-adv-x="714" d="M357 -13q-130 0 -212.5 104t-82.5 274t82 272t213 102t213 -102t82 -272t-82.5 -274t-212.5 -104zM357 22q115 0 185.5 94t70.5 249t-70.5 247t-185.5 92t-185.5 -92t-70.5 -247t70.5 -249t185.5 -94z" />
<glyph unicode="P" horiz-adv-x="598" d="M110 0v726h175q129 0 194.5 -46.5t65.5 -151.5q0 -104 -66 -156t-190 -52h-142v-320h-37zM147 353h129q118 0 173.5 41t55.5 134q0 92 -55.5 128.5t-177.5 36.5h-125v-340z" />
<glyph unicode="Q" horiz-adv-x="714" d="M101 365q0 -156 70.5 -250.5t185.5 -94.5t185.5 94.5t70.5 250.5q0 155 -70.5 247t-185.5 92t-185.5 -92t-70.5 -247zM642 -122l9 -34q-36 -12 -85 -12q-85 0 -145 43t-87 113q-121 9 -196.5 111.5t-75.5 265.5q0 170 82 272t213 102t213 -102t82 -272q0 -163 -76.5 -266 t-198.5 -111q50 -119 193 -119q41 0 72 9z" />
<glyph unicode="R" horiz-adv-x="589" d="M147 374h151q207 0 207 165q0 82 -52 118t-155 36h-151v-319zM556 0h-43l-205 342h-161v-342h-37v726h201q234 0 234 -187q0 -86 -51 -136t-143 -59z" />
<glyph unicode="S" horiz-adv-x="569" d="M295 -13q-147 0 -242 110l25 26q86 -101 217 -101q86 0 138 42.5t52 111.5q0 35 -9.5 60.5t-31.5 44t-40.5 29t-52.5 26.5l-111 50q-30 13 -50.5 25t-46 33.5t-38.5 51.5t-13 68q0 78 58 126.5t148 48.5q119 0 198 -86l-23 -25q-71 76 -175 76q-76 0 -122 -37.5 t-46 -98.5q0 -26 9 -48.5t20 -36t32 -27.5t32.5 -19.5t33.5 -15.5l111 -50q75 -34 114.5 -75t39.5 -117q0 -84 -62.5 -138t-164.5 -54z" />
<glyph unicode="T" horiz-adv-x="573" d="M267 0v693h-234v33h507v-33h-234v-693h-39z" />
<glyph unicode="U" horiz-adv-x="694" d="M346 -13q-48 0 -87.5 13.5t-75 44t-55.5 88.5t-20 139v454h37v-446q0 -138 56 -198t145 -60q91 0 148 60t57 198v446h36v-454q0 -81 -20.5 -139t-56.5 -88.5t-76 -44t-88 -13.5z" />
<glyph unicode="V" horiz-adv-x="532" d="M248 0l-241 726h39l140 -434q53 -170 79 -245h4q14 40 80 245l139 434h38l-240 -726h-38z" />
<glyph unicode="W" horiz-adv-x="842" d="M201 0l-168 726h39l96 -438q10 -43 27.5 -124t25.5 -114h4q18 80 58 238l117 438h42l118 -438q11 -44 31 -125t28 -113h5q17 80 49 238l97 438h37l-166 -726h-39l-139 518q0 2 -40 163h-4q-6 -28 -20.5 -80.5t-21.5 -82.5l-137 -518h-39z" />
<glyph unicode="X" horiz-adv-x="519" d="M20 0l220 376l-205 350h41l125 -222q40 -66 60 -98h4q43 78 55 98l127 222h38l-205 -352l220 -374h-40l-133 232q-21 37 -69 115h-4q-36 -66 -64 -115l-132 -232h-38z" />
<glyph unicode="Y" horiz-adv-x="482" d="M222 0v298l-218 428h40l115 -233q68 -137 80 -158h4q57 105 81 158l116 233h37l-218 -428v-298h-37z" />
<glyph unicode="Z" horiz-adv-x="592" d="M57 0v22l429 671h-391v33h438v-21l-429 -672h434v-33h-481z" />
<glyph unicode="[" horiz-adv-x="299" d="M110 -167v947h168v-26h-140v-896h140v-25h-168z" />
<glyph unicode="\" horiz-adv-x="396" d="M352 -176l-349 958h34l350 -958h-35z" />
<glyph unicode="]" horiz-adv-x="299" d="M21 -167v25h140v896h-140v26h168v-947h-168z" />
<glyph unicode="^" horiz-adv-x="521" d="M75 321l165 416h41l165 -416h-37l-89 234l-57 145h-5l-57 -145l-89 -234h-37z" />
<glyph unicode="_" horiz-adv-x="550" d="M13 -126v36h524v-36h-524z" />
<glyph unicode="`" horiz-adv-x="586" d="M330 631l-153 166l28 23l146 -169z" />
<glyph unicode="a" horiz-adv-x="536" d="M218 -13q-66 0 -109 36t-43 107q0 86 81.5 132t262.5 67q6 178 -128 178q-91 0 -172 -64l-18 29q93 68 192 68q162 0 162 -199v-341h-30l-5 70h-3q-102 -83 -190 -83zM221 20q85 0 189 89v189q-167 -18 -237 -58t-70 -109q0 -57 33 -84t85 -27z" />
<glyph unicode="b" horiz-adv-x="593" d="M302 -13q-78 0 -159 66h-3l-5 -53h-30v794h36v-234l-3 -106q103 86 186 86q105 0 158.5 -71.5t53.5 -197.5q0 -130 -68 -207t-166 -77zM305 20q84 0 138.5 70.5t54.5 180.5q0 108 -42.5 172t-134.5 64q-78 0 -180 -91v-325q82 -71 164 -71z" />
<glyph unicode="c" horiz-adv-x="492" d="M295 -13q-103 0 -169.5 74t-66.5 201q0 128 68.5 203t168.5 75q84 0 154 -66l-23 -26q-63 59 -131 59q-84 0 -141.5 -69t-57.5 -176q0 -108 54.5 -175t144.5 -67q79 0 146 63l21 -26q-79 -70 -168 -70z" />
<glyph unicode="d" horiz-adv-x="595" d="M277 -13q-101 0 -159.5 72t-58.5 203q0 124 68.5 201t167.5 77q45 0 81.5 -16t80.5 -50l-3 99v221h36v-794h-30l-5 70h-2q-83 -83 -176 -83zM280 20q83 0 174 91v324q-80 72 -161 72q-83 0 -139.5 -71.5t-56.5 -173.5q0 -110 48.5 -176t134.5 -66z" />
<glyph unicode="e" horiz-adv-x="527" d="M300 -13q-103 0 -172 74.5t-69 200.5q0 124 67.5 201t159.5 77q93 0 146 -63.5t53 -179.5q0 -23 -2 -36h-386q0 -105 56.5 -173t148.5 -68q79 0 145 48l16 -31q-26 -16 -43.5 -24.5t-50.5 -17t-69 -8.5zM97 294h353q0 105 -44 159t-120 54q-73 0 -127 -58t-62 -155z" />
<glyph unicode="f" horiz-adv-x="279" d="M306 790l-11 -31q-32 16 -64 16q-86 0 -86 -125v-123h125v-33h-125v-494h-35v494h-73v28l73 5v128q0 76 32 114t90 38q35 0 74 -17z" />
<glyph unicode="g" horiz-adv-x="530" d="M275 -257q-100 0 -158 40t-58 107q0 34 21.5 69t58.5 61v4q-47 28 -47 84q0 57 58 97v4q-67 59 -67 145q0 80 52.5 133t128.5 53q36 0 69 -13h176v-33h-126q62 -52 62 -140q0 -79 -52.5 -133t-128.5 -54q-51 0 -89 24q-46 -36 -46 -80q0 -73 103 -73h117q87 0 128 -28.5 t41 -89.5q0 -70 -68 -123.5t-175 -53.5zM264 200q59 0 101.5 43.5t42.5 110.5q0 69 -41.5 111t-102.5 42q-60 0 -101.5 -42t-41.5 -111q0 -67 42 -110.5t101 -43.5zM277 -225q90 0 147 43t57 98q0 45 -31.5 65.5t-95.5 20.5h-120q-27 0 -64 9q-73 -49 -73 -118 q0 -53 47.5 -85.5t132.5 -32.5z" />
<glyph unicode="h" horiz-adv-x="575" d="M105 0v794h36v-353q48 48 90.5 73.5t93.5 25.5q81 0 120 -49.5t39 -151.5v-339h-36v334q0 88 -30 130.5t-97 42.5q-46 0 -86 -24.5t-94 -79.5v-403h-36z" />
<glyph unicode="i" horiz-adv-x="245" d="M105 0v527h36v-527h-36zM124 660q-16 0 -27 10.5t-11 27.5q0 18 11 28.5t27 10.5t27.5 -10.5t11.5 -28.5q0 -17 -11.5 -27.5t-27.5 -10.5z" />
<glyph unicode="j" horiz-adv-x="245" d="M31 -256q-36 0 -64 13l9 29q36 -11 57 -11q42 0 57 30.5t15 88.5v633h36v-637q0 -75 -27 -110.5t-83 -35.5zM124 660q-16 0 -27 10.5t-11 27.5q0 18 11 28.5t27 10.5t27.5 -10.5t11.5 -28.5q0 -17 -11.5 -27.5t-27.5 -10.5z" />
<glyph unicode="k" horiz-adv-x="499" d="M105 0v794h36v-600h2l271 333h42l-170 -208l200 -319h-39l-182 292l-124 -147v-145h-36z" />
<glyph unicode="l" horiz-adv-x="254" d="M159 -13q-54 0 -54 72v735h36v-741q0 -33 22 -33q8 0 19 2l7 -31q-18 -4 -30 -4z" />
<glyph unicode="m" horiz-adv-x="889" d="M105 0v527h30l6 -84h2q85 97 167 97q117 0 145 -110q100 110 181 110q156 0 156 -201v-339h-35v334q0 173 -125 173q-73 0 -166 -104v-403h-35v334q0 173 -124 173q-76 0 -166 -104v-403h-36z" />
<glyph unicode="n" horiz-adv-x="580" d="M105 0v527h30l6 -84h2q95 97 182 97q81 0 120 -49.5t39 -151.5v-339h-36v334q0 88 -30 130.5t-97 42.5q-46 0 -86 -24.5t-94 -79.5v-403h-36z" />
<glyph unicode="o" horiz-adv-x="586" d="M293 -13q-99 0 -166.5 74.5t-67.5 200.5q0 128 67.5 203t166.5 75t166.5 -75t67.5 -203q0 -126 -67.5 -200.5t-166.5 -74.5zM293 20q85 0 141 67.5t56 174.5q0 108 -56 176.5t-141 68.5t-140.5 -68.5t-55.5 -176.5q0 -107 55.5 -174.5t140.5 -67.5z" />
<glyph unicode="p" horiz-adv-x="595" d="M141 416v-325q85 -71 164 -71q84 0 138.5 70.5t54.5 180.5q0 108 -42.5 172t-134.5 64q-75 0 -180 -91zM105 -243v770h30l6 -68h2q103 81 181 81q105 0 158.5 -71.5t53.5 -197.5q0 -130 -68 -207t-166 -77q-73 0 -161 66v-296h-36z" />
<glyph unicode="q" horiz-adv-x="595" d="M454 -243v208l3 108q-90 -86 -180 -86q-101 0 -159.5 72t-58.5 203q0 124 68.5 201t167.5 77q45 0 81 -15.5t77 -46.5h2l5 49h30v-770h-36zM280 20q83 0 174 91v324q-80 72 -161 72q-83 0 -139.5 -71.5t-56.5 -173.5q0 -110 48.5 -176t134.5 -66z" />
<glyph unicode="r" horiz-adv-x="339" d="M105 0v527h30l6 -99h2q61 112 149 112q29 0 51 -11l-9 -33q-22 9 -47 9q-39 0 -78 -34t-68 -107v-364h-36z" />
<glyph unicode="s" horiz-adv-x="441" d="M229 -13q-105 0 -192 72l23 29q79 -68 171 -68q63 0 98 31.5t35 79.5q0 46 -36 73.5t-96 48.5q-27 10 -35.5 13t-32.5 13t-33.5 16.5t-26 19t-23.5 24.5t-13 28.5t-6 35.5q0 58 44 97.5t122 39.5q82 0 146 -54l-21 -27q-65 48 -128 48q-61 0 -93.5 -29.5t-32.5 -72.5 q0 -22 9.5 -39.5t31.5 -31.5t38 -21t48 -19q3 -1 24.5 -9t26 -10t23.5 -10t24.5 -12t20 -13t19.5 -15.5t14.5 -17t13 -21t6.5 -24.5t3 -29q0 -61 -46 -103.5t-126 -42.5z" />
<glyph unicode="t" horiz-adv-x="334" d="M241 -13q-69 0 -96.5 39t-27.5 114v354h-84v28l84 5l4 154h31v-154h156v-33h-156v-359q0 -57 19 -86t73 -29q31 0 67 17l12 -30q-56 -20 -82 -20z" />
<glyph unicode="u" horiz-adv-x="577" d="M255 -13q-81 0 -120 49t-39 152v339h36v-335q0 -88 30 -130t96 -42q48 0 88.5 26.5t90.5 86.5v394h36v-527h-31l-4 90h-2q-89 -103 -181 -103z" />
<glyph unicode="v" horiz-adv-x="466" d="M213 0l-200 527h40l124 -340q34 -96 55 -150h4q34 86 55 150l125 340h37l-197 -527h-43z" />
<glyph unicode="w" horiz-adv-x="742" d="M185 0l-159 527h40l101 -353l18 -69t18 -70h5q35 123 39 139l101 353h48l101 -353q16 -59 40 -139h4q8 29 39 139l98 353h38l-154 -527h-49l-98 341q-9 28 -22.5 78.5t-19.5 71.5h-5q-25 -98 -43 -152l-96 -339h-44z" />
<glyph unicode="x" horiz-adv-x="434" d="M15 0l181 275l-165 252h40l89 -140q8 -13 17.5 -27t21.5 -32t19 -28h4q45 71 56 87l87 140h38l-165 -254l181 -273h-41l-98 151q-25 44 -63 97h-5q-12 -17 -63 -97l-95 -151h-39z" />
<glyph unicode="y" horiz-adv-x="468" d="M74 -244q-31 0 -51 11l9 33q20 -9 44 -9q89 0 140 148l15 49l-218 539h40l133 -344q31 -83 59 -148h5q9 24 50 148l118 344h37l-210 -601q-24 -72 -66.5 -121t-104.5 -49z" />
<glyph unicode="z" horiz-adv-x="438" d="M29 0v19l322 475h-287v33h334v-20l-322 -474h333v-33h-380z" />
<glyph unicode="{" horiz-adv-x="299" d="M244 -167q-63 0 -91 29.5t-28 108.5q0 42 4.5 117.5t4.5 113.5q0 91 -94 91v27q94 0 94 88q0 39 -4.5 115t-4.5 117q0 79 28.5 109.5t90.5 30.5h34v-26h-35q-50 0 -68.5 -28t-18.5 -90q0 -36 3.5 -105t3.5 -110q0 -50 -11.5 -77t-42.5 -36v-4q31 -10 42.5 -37.5 t11.5 -75.5q0 -42 -3.5 -111t-3.5 -104q0 -62 18.5 -90t68.5 -28h35v-25h-34z" />
<glyph unicode="|" horiz-adv-x="243" d="M106 -275v1101h31v-1101h-31z" />
<glyph unicode="}" horiz-adv-x="299" d="M21 -167v25h34q50 0 69 28t19 90q0 35 -3.5 104t-3.5 111q0 48 11.5 75.5t41.5 37.5v4q-30 9 -41.5 36t-11.5 77q0 41 3.5 110t3.5 105q0 62 -19 90t-69 28h-34v26h33q63 0 91.5 -30.5t28.5 -109.5q0 -41 -4.5 -117t-4.5 -115q0 -88 94 -88v-27q-94 0 -94 -91 q0 -38 4.5 -113.5t4.5 -117.5q0 -79 -28.5 -108.5t-91.5 -29.5h-33z" />
<glyph unicode="~" horiz-adv-x="521" d="M360 297q-36 0 -72.5 25t-69.5 50t-59 25q-52 0 -88 -70l-25 14q21 43 52 66t64 23q28 0 57.5 -16t50 -34.5t46 -34.5t46.5 -16q52 0 88 70l25 -16q-22 -42 -52.5 -64t-62.5 -22z" />
<glyph unicode="&#xac00;" d="M112 717h392q0 -184 -103.5 -343t-304.5 -259l-18 28q182 90 283.5 233.5t109.5 310.5h-359v30zM884 436v-30h-160v-473h-33v883h33v-380h160z" />
<glyph unicode="&#xac01;" d="M103 752h397q0 -155 -112 -270t-306 -172l-14 29q177 50 282.5 150t114.5 233h-362v30zM177 218v30h557v-315h-33v285h-524zM878 574v-30h-144v-251h-33v522h33v-241h144z" />
<glyph unicode="&#xac04;" d="M101 745h399q0 -157 -114.5 -281t-303.5 -190l-14 29q171 59 279 167t117 245h-363v30zM237 224v-237h545v-30h-578v267h33zM734 526h144v-30h-144v-339h-33v659h33v-290z" />
<glyph unicode="&#xac07;" d="M103 752h398q0 -155 -112.5 -271t-307.5 -172l-13 28q177 51 282.5 151t114.5 234h-362v30zM231 220v-243h521v-30h-554v303h538v-30h-505zM734 578h144v-30h-144v-241h-33v508h33v-237z" />
<glyph unicode="&#xac08;" d="M100 762h398q0 -152 -113 -262.5t-303 -161.5l-15 29q175 46 281 140.5t114 224.5h-362v30zM232 119v-147h540v-30h-572v207h502v133h-505v30h537v-193h-502zM734 595h144v-30h-144v-208h-33v459h33v-221z" />
<glyph unicode="&#xac09;" d="M103 759h395q0 -152 -112.5 -263t-304.5 -164l-14 29q176 48 281 142.5t114 225.5h-359v30zM192 -26h14q173 0 291 21l5 -30q-122 -22 -296 -22h-46v196h245v121h-248v30h280v-180h-245v-136zM476 260v30h258v-354h-33v324h-225zM879 590v-30h-145v-227h-33v482h33v-225 h145z" />
<glyph unicode="&#xac0a;" d="M104 759h394q0 -152 -113 -262.5t-303 -161.5l-15 29q175 46 280.5 140.5t114.5 224.5h-358v30zM178 -26h9q161 0 248 17l5 -30q-97 -18 -253 -18h-41v199h233v118h-236v30h268v-178h-233v-138zM505 261v-293h197v293h-197zM473 -61v351h261v-351h-261zM878 588v-30h-144 v-225h-33v482h33v-227h144z" />
<glyph unicode="&#xac10;" d="M103 752h398q0 -155 -112.5 -271t-307.5 -172l-13 29q177 50 282.5 150t114.5 234h-362v30zM229 229v-251h472v251h-472zM196 -52v311h538v-311h-538zM878 578v-30h-144v-241h-33v508h33v-237h144z" />
<glyph unicode="&#xac11;" d="M100 756h400q0 -153 -113 -264.5t-305 -163.5l-14 28q175 48 281 143.5t115 226.5h-364v30zM701 -24v150h-473v-150h473zM701 155v138h33v-346h-539v346h33v-138h473zM878 588v-30h-144v-219h-33v477h33v-228h144z" />
<glyph unicode="&#xac12;" d="M104 756h396q0 -153 -113 -265t-306 -163l-13 29q175 47 281.5 143t114.5 226h-360v30zM419 -25v153h-220v-153h220zM419 158v131h33v-344h-286v344h33v-131h220zM675 296v-78q0 -71 44.5 -145t119.5 -111l-20 -26q-59 30 -100 83.5t-60 116.5q-18 -62 -60 -116t-101 -84 l-20 26q74 35 119.5 108.5t45.5 144.5v81h32zM734 592h144v-30h-144v-227h-33v481h33v-224z" />
<glyph unicode="&#xac13;" d="M103 745h397q0 -157 -111.5 -278t-302.5 -183l-16 28q175 56 281 161.5t114 241.5h-362v30zM499 297v-52q0 -55 30.5 -104t79 -82.5t99.5 -56t101 -33.5l-15 -27q-102 26 -191.5 84t-120.5 144q-16 -46 -51 -86t-80.5 -67.5t-91 -46.5t-92.5 -31l-15 27q51 11 102.5 33.5 t100.5 56.5t80 83.5t31 105.5v52h33zM772 550h106v-30h-106v-293h-33v293h-14v30h14v268h33v-268z" />
<glyph unicode="&#xac14;" d="M103 752h398q0 -155 -112 -271t-308 -172l-12 28q177 51 282.5 151t113.5 234h-362v30zM658 284v-86q0 -68 55 -133t136 -94l-17 -27q-67 25 -118 74.5t-71 108.5q-19 -58 -61.5 -110t-102.5 -80q-64 26 -107 76t-59 112q-23 -57 -73.5 -106t-114.5 -75l-17 27 q79 30 135 97t56 130v86h31v-86q0 -67 40 -129.5t108 -96.5q66 36 107.5 103t41.5 123v86h31zM734 572h144v-30h-144v-224h-33v499h33v-245z" />
<glyph unicode="&#xac15;" d="M103 743h398q0 -157 -113 -277t-306 -180l-14 29q175 55 281.5 158.5t115.5 239.5h-362v30zM467 -33q110 0 177.5 36.5t67.5 95.5t-67.5 95.5t-177.5 36.5t-178 -36.5t-68 -95.5t68 -95.5t178 -36.5zM467 260q129 0 203 -43t74 -118t-74 -118t-203 -43t-203.5 43 t-74.5 118t74.5 118t203.5 43zM734 565h144v-30h-144v-264h-33v545h33v-251z" />
<glyph unicode="&#xac16;" d="M103 752h397q0 -155 -112 -271.5t-307 -172.5l-13 29q177 50 282.5 150.5t114.5 234.5h-362v30zM488 215v-11q0 -44 29 -86t75 -72.5t95.5 -52.5t95.5 -32l-15 -26q-94 22 -180 77t-117 129q-20 -51 -71 -95t-108 -70.5t-116 -40.5l-16 26q64 14 128.5 46t115.5 85.5 t51 111.5v11h-266v30h564v-30h-265zM734 566h144v-30h-144v-241h-33v522h33v-251z" />
<glyph unicode="&#xac17;" d="M102 751h396q0 -154 -110 -268t-304 -169l-16 29q178 49 282 147t112 231h-360v30zM486 206v-3q0 -57 51.5 -111t117.5 -86t129 -46l-16 -27q-59 15 -116.5 42t-109.5 71.5t-73 94.5q-30 -74 -117 -129.5t-180 -78.5l-17 27q63 14 129 46.5t117.5 86t51.5 110.5v3h-272 v30h272v122h33v-122h273v-30h-273zM734 590h144v-30h-144v-235h-33v490h33v-225z" />
<glyph unicode="&#xac19;" d="M99 751h401q0 -153 -113 -267t-305 -168l-14 30q175 48 281 145.5t115 229.5h-365v30zM234 107v-130h527v-30h-560v342h539v-30h-506v-122h494v-30h-494zM734 587h144v-30h-144v-223h-33v481h33v-228z" />
<glyph unicode="&#xac1a;" d="M103 751h397q0 -152 -116.5 -267t-302.5 -170l-13 29q169 50 278 149t118 229h-361v30zM358 231v-248h234v248h-234zM625 231v-248h149v-30h-596v30h147v248h-139v30h578v-30h-139zM734 581h144v-30h-144v-240h-33v503h33v-233z" />
<glyph unicode="&#xac1b;" d="M103 755h398q0 -153 -113 -267t-306 -168l-14 30q175 48 281.5 145.5t114.5 229.5h-361v30zM482 -36q95 0 151 25.5t56 69.5q0 43 -56 69t-151 26t-152 -26t-57 -69q0 -44 56.5 -69.5t152.5 -25.5zM482 182q113 0 176 -32t63 -91t-63 -91t-176 -32t-177 32t-64 91t64 91 t177 32zM498 389v-122h288v-30h-609v30h288v122h33zM734 600h144v-30h-144v-227h-33v473h33v-216z" />
<glyph unicode="&#xac1c;" d="M94 696h338q0 -80 -18 -155.5t-56 -150t-106 -142t-161 -118.5l-20 26q163 88 242 222t86 288h-305v30zM766 816h33v-883h-33v475h-163v-426h-33v810h33v-354h163v378z" />
<glyph unicode="&#xac1d;" d="M106 746h339q0 -148 -91.5 -270t-255.5 -197l-20 26q149 66 236.5 173.5t95.5 237.5h-304v30zM222 214v30h572v-311h-33v281h-539zM761 815h33v-523h-33v253h-159v-246h-33v500h33v-224h159v240z" />
<glyph unicode="&#xac20;" d="M602 496v-306h-33v608h33v-272h159v288h33v-658h-33v340h-159zM105 727h339q0 -148 -92 -271t-256 -198l-19 26q149 66 237 174t96 239h-305v30zM271 -3h554v-30h-587v273h33v-243z" />
<glyph unicode="&#xac24;" d="M602 564v-205h-33v439h33v-204h159v221h33v-463h-33v212h-159zM106 760h339q0 -143 -92.5 -254.5t-256.5 -175.5l-18 26q150 57 237.5 153.5t95.5 220.5h-305v30zM265 -23h568v-30h-600v204h529v125h-532v30h564v-185h-529v-144z" />
<glyph unicode="&#xac2c;" d="M105 746h340q0 -147 -92.5 -266.5t-254.5 -191.5l-21 26q149 64 237 168.5t96 233.5h-305v30zM267 224v-247h494v247h-494zM234 -53v307h560v-307h-560zM761 815h33v-509h-33v244h-159v-238h-33v487h33v-219h159v235z" />
<glyph unicode="&#xac2d;" d="M106 750h339q0 -146 -91 -261t-257 -183l-19 27q151 60 237.5 160t94.5 227h-304v30zM762 -23v152h-492v-152h492zM762 159v131h32v-343h-557v343h33v-131h492zM761 814h33v-481h-33v220h-159v-213h-33v458h33v-215h159v231z" />
<glyph unicode="&#xac2f;" d="M602 534v-217h-33v481h33v-234h159v250h33v-577h-33v297h-159zM110 727h335q0 -151 -88.5 -273.5t-259.5 -197.5l-19 27q155 67 239.5 174t92.5 240h-300v30zM529 273v-51q0 -65 56 -123t125.5 -90t135.5 -45l-15 -27q-100 22 -194 80t-125 140q-21 -56 -77.5 -104 t-118 -75t-123.5 -41l-14 27q47 9 99.5 31t102 54t82 77.5t32.5 95.5v51h34z" />
<glyph unicode="&#xac30;" d="M602 545v-241h-33v495h33v-224h159v240h33v-518h-33v248h-159zM107 746h338q0 -146 -92.5 -266t-254.5 -192l-20 27q148 63 236 167.5t96 233.5h-303v30zM674 265v-78q0 -68 55 -133.5t136 -94.5l-17 -27q-67 26 -118 75.5t-71 108.5q-19 -58 -61.5 -110t-102.5 -80 q-64 26 -107 76t-59 112q-23 -57 -73 -106t-115 -76l-17 27q79 30 135 97t56 131v78h31v-78q0 -68 39.5 -130.5t108.5 -96.5q66 37 107.5 104t41.5 123v78h31z" />
<glyph unicode="&#xac31;" d="M602 530v-236h-33v504h33v-238h159v255h33v-555h-33v270h-159zM106 735h339q0 -146 -92.5 -266.5t-254.5 -192.5l-20 26q148 64 236 169t96 234h-304v30zM514 -34q118 0 189 34.5t71 92.5q0 57 -71.5 91.5t-188.5 34.5q-118 0 -189 -34.5t-71 -91.5q0 -58 71 -92.5 t189 -34.5zM514 248q138 0 215.5 -41t77.5 -114q0 -75 -77.5 -115.5t-215.5 -40.5t-215.5 40.5t-77.5 115.5q0 73 77.5 114t215.5 41z" />
<glyph unicode="&#xac38;" d="M112 717h392q0 -184 -103.5 -343t-304.5 -259l-18 28q182 90 283.5 233.5t109.5 310.5h-359v30zM882 530h-158v-236h158v-30h-158v-331h-33v883h33v-256h158v-30z" />
<glyph unicode="&#xac39;" d="M103 752h397q0 -155 -112 -270.5t-306 -171.5l-14 29q177 50 282.5 150t114.5 233h-362v30zM177 218v30h557v-315h-33v285h-524zM878 632h-144v-160h144v-30h-144v-149h-33v522h33v-153h144v-30z" />
<glyph unicode="&#xac3c;" d="M101 745h399q0 -158 -114.5 -282t-303.5 -189l-14 28q171 59 279 167t117 246h-363v30zM237 224v-237h545v-30h-578v267h33zM878 600h-144v-190h144v-30h-144v-223h-33v659h33v-186h144v-30z" />
<glyph unicode="&#xac40;" d="M100 762h398q0 -152 -113 -262.5t-303 -161.5l-15 29q175 46 281 140.5t114 224.5h-362v30zM232 119v-147h540v-30h-572v207h502v133h-505v30h537v-193h-502zM878 653h-144v-146h144v-30h-144v-120h-33v459h33v-133h144v-30z" />
<glyph unicode="&#xac4b;" d="M103 745h397q0 -157 -111.5 -278t-302.5 -183l-16 28q175 56 281 161.5t114 241.5h-362v30zM499 295v-52q0 -55 30.5 -104t79 -82.5t100 -56t101.5 -33.5l-17 -26q-64 16 -122 43t-113 76t-76 109q-16 -46 -51 -86.5t-80.5 -68t-91 -46.5t-92.5 -31l-15 27 q51 11 102.5 33.5t100.5 56.5t80 83.5t31 105.5v52h33zM879 615h-145v-186h145v-30h-145v-174h-33v591h33v-171h145v-30z" />
<glyph unicode="&#xac4d;" d="M103 743h398q0 -156 -113 -276t-306 -181l-14 29q175 55 281.5 158.5t115.5 239.5h-362v30zM467 -33q110 0 177.5 36.5t67.5 95.5t-67.5 95.5t-177.5 36.5t-178 -36.5t-68 -95.5t68 -95.5t178 -36.5zM467 260q129 0 203 -43t74 -118t-74 -118t-203 -43t-203.5 43 t-74.5 118t74.5 118t203.5 43zM878 625h-144v-168h144v-30h-144v-156h-33v545h33v-161h144v-30z" />
<glyph unicode="&#xac54;" d="M94 696h338q0 -80 -18 -155.5t-56 -150t-106 -142t-161 -118.5l-20 26q163 88 242 222t86 288h-305v30zM603 317h163v221h-163v-221zM766 816h33v-883h-33v354h-163v-305h-33v810h33v-224h163v248z" />
<glyph unicode="&#xac58;" d="M761 601h-159v-189h159v189zM602 382v-193h-33v609h33v-167h159v183h33v-658h-33v226h-159zM105 727h339q0 -148 -92 -271.5t-256 -198.5l-19 26q149 66 237 174.5t96 239.5h-305v30zM271 -3h554v-30h-587v272h33v-242z" />
<glyph unicode="&#xac5c;" d="M761 645h-159v-139h159v139zM602 476v-118h-33v440h33v-123h159v140h33v-463h-33v124h-159zM106 762h339q0 -144 -92 -257t-257 -178l-18 26q150 58 237.5 156t95.5 223h-305v30zM265 -32h568v-30h-600v203h529v131h-532v30h564v-191h-529v-143z" />
<glyph unicode="&#xac70;" d="M104 717h391q0 -184 -100.5 -341.5t-303.5 -258.5l-22 26q186 90 285.5 233t107.5 311h-358v30zM738 816h33v-883h-33v483h-242v30h242v370z" />
<glyph unicode="&#xac71;" d="M117 752h392q0 -154 -113.5 -270.5t-304.5 -172.5l-17 28q176 52 283 152t116 233h-356v30zM195 219v30h577v-315h-33v285h-544zM739 814h33v-522h-33v245h-232v30h232v247z" />
<glyph unicode="&#xac74;" d="M739 156v341h-231v30h231v288h33v-659h-33zM118 745h389q0 -157 -113.5 -281.5t-301.5 -190.5l-16 28q171 60 278.5 168.5t116.5 245.5h-353v30zM269 -13h526v-30h-559v267h33v-237z" />
<glyph unicode="&#xac77;" d="M507 558h232v256h33v-508h-33v222h-232v30zM117 752h391q0 -155 -114 -271t-306 -172l-13 28q175 51 282.5 151.5t115.5 233.5h-356v30zM250 -23h539v-30h-572v301h557v-30h-524v-241z" />
<glyph unicode="&#xac78;" d="M739 353v196h-230v30h230v237h33v-463h-33zM118 762h388q0 -151 -113 -261.5t-303 -161.5l-14 29q173 46 279.5 140.5t114.5 223.5h-352v30zM255 -28h558v-30h-590v207h517v130h-520v30h552v-189h-517v-148z" />
<glyph unicode="&#xac7a;" d="M205 -22h9q159 0 254 17l5 -30q-98 -18 -259 -18h-41v197h237v121h-240v30h272v-181h-237v-136zM117 762h388q0 -152 -113 -263t-303 -162l-14 28q174 46 280 141t114 226h-352v30zM540 266v-290h200v290h-200zM508 -53v348h264v-348h-264zM739 816h33v-477h-33v215h-233 v30h233v232z" />
<glyph unicode="&#xac80;" d="M117 752h392q0 -154 -113.5 -270t-304.5 -172l-16 28q176 51 283 151t115 233h-356v30zM248 234v-256h492v256h-492zM216 -52v315h556v-315h-556zM739 814h33v-512h-33v238h-232v30h232v244z" />
<glyph unicode="&#xac81;" d="M118 756h390q0 -152 -113.5 -264t-305.5 -164l-14 29q176 47 282.5 142.5t114.5 226.5h-354v30zM739 -24v150h-488v-150h488zM739 155v138h32v-346h-553v346h33v-138h488zM738 816h33v-473h-33v202h-229v30h229v241z" />
<glyph unicode="&#xac83;" d="M739 206v315h-229v30h229v264h33v-609h-33zM118 743h391q0 -155 -114.5 -276.5t-300.5 -184.5l-16 28q170 57 278.5 162.5t117.5 240.5h-356v30zM517 293v-51q0 -55 30.5 -104t79 -82.5t100 -56t101.5 -33.5l-16 -27q-64 16 -122.5 43.5t-113.5 76.5t-76 109 q-16 -46 -51 -86.5t-80.5 -68t-91 -46.5t-92.5 -31l-15 27q51 11 102.5 33.5t100.5 56.5t80 83.5t31 105.5v51h33z" />
<glyph unicode="&#xac84;" d="M739 302v240h-229v30h229v242h33v-512h-33zM123 752h386q0 -154 -113.5 -270t-304.5 -172l-17 27q176 52 283 152t116 233h-350v30zM664 284v-86q0 -68 55 -133t136 -94l-18 -27q-67 25 -117.5 74t-70.5 108q-20 -59 -63 -110.5t-103 -78.5q-64 25 -107 75t-60 112 q-23 -57 -73 -105.5t-115 -74.5l-17 27q79 31 135 97.5t56 129.5v86h31v-86q0 -67 40.5 -129.5t108.5 -96.5q67 36 109 102.5t42 123.5v86h31z" />
<glyph unicode="&#xac85;" d="M507 544h232v271h33v-549h-33v248h-232v30zM118 743h392q0 -155 -115.5 -275.5t-302.5 -181.5l-17 29q171 55 280.5 159t118.5 239h-356v30zM491 -34q114 0 183.5 36t69.5 95t-69.5 95t-183.5 36t-184 -36t-70 -95t70 -95t184 -36zM491 257q133 0 209 -42.5t76 -117.5 t-76 -117.5t-209 -42.5q-134 0 -210 42.5t-76 117.5t76 117.5t210 42.5z" />
<glyph unicode="&#xac86;" d="M509 566h230v248h33v-517h-33v239h-230v30zM117 752h407q0 -156 -116 -272t-311 -172l-15 29q178 50 287.5 150.5t118.5 234.5h-371v30zM522 215v-11q0 -58 51 -111.5t116.5 -85.5t129.5 -46l-15 -26q-95 22 -181.5 76.5t-116.5 129.5q-30 -75 -116.5 -129.5 t-181.5 -76.5l-17 26q47 10 97 31.5t96 52t75.5 73t29.5 86.5v11h-266v30h563v-30h-264z" />
<glyph unicode="&#xac89;" d="M739 325v216h-225v30h225v244h33v-490h-33zM117 751h391q0 -154 -113 -267.5t-306 -166.5l-15 29q176 48 282.5 145.5t115.5 229.5h-355v30zM258 -23h536v-30h-569v341h550v-30h-517v-122h507v-30h-507v-129z" />
<glyph unicode="&#xac8a;" d="M507 568h232v246h33v-508h-33v232h-232v30zM117 751h392q0 -153 -114.5 -267.5t-304.5 -168.5l-14 28q174 50 281.5 148t115.5 230h-356v30zM378 229v-252h227v252h-227zM638 -23h153v-30h-595v30h149v252h-142v30h577v-30h-142v-252z" />
<glyph unicode="&#xac8b;" d="M506 584h233v232h33v-473h-33v211h-233v30zM118 756h389q0 -154 -112.5 -267t-303.5 -167l-16 28q175 48 281 146t115 230h-353v30zM494 -35q96 0 152.5 25.5t56.5 69.5q0 43 -57 69t-152 26t-151.5 -25.5t-56.5 -69.5t56 -69.5t152 -25.5zM494 183q113 0 177 -32t64 -91 t-64 -91t-177 -32t-176.5 32t-63.5 91t63.5 91t176.5 32zM512 266h287v-30h-609v30h289v116h33v-116z" />
<glyph unicode="&#xac8c;" d="M585 433v356h33v-805h-33v419h-228q-92 -167 -264 -272l-22 26q150 89 235 225t93 284h-302v30h335q0 -138 -61 -263h214zM766 816h33v-883h-33v883z" />
<glyph unicode="&#xac90;" d="M794 814v-668h-33v668h33zM590 487h-212q-95 -147 -282 -229l-19 26q151 66 240.5 174t97.5 239h-310v30h344q0 -114 -54 -210h195v278h33v-622h-33v314zM270 -13h554v-30h-587v273h33v-243z" />
<glyph unicode="&#xac94;" d="M794 815v-463h-33v463h33zM590 553h-199q-88 -144 -294 -225l-19 25q152 57 241 155t97 224h-310v30h344q0 -95 -43 -179h183v212h33v-436h-33v194zM265 -23h568v-30h-600v200h529v125h-532v30h564v-185h-529v-140z" />
<glyph unicode="&#xac9c;" d="M590 528h-202q-91 -152 -291 -239l-20 26q150 62 239.5 167t98.5 234h-310v30h344q0 -98 -45 -188h186v237h33v-477h-33v210zM266 230v-252h496v252h-496zM234 -52v311h560v-311h-560zM761 815h33v-509h-33v509z" />
<glyph unicode="&#xac9d;" d="M590 531h-203q-87 -145 -292 -230l-18 25q154 61 241.5 163t95.5 231h-308v30h342q0 -101 -45 -189h187v233h33v-458h-33v195zM762 -25v152h-492v-152h492zM762 157v131h32v-343h-557v343h33v-131h492zM761 814h33v-485h-33v485z" />
<glyph unicode="&#xac9f;" d="M794 814v-600h-33v600h33zM590 506h-202q-91 -158 -292 -249l-19 26q151 66 240 174.5t97 239.5h-308v30h342q0 -98 -44 -191h186v258h33v-504h-33v216zM529 274v-51q0 -50 32.5 -96t83 -78t103 -54t100.5 -31l-15 -27q-62 14 -123.5 40.5t-118.5 74.5t-79 104 q-31 -82 -125.5 -139.5t-195.5 -79.5l-14 27q48 9 100.5 31t102.5 54t82.5 78t32.5 96v51h34z" />
<glyph unicode="&#xaca0;" d="M794 815v-518h-33v518h33zM590 513h-212q-93 -142 -282 -225l-19 26q149 63 239 168t98 234h-308v30h342q0 -108 -52 -203h194v252h33v-482h-33v200zM674 264v-78q0 -68 55 -133t136 -94l-17 -27q-67 26 -118 75.5t-71 107.5q-19 -58 -61.5 -110t-102.5 -80 q-64 27 -107 77t-59 111q-23 -57 -73.5 -106t-114.5 -75l-17 27q79 30 135 97t56 130v78h31v-78q0 -67 40 -129.5t108 -96.5q66 37 107.5 103.5t41.5 122.5v78h31z" />
<glyph unicode="&#xaca1;" d="M794 815v-555h-33v555h33zM590 512h-206q-92 -150 -288 -236l-19 26q150 63 239.5 168.5t97.5 234.5h-308v30h342q0 -101 -47 -193h189v253h33v-500h-33v217zM514 -34q118 0 189 34.5t71 92.5q0 57 -71.5 91.5t-188.5 34.5q-118 0 -189 -34.5t-71 -91.5q0 -58 71 -92.5 t189 -34.5zM514 248q138 0 215.5 -41t77.5 -114q0 -75 -77.5 -115.5t-215.5 -40.5t-215.5 40.5t-77.5 115.5q0 73 77.5 114t215.5 41z" />
<glyph unicode="&#xaca8;" d="M738 818h33v-883h-33v361h-280v30h280v202h-266q-85 -268 -382 -413l-20 28q188 89 288.5 232t108.5 312h-363v30h396q0 -79 -20 -159h258v260z" />
<glyph unicode="&#xaca9;" d="M196 215v30h576v-311h-33v281h-543zM739 814h33v-527h-33v139h-265v30h265v156h-252q-44 -105 -147 -183t-248 -119l-15 27q176 51 284 151.5t117 233.5h-361v30h397q0 -57 -17 -110h242v172z" />
<glyph unicode="&#xacaa;" d="M180 219v30h277v-315h-33v285h-244zM503 219v30h269v-315h-33v285h-236zM739 814h33v-517h-33v128h-267v30h267v155h-254q-44 -104 -146.5 -181.5t-247.5 -118.5l-16 27q177 51 285.5 151.5t116.5 233.5h-360v30h396q0 -60 -18 -112h244v174z" />
<glyph unicode="&#xacac;" d="M739 591h-259q-44 -107 -145.5 -189.5t-240.5 -129.5l-17 28q173 59 281 167.5t117 246.5h-357v30h393q0 -61 -19 -123h247v194h34v-664h-34v242h-270v30h270v168zM269 -13h526v-30h-559v259h33v-229z" />
<glyph unicode="&#xacaf;" d="M739 618h-252q-41 -107 -144.5 -186.5t-250.5 -122.5l-15 28q175 50 283 151t116 234h-359v30h395q0 -54 -15 -104h242v166h33v-508h-33v128h-267v30h267v154zM250 -23h539v-30h-572v301h557v-30h-524v-241z" />
<glyph unicode="&#xacb0;" d="M739 640h-249q-40 -107 -144 -184t-254 -117l-14 29q176 46 282.5 140t114.5 224h-357v30h393q0 -48 -12 -92h240v146h33v-458h-33v116h-267v30h267v136zM255 -28h558v-30h-590v207h517v130h-520v30h552v-189h-517v-148z" />
<glyph unicode="&#xacb8;" d="M248 234v-256h492v256h-492zM216 -52v315h556v-315h-556zM739 814h33v-512h-33v132h-267v30h267v149h-255q-43 -105 -145.5 -183.5t-247.5 -119.5l-15 28q175 49 283 150t116 234h-358v30h394q0 -56 -17 -109h245v171z" />
<glyph unicode="&#xacb9;" d="M739 -24v150h-488v-150h488zM739 155v138h32v-346h-553v346h33v-138h488zM738 816h33v-473h-33v106h-266v30h266v147h-253q-41 -104 -144 -181t-252 -117l-15 29q177 47 284 142.5t115 226.5h-355v30h391q0 -50 -14 -100h243v160z" />
<glyph unicode="&#xacbb;" d="M739 598h-258q-43 -106 -145 -187.5t-242 -129.5l-17 28q171 56 280 162t118 242h-357v30h392q0 -58 -17 -115h246v187h33v-610h-33v206h-269v30h269v157zM517 294v-51q0 -45 20.5 -86t53 -71t74.5 -55t82.5 -40.5t80.5 -24.5l-16 -27q-64 16 -122.5 43.5t-113.5 76.5 t-76 109q-21 -61 -76 -111t-114.5 -77t-124.5 -43l-15 26q51 11 102.5 33.5t100.5 56.5t80 84t31 106v51h33z" />
<glyph unicode="&#xacbc;" d="M739 614h-256q-42 -105 -145 -183.5t-248 -121.5l-16 28q175 50 283 151t117 234h-351v30h387q0 -55 -17 -108h246v170h33v-513h-33v131h-268v30h268v152zM664 283v-85q0 -69 55 -134t136 -94l-18 -27q-67 26 -117.5 75t-70.5 108q-20 -59 -63 -110.5t-103 -79.5 q-64 26 -107 76t-60 112q-23 -57 -73 -105.5t-115 -75.5l-17 27q79 31 135 97.5t56 130.5v85h31v-85q0 -67 40.5 -130t108.5 -96q67 36 109 102.5t42 123.5v85h31z" />
<glyph unicode="&#xacbd;" d="M739 599h-258q-43 -105 -146 -186t-243 -127l-17 28q171 55 280.5 159.5t118.5 239.5h-356v30h392q0 -60 -18 -114h247v186h33v-549h-33v149h-270v30h270v154zM491 -34q114 0 183.5 36t69.5 95t-69.5 95t-183.5 36t-184 -36t-70 -95t70 -95t184 -36zM491 257 q133 0 209 -42.5t76 -117.5t-76 -117.5t-209 -42.5q-134 0 -210 42.5t-76 117.5t76 117.5t210 42.5z" />
<glyph unicode="&#xacc1;" d="M739 624h-252q-40 -108 -144 -187t-254 -120l-16 29q178 47 284.5 145t115.5 230h-356v30h392q0 -47 -13 -97h243v161h33v-491h-33v129h-265v30h265v141zM258 -23h536v-30h-569v341h550v-30h-517v-122h507v-30h-507v-129z" />
<glyph unicode="&#xacc4;" d="M594 558v231h33v-805h-33v322h-200v30h200v192h-186q-34 -117 -113.5 -220t-201.5 -177l-22 26q150 89 235 225t93 284h-302v30h335q0 -68 -17 -138h179zM766 816h33v-883h-33v883z" />
<glyph unicode="&#xacc8;" d="M794 814v-658h-33v658h33zM600 574h-178q-37 -101 -121.5 -183.5t-206.5 -137.5l-17 25q152 68 241 177.5t97 241.5h-310v30h344q0 -63 -17 -123h168v191h33v-618h-33v204h-194v30h194v163zM271 -13h554v-30h-587v277h33v-247z" />
<glyph unicode="&#xaccc;" d="M794 815v-468h-33v468h33zM600 633h-171q-34 -100 -119.5 -178t-212.5 -127l-19 25q152 58 241 155.5t97 223.5h-310v30h344q0 -53 -13 -99h163v132h33v-440h-33v117h-179v30h179v131zM265 -28h568v-30h-600v203h529v127h-532v30h564v-186h-529v-144z" />
<glyph unicode="&#xacd5;" d="M600 622h-172q-34 -103 -119.5 -184t-213.5 -132l-18 26q153 60 241 160.5t96 227.5h-308v30h342q0 -52 -12 -98h164v142h33v-458h-33v117h-179v30h179v139zM762 -23v152h-492v-152h492zM762 159v131h32v-343h-557v343h33v-131h492zM761 814h33v-485h-33v485z" />
<glyph unicode="&#xacd7;" d="M794 814v-603h-33v603h33zM590 598h-161q-34 -107 -119.5 -194.5t-213.5 -145.5l-19 26q151 66 240 174t97 239h-308v30h342q0 -51 -12 -99h154v166h33v-512h-33v143h-170v30h170v143zM529 267v-45q0 -50 32.5 -96t83 -78t103 -53.5t100.5 -30.5l-15 -27 q-62 14 -123.5 40.5t-118.5 74.5t-79 104q-31 -82 -125.5 -139.5t-195.5 -79.5l-14 27q48 9 100 30.5t102.5 53.5t83 78t32.5 96v45h34z" />
<glyph unicode="&#xace0;" d="M709 623v60h-563v30h596v-90q0 -226 -30 -394l-34 6q31 162 31 388zM430 105h426v-30h-797v30h338v328h33v-328z" />
<glyph unicode="&#xace1;" d="M717 693v41h-559v30h591v-71q0 -140 -22 -233l-33 3q23 95 23 230zM147 195v30h608v-292h-33v262h-575zM452 381h404v-30h-797v30h360v194h33v-194z" />
<glyph unicode="&#xace4;" d="M717 699v31h-559v30h591v-61q0 -153 -24 -270l-33 6q25 115 25 264zM202 219v-232h572v-30h-605v262h33zM452 356h404v-30h-796v30h359v199h33v-199z" />
<glyph unicode="&#xace7;" d="M717 696v47h-559v30h591v-77q0 -141 -24 -232l-32 5q24 90 24 227zM199 214v-235h562v-30h-595v295h584v-30h-551zM452 398h404v-30h-797v30h360v185h33v-185z" />
<glyph unicode="&#xace8;" d="M717 714v33h-559v30h591v-63q0 -124 -19 -208l-32 5q19 83 19 203zM194 118v-140h582v-30h-614v200h560v125h-563v30h595v-185h-560zM452 442h404v-30h-797v30h360v178h33v-178z" />
<glyph unicode="&#xacea;" d="M717 719v23h-558v30h589v-53q0 -136 -19 -237l-32 2q20 103 20 235zM182 -23h10q166 0 262 18l5 -30q-94 -18 -266 -18h-43v194h241v117h-244v30h276v-176h-241v-135zM522 259v-283h211v283h-211zM490 -53v341h276v-341h-276zM452 423h404v-30h-796v30h359v183h33v-183z " />
<glyph unicode="&#xacec;" d="M717 699v46h-558v30h590v-76q0 -133 -19 -215l-33 4q20 82 20 211zM182 -23h9q155 0 247 17l6 -30q-91 -17 -253 -17h-41v195h241v116h-244v30h276v-175h-241v-136zM656 308v-87q0 -74 44 -147.5t119 -108.5l-20 -26q-119 60 -159 199q-40 -139 -159 -199l-20 26 q75 35 119 108.5t44 147.5v87h32zM452 425h404v-30h-796v30h359v183h33v-183z" />
<glyph unicode="&#xacef;" d="M717 732v23h-558v30h589v-53q0 -135 -19 -237l-32 3q20 103 20 234zM182 -23h11q168 0 264 18l6 -30q-102 -18 -270 -18h-43v198h233v120h-236v30h268v-180h-233v-138zM631 -36q50 0 80 23.5t30 60.5t-30 60t-80 23q-49 0 -78.5 -23t-29.5 -60t30 -60.5t78 -23.5z M631 159q61 0 101 -30t40 -81t-40 -81.5t-101 -30.5t-100 30.5t-39 81.5t39 81t100 30zM647 328v-95h167v-30h-363v30h163v95h33zM452 430h404v-30h-797v30h360v185h33v-185z" />
<glyph unicode="&#xacf0;" d="M717 696v47h-559v30h591v-77q0 -141 -24 -232l-32 5q24 90 24 227zM194 217v-240h530v240h-530zM162 -53v299h594v-299h-594zM452 400h404v-30h-797v30h360v190h33v-190z" />
<glyph unicode="&#xacf1;" d="M717 703v42h-558v30h590v-72q0 -135 -24 -222l-33 4q25 88 25 218zM711 -23v158h-506v-158h506zM711 165v132h33v-350h-572v350h33v-132h506zM452 425h404v-30h-795v30h358v168h33v-168z" />
<glyph unicode="&#xacf3;" d="M717 715v27h-559v30h590v-57q0 -145 -24 -255l-31 5q24 110 24 250zM472 269v-53q0 -51 30.5 -96t79 -75.5t100 -51t101.5 -29.5l-16 -28q-64 14 -123 39t-113.5 71t-75.5 102q-21 -56 -75.5 -102t-114 -71t-123.5 -39l-15 28q50 9 101.5 29.5t100 51t79 75.5t30.5 96v53 h34zM452 386h404v-30h-797v30h360v193h33v-193z" />
<glyph unicode="&#xacf5;" d="M717 689v47h-559v30h590v-77q0 -141 -24 -232l-31 5q24 90 24 227zM456 -34q119 0 194 35.5t75 92.5t-75 92.5t-194 35.5t-194 -35.5t-75 -92.5t75 -92.5t194 -35.5zM456 251q139 0 220.5 -42t81.5 -115t-81.5 -115t-220.5 -42q-140 0 -221 42t-81 115t81 115t221 42z M452 387h404v-30h-797v30h360v187h33v-187z" />
<glyph unicode="&#xacf6;" d="M717 700v45h-559v30h591v-75q0 -140 -23 -228l-33 5q24 89 24 223zM760 212h-284q1 -51 33 -95.5t81.5 -74.5t101.5 -49.5t103 -28.5l-14 -28q-48 10 -94.5 26.5t-93 42t-82.5 62.5t-52 80q-21 -57 -77.5 -102.5t-117 -70.5t-125.5 -38l-15 28q51 9 103 28.5t101.5 49.5 t81.5 74.5t33 95.5h-284v30h601v-30zM452 402h404v-30h-797v30h360v183h33v-183z" />
<glyph unicode="&#xacfc;" d="M510 325l-34 3q29 178 29 352h-403v30h435v-22q0 -181 -27 -363zM298 459v-282q198 7 319 23l3 -26q-208 -31 -563 -33l-8 32q101 0 216 3v283h33zM882 433v-32h-164v-468h-33v883h33v-383h164z" />
<glyph unicode="&#xacfd;" d="M505 716v5h-389v30h421v-35q0 -133 -26 -249l-33 4q27 117 27 245zM623 398l3 -27q-216 -34 -559 -34l-6 32q99 0 213 3v197h33v-196q188 7 316 25zM166 192v30h561v-281h-33v251h-528zM874 553v-30h-147v-248h-33v540h33v-262h147z" />
<glyph unicode="&#xad00;" d="M506 705v8h-390v30h422v-38q0 -142 -25 -264l-34 3q27 124 27 261zM623 371l3 -27q-216 -34 -560 -34l-6 32q98 0 214 3v210h33v-209q188 7 316 25zM234 209v-222h522v-30h-555v252h33zM727 510h148v-30h-148v-333h-33v669h33v-306z" />
<glyph unicode="&#xad04;" d="M505 723v3h-389v30h421v-33q0 -125 -26 -232l-33 4q27 109 27 228zM624 433l3 -27q-216 -34 -560 -34l-6 32q97 0 213 3v179h33v-178q190 7 317 25zM213 110v-136h550v-30h-582v196h514v118h-517v30h549v-178h-514zM727 582h147v-30h-147v-218h-33v482h33v-234z" />
<glyph unicode="&#xad06;" d="M505 724v2h-389v30h421v-32q0 -125 -26 -231l-33 4q27 109 27 227zM624 441l3 -27q-200 -34 -560 -34l-6 32q136 0 213 2v178h33v-177q192 7 317 26zM177 -23h8q156 0 245 19l5 -31q-94 -19 -250 -19h-40v188h229v111h-232v30h264v-170h-229v-128zM495 246v-271h200v271 h-200zM463 -54v329h264v-329h-264zM874 575v-30h-147v-220h-33v491h33v-241h147z" />
<glyph unicode="&#xad0c;" d="M505 719v3h-389v30h421v-33q0 -126 -26 -235l-33 4q27 111 27 231zM623 413l3 -27q-200 -34 -560 -34l-6 32q137 0 214 2v185h33v-183q184 5 316 25zM222 206v-229h473v229h-473zM190 -53v288h537v-288h-537zM874 567v-30h-147v-252h-33v530h33v-248h147z" />
<glyph unicode="&#xad0d;" d="M505 723v3h-389v30h421v-33q0 -126 -26 -234l-33 4q27 110 27 230zM624 426l3 -27q-216 -34 -560 -34l-6 32q98 0 212 3v177h33v-176q190 7 318 25zM694 -23v150h-469v-150h469zM694 156v130h33v-339h-535v339h33v-130h469zM874 580v-30h-147v-225h-33v491h33v-236h147z " />
<glyph unicode="&#xad0f;" d="M505 716v5h-389v30h421v-35q0 -134 -26 -249l-33 3q27 118 27 246zM623 394l3 -27q-216 -34 -559 -34l-6 32q99 0 213 3v196h33v-195q188 7 316 25zM492 252v-43q0 -49 30 -93t78 -74t99 -50t101 -29l-15 -27q-101 21 -189.5 73.5t-119.5 130.5q-31 -78 -119.5 -130.5 t-189.5 -73.5l-15 27q50 9 101 29t99 50t78 74t30 93v43h32zM727 535h147v-30h-147v-290h-33v600h33v-280z" />
<glyph unicode="&#xad11;" d="M505 714v9h-389v30h421v-39q0 -131 -26 -244l-33 4q27 113 27 240zM623 399l3 -27q-216 -34 -559 -34l-6 32q99 0 213 3v195h33v-194q188 7 316 25zM456 -34q112 0 180 33.5t68 88.5q0 56 -68 89.5t-180 33.5q-111 0 -179 -33.5t-68 -89.5q0 -55 68 -88.5t179 -33.5z M456 240q132 0 206 -40t74 -112t-74 -111.5t-206 -39.5q-131 0 -205 39.5t-74 111.5t74 112t205 40zM727 551h147v-30h-147v-269h-33v563h33v-264z" />
<glyph unicode="&#xad18;" d="M425 655v23h-330v30h362v-53q0 -176 -20 -321l-33 2q21 145 21 319zM263 459v-263q170 8 254 20l3 -27q-178 -29 -464 -29l-7 32q82 0 181 3v264h33zM753 816h33v-883h-33v459h-148v-405h-33v805h33v-369h148v393z" />
<glyph unicode="&#xad1c;" d="M600 484v-311h-33v628h33v-287h148v301h33v-673h-33v342h-148zM432 684v29h-325v30h357v-59q0 -136 -21 -235l-33 4q22 100 22 231zM517 374l3 -27q-178 -27 -461 -27l-6 32q83 0 187 3v190h33v-189q156 6 244 18zM257 -13h554v-30h-587v256h33v-226z" />
<glyph unicode="&#xad20;" d="M600 550v-217h-33v467h33v-220h148v236h33v-491h-33v225h-148zM432 709v22h-325v30h357v-52q0 -122 -20 -211l-33 3q21 91 21 208zM517 426l3 -27q-178 -27 -461 -27l-6 32q83 0 187 3v175h33v-174q156 6 244 18zM252 -23h568v-30h-600v190h529v115h-532v30h564v-175 h-529v-130z" />
<glyph unicode="&#xad29;" d="M432 702v25h-325v30h357v-55q0 -128 -21 -222l-32 4q21 96 21 218zM517 410l3 -27q-178 -27 -461 -27l-6 32q83 0 187 3v181h33v-180q142 5 244 18zM748 -23v145h-499v-145h499zM748 152v126h33v-331h-565v331h33v-126h499zM748 816h33v-495h-33v222h-148v-216h-33v473 h33v-227h148v243z" />
<glyph unicode="&#xad2c;" d="M600 519v-237h-33v518h33v-251h148v266h33v-541h-33v245h-148zM432 694v27h-325v30h357v-57q0 -132 -21 -228l-32 5q21 97 21 223zM517 389l3 -26q-160 -29 -461 -29l-6 32q118 0 187 2v186h33v-184q144 5 244 19zM670 241v-43q0 -70 55 -135t136 -93l-18 -27 q-66 25 -116 73t-72 107q-18 -60 -61 -110t-104 -77q-62 27 -104.5 77t-60.5 110q-22 -59 -72 -107t-117 -73l-17 27q81 28 136 93t55 135v43h31v-43q0 -64 40.5 -128.5t108.5 -98.5q68 34 108.5 98.5t40.5 128.5v43h31z" />
<glyph unicode="&#xad2d;" d="M432 685v29h-325v30h357v-59q0 -137 -21 -234l-33 3q22 100 22 231zM517 382l3 -26q-160 -29 -461 -29l-6 32q118 0 187 2v186h33v-184q156 6 244 19zM491 -35q117 0 187 31t70 84t-70 84t-187 31t-187 -31t-70 -84t70 -84t187 -31zM491 224q137 0 213.5 -37.5 t76.5 -106.5t-76.5 -106.5t-213.5 -37.5t-213.5 37.5t-76.5 106.5t76.5 106.5t213.5 37.5zM748 815h33v-564h-33v274h-148v-247h-33v523h33v-246h148v260z" />
<glyph unicode="&#xad34;" d="M526 323l-33 6q30 182 30 349h-403v30h435v-20q0 -181 -29 -365zM322 454v-277q200 7 338 25l3 -27q-226 -34 -590 -34l-8 32q104 0 224 3v278h33zM727 816h33v-883h-33v883z" />
<glyph unicode="&#xad35;" d="M513 716v5h-387v30h419v-35q0 -134 -26 -249l-33 4q27 117 27 245zM644 387l3 -27q-220 -34 -578 -34l-7 32q106 0 227 3v197h33v-196q192 7 322 25zM192 184v30h576v-281h-33v251h-543zM735 815h33v-553h-33v553z" />
<glyph unicode="&#xad38;" d="M768 816v-677h-33v677h33zM518 704v8h-392v30h424v-38q0 -142 -27 -264l-33 3q28 124 28 261zM645 364l2 -28q-241 -33 -577 -35l-7 34q68 0 226 4v201h33v-199q200 7 323 23zM258 -13h539v-30h-572v241h33v-211z" />
<glyph unicode="&#xad3c;" d="M768 816v-491h-33v491h33zM513 726v3h-388v30h420v-33q0 -124 -25 -232l-32 2q25 110 25 230zM643 436l4 -27q-225 -36 -578 -36l-7 32q119 0 227 4v187h33v-186q194 7 321 26zM239 -23h568v-30h-600v189h529v114h-532v30h564v-173h-529v-130z" />
<glyph unicode="&#xad44;" d="M513 716v10h-387v30h419v-40q0 -129 -24 -234l-33 3q25 108 25 231zM644 411l3 -27q-214 -35 -578 -35l-7 32q146 0 227 3v180h33v-179q205 8 322 26zM244 206v-229h492v229h-492zM212 -53v288h556v-288h-556zM735 815h33v-527h-33v527z" />
<glyph unicode="&#xad45;" d="M513 704v23h-388v29h417v-52q0 -127 -24 -222l-30 3q25 97 25 219zM644 411l3 -27q-245 -35 -578 -35l-7 32q67 0 227 4v173h32v-171q191 7 323 24zM735 -24v143h-499v-143h499zM735 149v125h33v-328h-565v328h33v-125h499zM735 815h33v-495h-33v495z" />
<glyph unicode="&#xad47;" d="M768 814v-631h-33v631h33zM514 697v24h-387v30h418v-54q0 -131 -24 -230l-32 4q25 100 25 226zM644 388l3 -26q-244 -36 -578 -36l-7 32q67 0 227 4v190h33v-188q191 7 322 24zM505 254v-43q0 -64 53.5 -117.5t120.5 -82t136 -40.5l-14 -27q-64 13 -123 36.5t-113.5 66.5 t-75.5 96q-31 -77 -120 -128t-191 -71l-15 27q69 12 136 40.5t120.5 82t53.5 117.5v43h32z" />
<glyph unicode="&#xad49;" d="M768 815v-567h-33v567h33zM514 698v26h-389v30h420v-56q0 -135 -24 -237l-32 4q25 102 25 233zM644 392l3 -27q-214 -35 -578 -35l-7 32q146 0 227 3v183h33v-182q205 8 322 26zM490 -34q113 0 182 33.5t69 88.5q0 56 -68.5 89.5t-182.5 33.5t-183 -33.5t-69 -89.5 q0 -55 69 -88.5t183 -33.5zM490 240q133 0 208 -40t75 -112t-75 -111.5t-208 -39.5q-134 0 -209 39.5t-75 111.5t75 112t209 40z" />
<glyph unicode="&#xad50;" d="M709 605v78h-562v30h594v-108q0 -78 -1 -120.5t-8 -114t-22 -141.5l-33 6q15 68 22.5 138.5t8.5 112.5t1 119zM535 105h321v-30h-797v30h225v305h33v-305h185v305h33v-305z" />
<glyph unicode="&#xad54;" d="M717 688v42h-559v30h591v-72q0 -153 -23 -257l-34 4q25 104 25 253zM202 215v-229h572v-30h-605v259h33zM549 352h307v-30h-796v30h238v202h33v-202h185v202h33v-202z" />
<glyph unicode="&#xad58;" d="M717 718v33h-559v30h591v-63q0 -124 -19 -208l-32 5q19 83 19 203zM194 118v-140h582v-30h-614v200h560v125h-563v30h595v-185h-560zM549 438h307v-31h-797v31h239v182h32v-182h187v182h32v-182z" />
<glyph unicode="&#xad61;" d="M717 704v42h-558v30h590v-72q0 -136 -24 -223l-33 5q25 87 25 218zM711 -24v158h-506v-158h506zM711 164v132h33v-350h-572v350h33v-132h506zM549 413h307v-30h-795v30h237v178h33v-178h185v178h33v-178z" />
<glyph unicode="&#xad63;" d="M717 695v48h-559v30h591v-78q0 -143 -24 -234l-32 6q24 90 24 228zM472 269v-52q0 -51 30.5 -96t79 -75.5t100 -51t101.5 -29.5l-16 -28q-46 10 -92 27.5t-90.5 43t-79 62t-50.5 78.5q-21 -55 -75.5 -101t-114.5 -71t-124 -39l-15 28q50 9 102 29.5t100.5 51t79 75.5 t30.5 96v52h34zM549 380h307v-30h-797v30h239v197h33v-197h185v197h33v-197z" />
<glyph unicode="&#xad6c;" d="M856 370v-30h-381v-408h-33v408h-382v30h617q30 129 30 307v45h-539v30h571v-75q0 -177 -27 -307h144z" />
<glyph unicode="&#xad6d;" d="M860 413h-385v-199h281v-281h-33v251h-578v30h297v199h-383v30h627q28 118 28 268v29h-549v30h581v-59q0 -151 -27 -268h141v-30z" />
<glyph unicode="&#xad70;" d="M202 223v-236h567v-30h-600v266h33zM720 410h139v-30h-383v-237h-33v237h-384v30h626q29 126 29 289v34h-549v30h581v-64q0 -163 -26 -289z" />
<glyph unicode="&#xad73;" d="M859 419h-384v-179h282v-30h-563v-233h567v-30h-600v293h281v179h-384v30h629q27 114 27 261v29h-549v30h581v-59q0 -148 -25 -261h138v-30z" />
<glyph unicode="&#xad74;" d="M860 452h-386v-146h280v-189h-560v-139h582v-30h-614v198h560v130h-563v30h282v146h-383v30h634q22 108 22 243v23h-549v30h581v-53q0 -139 -21 -243h135v-30z" />
<glyph unicode="&#xad75;" d="M184 -22h17q186 0 309 26l5 -31q-128 -26 -314 -26h-49v190h252v112h-255v30h287v-172h-252v-129zM489 249v30h273v-339h-33v309h-240zM724 475h134v-30h-385v-149h-32v149h-383v30h633q23 112 23 251v23h-548v30h580v-53q0 -143 -22 -251z" />
<glyph unicode="&#xad76;" d="M182 -23h10q166 0 262 18l5 -30q-94 -18 -266 -18h-43v195h241v116h-244v30h276v-176h-241v-135zM522 259v-283h211v283h-211zM490 -53v341h276v-341h-276zM724 475h134v-30h-385v-142h-32v142h-383v30h633q23 112 23 251v23h-548v30h580v-53q0 -143 -22 -251z" />
<glyph unicode="&#xad7b;" d="M182 -23h11q168 0 264 18l6 -30q-102 -18 -270 -18h-43v193h233v118h-236v30h268v-177h-233v-134zM631 -37q50 0 80 25t30 66t-30 66t-80 25q-49 0 -78.5 -25t-29.5 -66t29.5 -66t78.5 -25zM631 173q62 0 101.5 -32t39.5 -87t-39.5 -87t-101.5 -32q-61 0 -100 32t-39 87 t39 87t100 32zM647 336v-90h167v-30h-362v30h162v90h33zM724 475h134v-30h-384v-146h-33v146h-383v30h634q22 111 22 252v24h-548v30h579v-54q0 -143 -21 -252z" />
<glyph unicode="&#xad7c;" d="M724 -22v232h-530v-232h530zM860 422h-386v-183h282v-291h-594v291h279v183h-383v30h628q28 115 28 262v28h-549v30h581v-58q0 -148 -26 -262h140v-30z" />
<glyph unicode="&#xad7d;" d="M715 -22v154h-510v-154h510zM715 162v136h33v-350h-576v350h33v-136h510zM720 455h139v-30h-385v-187h-33v187h-382v30h627q28 115 28 261v28h-549v30h581v-58q0 -147 -26 -261z" />
<glyph unicode="&#xad7f;" d="M474 223v-39q0 -45 30.5 -84.5t79 -66t100 -43.5t101.5 -25l-12 -27q-103 18 -194 64.5t-122 118.5q-30 -72 -121 -118.5t-195 -64.5l-12 27q50 8 101.5 25t100.5 43.5t79.5 66t30.5 84.5v39h33zM721 452h138v-30h-385v-158h-33v158h-382v30h629q26 117 26 265v29h-549 v30h581v-59q0 -149 -25 -265z" />
<glyph unicode="&#xad81;" d="M725 93q0 58 -73.5 92t-194.5 34q-122 0 -196 -34.5t-74 -91.5q0 -58 74 -92.5t196 -34.5q121 0 194.5 34.5t73.5 92.5zM860 416h-386v-168q135 -3 209.5 -43.5t74.5 -111.5q0 -75 -79.5 -115.5t-221.5 -40.5q-143 0 -223 40.5t-80 115.5q0 72 75.5 112.5t211.5 42.5v168 h-383v30h627q29 118 29 268v28h-549v30h581v-58q0 -151 -28 -268h142v-30z" />
<glyph unicode="&#xad82;" d="M859 428h-383v-179h283v-30h-282v-3q0 -52 31.5 -97t81 -75.5t102 -50.5t103.5 -29l-14 -27q-48 10 -94.5 26.5t-92.5 41.5t-82 62t-52 80q-21 -57 -77.5 -102.5t-117 -70t-125.5 -37.5l-15 27q51 9 103.5 29t102.5 50.5t81.5 75.5t31.5 97v3h-284v30h283v179h-384v30 h628q27 115 27 259v26h-549v30h581v-56q0 -146 -25 -259h138v-30z" />
<glyph unicode="&#xad88;" d="M648 420l3 -26q-131 -16 -301 -23v-381h-33v379q-120 -4 -255 -4l-7 31q279 2 421 11q22 134 22 289v13h-363v30h395v-43q0 -155 -21 -287q54 3 139 11zM727 815h33v-883h-33v293h-224v30h224v560z" />
<glyph unicode="&#xad89;" d="M311 254v203q-120 -4 -253 -4l-5 32q236 0 426 9q23 108 23 235v12h-360v30h392v-42q0 -129 -21 -233q47 2 116 8l3 -27q-126 -12 -288 -19v-204h-33zM187 185v30h573v-277h-33v247h-540zM728 816h33v-564h-33v102h-216v30h216v432z" />
<glyph unicode="&#xad8c;" d="M513 326h214v488h33v-668h-33v150h-214v30zM320 206v218q-118 -5 -261 -5l-6 32q265 0 426 13q23 117 23 250v8h-370v30h402v-38q0 -134 -21 -247q81 8 116 14l3 -27q-115 -19 -279 -28v-220h-33zM226 -13h558v-30h-591v269h33v-239z" />
<glyph unicode="&#xad90;" d="M512 418h215v398h33v-510h-33v82h-215v30zM311 308v173q-114 -5 -252 -5l-6 32q265 0 427 13q22 120 22 220h-360v30h392v-14q0 -119 -20 -233q78 8 115 14l3 -27q-117 -20 -288 -29v-174h-33zM231 -23h568v-30h-600v182h529v113h-532v29h564v-171h-529v-123z" />
<glyph unicode="&#xad9c;" d="M512 400h215v415h33v-535h-33v90h-215v30zM311 282v190q-114 -5 -253 -5l-5 32q265 0 427 13q22 102 22 221v11h-360v30h392v-41q0 -121 -19 -218q76 8 114 14l3 -27q-117 -20 -288 -29v-191h-33zM655 247v-39q0 -70 53 -135t133 -93l-19 -27q-65 26 -113 73.5t-69 105.5 q-18 -59 -58 -109t-101 -77q-60 27 -100.5 77t-58.5 109q-21 -58 -69 -105.5t-113 -73.5l-18 27q80 29 132.5 93.5t52.5 134.5v39h31v-39q0 -63 38.5 -127.5t104.5 -99.5q66 35 104.5 99.5t38.5 127.5v39h31z" />
<glyph unicode="&#xad9d;" d="M512 383h215v433h33v-568h-33v106h-215v29zM311 262v193q-114 -5 -253 -5l-6 32q264 0 427 13q23 107 23 234v12h-360v30h392v-42q0 -128 -21 -231q77 8 116 14l3 -27q-117 -20 -288 -29v-194h-33zM491 -35q112 0 180.5 34.5t68.5 90.5q0 57 -68.5 91.5t-180.5 34.5 q-113 0 -181.5 -34t-68.5 -92q0 -56 68.5 -90.5t181.5 -34.5zM491 245q132 0 206.5 -41t74.5 -114t-74.5 -113.5t-206.5 -40.5t-207 40.5t-75 113.5t75 114t207 41z" />
<glyph unicode="&#xada4;" d="M522 412l3 -26q-92 -18 -230 -25v-348h-33v346q-77 -4 -206 -4l-7 32q215 0 349 11q23 124 23 270v12h-325v30h356v-42q0 -147 -22 -268q47 4 92 12zM590 245v546h33v-802h-33v225h-190v31h190zM747 816h33v-883h-33v883z" />
<glyph unicode="&#xadb7;" d="M780 816v-651h-33v651h33zM409 362h181v438h33v-604h-33v136h-181v30zM274 201v223q-79 -4 -213 -4l-7 32q210 0 343 11q23 112 23 238v8h-317v30h348v-38q0 -128 -21 -237q74 8 107 14l4 -27q-95 -18 -234 -25v-225h-33zM500 228v-29q0 -48 30.5 -90.5t79 -71t100 -47.5 t102.5 -27l-14 -28q-102 20 -192.5 70.5t-121.5 125.5q-21 -52 -76 -94t-114.5 -65.5t-123.5 -36.5l-13 28q50 8 101.5 27t100 47.5t79 71t30.5 90.5v29h32z" />
<glyph unicode="&#xadc0;" d="M658 402l3 -26q-129 -17 -302 -24v-363h-33v362q-118 -5 -267 -5l-7 31q281 2 424 11q30 168 30 322h-370v30h402v-21q0 -166 -28 -329q14 1 148 12zM735 816h33v-883h-33v883z" />
<glyph unicode="&#xadc1;" d="M361 429v-182h398v-319h-33v289h-544v30h146v180q-121 -5 -269 -5l-7 32q267 0 432 12q21 107 21 243v27h-361v30h393v-57q0 -137 -19 -240q60 6 121 15l4 -26q-115 -20 -282 -29zM726 816h33v-513h-33v513z" />
<glyph unicode="&#xadc4;" d="M759 816v-664h-33v664h33zM353 191v213q-124 -6 -286 -6l-6 32q267 0 431 13q22 146 22 276h-368v30h400v-16q0 -146 -20 -287q78 8 116 14l5 -26q-110 -19 -261 -28v-215h-33zM233 -13h558v-30h-591v262h33v-232z" />
<glyph unicode="&#xadc8;" d="M759 815v-468h-33v468h33zM230 -23h568v-30h-600v198h529v129h-532v30h133v149q-121 -4 -258 -4l-6 34q254 0 421 8q20 133 20 250h-361v30h392v-15q0 -133 -19 -263q115 8 123 9l3 -28q-129 -14 -283 -19v-151h399v-188h-529v-139z" />
<glyph unicode="&#xadd0;" d="M727 -23v236h-493v-236h493zM361 416v-174h398v-295h-557v295h126v172q-121 -5 -269 -5l-7 32q269 0 433 13q20 106 20 248v30h-362v30h394v-60q0 -142 -18 -245q55 4 120 14l4 -26q-115 -20 -282 -29zM726 816h33v-514h-33v514z" />
<glyph unicode="&#xadd1;" d="M331 262v183q-121 -5 -272 -5l-7 32q267 0 432 11q21 109 21 242v13h-362v30h394v-43q0 -134 -19 -241q41 3 121 11l4 -26q-124 -16 -279 -23v-184h-33zM727 -23v143h-493v-143h493zM727 150v125h32v-328h-558v328h33v-125h493zM726 816h33v-500h-33v500z" />
<glyph unicode="&#xadd3;" d="M759 815v-633h-33v633h33zM318 206v207q-120 -4 -251 -4l-6 32q261 0 424 12q21 118 21 258v17h-361v30h393v-47q0 -141 -19 -255q60 6 120 15l5 -27q-119 -20 -293 -29v-209h-33zM522 258v-55q0 -48 30.5 -91t78.5 -72t99.5 -48.5t101.5 -28.5l-14 -27q-64 13 -123 37 t-113.5 66.5t-75.5 95.5q-21 -53 -76 -96t-113.5 -66.5t-122.5 -36.5l-14 27q50 9 101.5 28.5t99.5 48.5t78.5 72t30.5 91v55h32z" />
<glyph unicode="&#xaddc;" d="M856 361v-30h-233v-396h-33v396h-264v-396h-33v396h-233v30h618q29 133 29 315v45h-539v30h571v-75q0 -181 -27 -315h144z" />
<glyph unicode="&#xade0;" d="M202 222v-235h567v-30h-600v265h33zM722 425h137v-30h-245v-235h-32v235h-225v-235h-32v235h-266v30h630q25 122 25 278v29h-549v30h581v-59q0 -158 -24 -278z" />
<glyph unicode="&#xade4;" d="M593 306v147h-267v-147h267zM860 453h-234v-147h128v-189h-560v-139h582v-30h-614v198h560v130h-563v30h134v147h-235v30h635q21 108 21 242v23h-549v30h581v-53q0 -138 -20 -242h134v-30z" />
<glyph unicode="&#xadf8;" d="M709 638v41h-558v30h590v-71q0 -233 -36 -434l-33 6q37 191 37 428zM60 106h796v-30h-796v30z" />
<glyph unicode="&#xadf9;" d="M145 210v30h611v-311h-33v281h-578zM718 431h141v-30h-801v30h626q30 123 30 279v30h-549v30h581v-60q0 -157 -28 -279z" />
<glyph unicode="&#xadfc;" d="M202 242v-254h572v-30h-605v284h33zM720 394h139v-30h-800v30h627q28 133 28 304v32h-549v30h581v-62q0 -171 -26 -304z" />
<glyph unicode="&#xadff;" d="M194 218v-241h567v-30h-600v301h596v-30h-563zM718 437h140v-30h-801v30h627q29 119 29 269v29h-549v30h581v-59q0 -152 -27 -269z" />
<glyph unicode="&#xae00;" d="M194 125v-147h582v-30h-614v207h560v138h-563v30h595v-198h-560zM724 469h135v-30h-801v30h633q23 112 23 253v24h-549v30h581v-54q0 -143 -22 -253z" />
<glyph unicode="&#xae01;" d="M184 -21h17q186 0 309 26l5 -31q-128 -26 -314 -26h-49v196h252v120h-255v30h287v-180h-252v-135zM489 264v30h273v-354h-33v324h-240zM721 452h137v-30h-800v30h630q26 116 26 263v28h-548v30h580v-58q0 -148 -25 -263z" />
<glyph unicode="&#xae08;" d="M194 221v-244h530v244h-530zM162 -53v303h594v-303h-594zM719 429h140v-30h-801v30h627q29 120 29 273v30h-549v30h581v-60q0 -154 -27 -273z" />
<glyph unicode="&#xae09;" d="M715 -24v161h-510v-161h510zM715 167v140h33v-361h-576v361h33v-140h510zM719 440h140v-31h-800v31h626q29 120 29 272v29h-549v30h581v-59q0 -153 -27 -272z" />
<glyph unicode="&#xae0b;" d="M472 275v-53q0 -52 30 -97.5t78.5 -77t99.5 -52.5t101 -31l-16 -27q-101 23 -190.5 78.5t-119.5 137.5q-16 -43 -50.5 -80.5t-79 -63.5t-90 -44t-91.5 -28l-15 27q50 10 101 31t99.5 52.5t78.5 77t30 97.5v53h34zM717 406h138v-31h-795v31h624q30 129 30 295v35h-555v30 h587v-65q0 -166 -29 -295z" />
<glyph unicode="&#xae0d;" d="M456 -33q121 0 195 35.5t74 93.5q0 59 -74 94.5t-195 35.5t-195 -35.5t-74 -94.5q0 -58 74 -93.5t195 -35.5zM456 255q142 0 222 -42t80 -117t-80 -116.5t-222 -41.5t-222 41.5t-80 116.5t80 117t222 42zM718 422h141v-30h-801v30h625q31 124 31 282v30h-549v30h581v-60 q0 -158 -28 -282z" />
<glyph unicode="&#xae14;" d="M533 645v27h-403v30h435v-57q0 -180 -29 -329l-33 7q30 145 30 322zM73 166l-9 32q386 0 597 31l3 -27q-221 -36 -591 -36zM727 815h33v-882h-33v882z" />
<glyph unicode="&#xae30;" d="M113 717h401q0 -184 -107 -343.5t-309 -259.5l-19 28q184 89 289 233t113 312h-368v30zM738 816h33v-883h-33v883z" />
<glyph unicode="&#xae31;" d="M117 752h401q0 -156 -116 -272t-311 -171l-15 28q178 49 288 149.5t119 235.5h-366v30zM196 215v30h576v-315h-33v285h-543zM739 814h33v-522h-33v522z" />
<glyph unicode="&#xae34;" d="M772 815v-641h-33v641h33zM118 747h399q0 -160 -116 -284.5t-310 -188.5l-15 29q176 58 286 166.5t119 247.5h-363v30zM250 -13h549v-30h-582v265h33v-235z" />
<glyph unicode="&#xae37;" d="M771 814v-512h-34v512h34zM117 752h401q0 -157 -114.5 -272.5t-314.5 -169.5l-13 29q181 49 289.5 148.5t117.5 234.5h-366v30zM250 -23h539v-30h-572v303h557v-30h-524v-243z" />
<glyph unicode="&#xae38;" d="M772 816v-458h-33v458h33zM118 762h395q0 -151 -117 -261.5t-306 -159.5l-14 27q173 46 282.5 140.5t118.5 223.5h-359v30zM255 -28h554v-30h-586v207h517v130h-520v30h552v-189h-517v-148z" />
<glyph unicode="&#xae3a;" d="M117 759h398q0 -152 -116 -262t-308 -157l-17 29q177 43 287 136.5t118 224.5h-362v29zM213 -26h9q162 0 249 17l4 -30q-90 -17 -253 -17h-41v198h234v117h-237v31h269v-177h-234v-139zM540 259v-284h200v284h-200zM508 -56v346h264v-346h-264zM738 816h34v-477h-34v477z " />
<glyph unicode="&#xae40;" d="M117 752h401q0 -156 -116 -271t-312 -169l-15 28q179 49 289 148.5t119 233.5h-366v30zM248 234v-256h492v256h-492zM216 -52v315h556v-315h-556zM739 814h33v-503h-33v503z" />
<glyph unicode="&#xae41;" d="M118 756h400q0 -154 -114.5 -265.5t-313.5 -161.5l-14 28q181 45 289 140.5t117 228.5h-364v30zM739 -24v150h-488v-150h488zM739 155v138h32v-346h-553v346h33v-138h488zM738 816h33v-482h-33v482z" />
<glyph unicode="&#xae43;" d="M769 815v-600h-33v600h33zM118 743h401q0 -157 -116.5 -278.5t-307.5 -182.5l-14 28q174 55 284 160.5t119 242.5h-366v30zM517 283v-40q0 -55 30.5 -104.5t79 -83.5t99.5 -57t101 -34l-17 -27q-102 27 -191 86t-119 146q-30 -88 -121 -147t-195 -85l-15 27 q51 11 102.5 33.5t100.5 56.5t80 83.5t31 105.5v40h34z" />
<glyph unicode="&#xae45;" d="M769 815v-546h-33v546h33zM118 743h401q0 -157 -118.5 -277.5t-308.5 -180.5l-17 27q175 54 287.5 159t121.5 242h-366v30zM485 -34q116 0 186.5 37t70.5 98q0 60 -71 97t-186 37t-186 -37t-71 -97q0 -61 71 -98t186 -37zM485 264q135 0 212.5 -43.5t77.5 -119.5 q0 -77 -77.5 -120.5t-212.5 -43.5t-212.5 43.5t-77.5 120.5q0 76 77.5 119.5t212.5 43.5z" />
<glyph unicode="&#xae46;" d="M771 814v-504h-34v504h34zM117 752h402q0 -156 -116 -272t-311 -170l-16 29q179 49 289 149.5t118 234.5h-366v29zM522 217v-12q0 -44 30 -86.5t76 -73t96.5 -52t96.5 -31.5l-15 -26q-60 14 -118 40.5t-110 70.5t-73 95q-29 -74 -116 -129t-181 -77l-15 26 q64 14 129 45.5t116 85.5t51 112v12h-266v30h563v-30h-264z" />
<glyph unicode="&#xae4a;" d="M772 814v-490h-33v490h33zM117 751h402q0 -155 -117.5 -269.5t-312.5 -167.5l-15 29q180 47 290 145.5t119 232.5h-366v30zM386 235v-258h233v258h-233zM652 -23h150v-30h-596v30h147v258h-139v30h577v-30h-139v-258z" />
<glyph unicode="&#xae4c;" d="M88 715h241q0 -145 -57.5 -298t-172.5 -270l-29 19q105 103 163.5 243.5t64.5 275.5h-210v30zM356 715h211q0 -70 -9.5 -144t-31.5 -160t-65.5 -171.5t-104.5 -154.5l-31 18q73 79 122.5 189.5t68 205t21.5 187.5h-181v30zM893 434v-30h-150v-471h-33v883h33v-382h150z " />
<glyph unicode="&#xae4d;" d="M359 303l-25 23q190 143 200 393h-175v30h208q0 -279 -208 -446zM90 749h231q0 -242 -216 -384l-23 23q99 63 149.5 144t56.5 187h-198v30zM177 219v30h557v-319h-33v289h-524zM878 567v-30h-144v-244h-33v523h33v-249h144z" />
<glyph unicode="&#xae4e;" d="M360 316l-26 22q190 141 200 382h-175v30h208q0 -271 -207 -434zM90 750h231q0 -238 -215 -378l-24 23q98 62 149 141.5t57 183.5h-198v30zM146 222v30h273v-319h-33v289h-240zM469 222v30h265v-319h-33v289h-232zM878 572v-30h-144v-235h-33v508h33v-243h144z" />
<glyph unicode="&#xae50;" d="M357 269l-25 23q191 151 202 414h-175v30h208q0 -292 -210 -467zM90 736h231q0 -261 -220 -419l-25 23q201 135 212 366h-198v30zM237 216v-229h536v-30h-569v259h33zM734 521h144v-30h-144v-324h-33v650h33v-296z" />
<glyph unicode="&#xae54;" d="M358 361l-26 21q189 132 200 348h-175v30h208q0 -248 -207 -399zM88 760h230q0 -113 -55 -193.5t-158 -148.5l-25 23q93 58 146 125.5t59 163.5h-197v30zM233 120v-143h540v-30h-572v203h502v132h-505v30h537v-192h-502zM735 602h143v-30h-143v-211h-33v455h33v-214z" />
<glyph unicode="&#xae56;" d="M358 348l-26 21q190 133 201 358h-176v30h209q0 -254 -208 -409zM87 757h232q0 -114 -55.5 -196t-157.5 -151l-25 23q93 57 145.5 127t59.5 167h-199v30zM178 -27h9q161 0 248 17l5 -30q-91 -17 -253 -17h-41v197h233v118h-236v30h268v-178h-233v-137zM505 259v-287h197 v287h-197zM473 -57v345h261v-345h-261zM878 598v-30h-144v-224h-33v472h33v-218h144z" />
<glyph unicode="&#xae5c;" d="M359 312l-26 22q191 143 201 386h-175v30h208q0 -273 -208 -438zM91 750h230q0 -241 -215 -383l-24 23q194 122 206 330h-197v30zM232 221v-244h469v244h-469zM200 -53v303h534v-303h-534zM878 579v-30h-144v-251h-33v517h33v-236h144z" />
<glyph unicode="&#xae5d;" d="M361 326l-26 22q189 140 199 376h-175v30h208q0 -267 -206 -428zM90 754h231q0 -234 -214 -373l-24 23q98 60 148.5 138t56.5 182h-198v30zM701 -25v146h-469v-146h469zM701 151v137h33v-343h-535v343h33v-137h469zM878 597v-30h-144v-228h-33v476h33v-218h144z" />
<glyph unicode="&#xae5f;" d="M359 295l-26 23q191 144 201 391h-175v30h208q0 -277 -208 -444zM90 739h231q0 -241 -215 -383l-24 23q194 123 206 330h-198v30zM499 271v-31q0 -55 31 -104t80 -82t100.5 -54.5t102.5 -32.5l-16 -28q-64 16 -123.5 42.5t-115 76t-76.5 108.5q-21 -59 -76.5 -108.5 t-115 -76t-123.5 -42.5l-15 28q51 11 102.5 32.5t100.5 54.5t80 82t31 104v31h33zM734 554h144v-30h-144v-299h-33v591h33v-262z" />
<glyph unicode="&#xae60;" d="M360 312l-26 22q190 143 200 386h-174v30h207q0 -272 -207 -438zM106 367l-24 23q194 123 206 330h-198v30h231q0 -241 -215 -383zM658 267v-78q0 -68 55 -133t136 -95l-17 -27q-67 26 -118 75t-71 108q-20 -59 -63 -110.5t-103 -78.5q-63 25 -106 75t-60 112 q-23 -57 -73 -105.5t-115 -75.5l-17 27q79 31 135 97.5t56 130.5v78h31v-78q0 -67 40 -130t108 -96q68 36 109.5 102.5t41.5 123.5v78h31zM734 578h144v-30h-144v-241h-33v508h33v-237z" />
<glyph unicode="&#xae61;" d="M360 316l-26 22q190 141 200 382h-175v30h208q0 -271 -207 -434zM90 750h231q0 -240 -216 -383l-24 23q195 123 207 330h-198v30zM460 -34q113 0 181.5 34.5t68.5 92.5q0 57 -68.5 91.5t-181.5 34.5t-181.5 -34.5t-68.5 -91.5q0 -58 68.5 -92.5t181.5 -34.5zM460 248 q132 0 207 -41t75 -114q0 -74 -74.5 -115t-207.5 -41t-207.5 41t-74.5 115q0 73 75 114t207 41zM734 574h144v-30h-144v-259h-33v530h33v-241z" />
<glyph unicode="&#xae65;" d="M358 357l-26 21q189 130 200 347h-175v30h208q0 -249 -207 -398zM87 755h231q0 -113 -55.5 -193t-158.5 -149l-25 23q93 57 146 125t60 164h-198v30zM234 100v-123h527v-30h-560v329h539v-30h-506v-116h494v-30h-494zM734 591h144v-30h-144v-226h-33v481h33v-225z" />
<glyph unicode="&#xae68;" d="M85 704h194q0 -340 -173 -539l-29 20q161 175 172 489h-164v30zM311 704h173q0 -409 -169 -613l-28 20q162 182 167 563h-143v30zM768 816h33v-882h-33v473h-149v-425h-33v809h33v-354h149v379z" />
<glyph unicode="&#xae69;" d="M309 749h182q0 -280 -173 -450l-30 20q161 148 170 400h-149v30zM88 749h197q0 -121 -43.5 -217t-140.5 -174l-26 24q168 127 177 337h-164v30zM214 214v30h580v-311h-33v281h-547zM761 814h33v-522h-33v253h-149v-246h-33v499h33v-223h149v239z" />
<glyph unicode="&#xae6c;" d="M612 507v-322h-33v614h33v-262h149v278h33v-664h-33v356h-149zM309 740h182q0 -285 -174 -458l-30 20q163 150 172 408h-150v30zM84 740h201q0 -251 -182 -400l-26 22q166 130 175 348h-168v30zM271 -13h554v-30h-587v267h33v-237z" />
<glyph unicode="&#xae70;" d="M612 564v-205h-33v439h33v-204h149v221h33v-463h-33v212h-149zM315 340l-29 21q164 135 172 365h-149v30h182q0 -259 -176 -416zM84 756h201q0 -117 -43 -203t-138 -157l-26 23q86 61 128 134t46 173h-168v30zM265 -23h568v-30h-600v198h529v127h-532v30h564v-186h-529 v-139z" />
<glyph unicode="&#xae78;" d="M317 312l-30 20q162 142 171 389h-149v30h182q0 -274 -174 -439zM84 751h201q0 -120 -42 -212t-137 -168l-26 23q86 66 126.5 145t45.5 182h-168v30zM266 230v-252h496v252h-496zM234 -52v311h560v-311h-560zM761 814h33v-508h-33v236h-149v-229h-33v485h33v-226h149v242 z" />
<glyph unicode="&#xae79;" d="M317 324l-29 21q161 141 170 382h-149v30h182q0 -271 -174 -433zM84 757h201q0 -119 -43 -209t-138 -165l-25 22q86 65 127 142.5t46 179.5h-168v30zM762 -25v152h-492v-152h492zM762 157v131h32v-343h-557v343h33v-131h492zM761 815h33v-482h-33v219h-149v-212h-33v458 h33v-216h149v233z" />
<glyph unicode="&#xae7b;" d="M612 545v-232h-33v486h33v-224h149v241h33v-577h-33v306h-149zM309 746h182q0 -285 -174 -456l-30 19q163 150 172 408h-150v29zM84 746h201q0 -123 -42.5 -220.5t-138.5 -178.5l-26 23q166 131 174 347h-168v29zM529 273v-51q0 -50 32.5 -95.5t82.5 -77.5t102.5 -54 t99.5 -31l-15 -27q-100 22 -194 80t-125 140q-31 -82 -125 -140t-195 -80l-14 27q66 13 135.5 45t125.5 90t56 123v51h34z" />
<glyph unicode="&#xae7c;" d="M612 545v-241h-33v494h33v-223h149v239h33v-517h-33v248h-149zM317 316l-29 22q161 141 170 383h-149v30h182q0 -270 -174 -435zM84 751h201q0 -120 -42 -212t-137 -168l-26 23q86 66 126.5 145t45.5 182h-168v30zM674 261v-63q0 -68 55 -133t136 -94l-17 -27 q-67 25 -118 74.5t-71 108.5q-19 -58 -61.5 -110t-102.5 -80q-64 27 -107 77t-59 111q-23 -57 -73.5 -106t-114.5 -75l-18 27q79 30 135.5 97t56.5 130v63h31v-63q0 -67 40 -129.5t108 -96.5q66 37 107.5 103.5t41.5 122.5v63h31z" />
<glyph unicode="&#xae7d;" d="M612 530v-226h-33v495h33v-239h149v255h33v-546h-33v261h-149zM315 301l-27 21q161 143 170 390h-148v30h181q0 -275 -176 -441zM85 742h200q0 -120 -42 -212.5t-137 -168.5l-26 23q86 65 126.5 144.5t45.5 183.5h-167v30zM514 -34q118 0 189 34.5t71 92.5 q0 57 -71.5 91.5t-188.5 34.5q-118 0 -189 -34.5t-71 -91.5q0 -58 71 -92.5t189 -34.5zM514 248q138 0 215.5 -41t77.5 -114q0 -75 -77.5 -115.5t-215.5 -40.5t-215.5 40.5t-77.5 115.5q0 73 77.5 114t215.5 41z" />
<glyph unicode="&#xae84;" d="M88 715h241q0 -145 -57.5 -298.5t-172.5 -270.5l-29 19q105 103 163.5 244t64.5 276h-210v30zM356 715h211q0 -70 -9.5 -144t-31.5 -160t-65.5 -172t-104.5 -155l-31 19q56 60 98 137t65 156t35 150t14 139h-181v30zM893 531h-150v-236h150v-30h-150v-332h-33v883h33 v-255h150v-30z" />
<glyph unicode="&#xae85;" d="M359 303l-25 23q190 144 200 393h-175v30h208q0 -279 -208 -446zM90 749h231q0 -240 -216 -384l-23 23q99 63 149.5 144t56.5 187h-198v30zM177 219v30h557v-319h-33v289h-524zM878 632h-144v-152h144v-30h-144v-157h-33v523h33v-154h144v-30z" />
<glyph unicode="&#xae8c;" d="M358 361l-26 21q189 132 200 348h-175v30h208q0 -248 -207 -399zM88 760h230q0 -113 -55 -193.5t-158 -148.5l-25 23q93 58 146 125.5t59 163.5h-197v30zM233 120v-143h540v-30h-572v203h502v132h-505v30h537v-192h-502zM878 655h-143v-130h143v-30h-143v-134h-33v455h33 v-131h143v-30z" />
<glyph unicode="&#xaebc;" d="M88 715h241q0 -145 -57.5 -298t-172.5 -271l-29 20q105 103 163.5 243.5t64.5 275.5h-210v30zM738 816h33v-883h-33v488h-212q-52 -201 -172 -336l-31 18q73 78 122.5 189t68 205.5t21.5 187.5h-181v30h211q0 -132 -31 -264h204v365z" />
<glyph unicode="&#xaebd;" d="M83 749h231q0 -242 -216 -384l-23 23q99 63 149.5 144t56.5 187h-198v30zM196 219v30h576v-315h-33v285h-543zM739 816h33v-523h-33v248h-218q-51 -140 -172 -238l-25 23q189 145 199 393h-174v30h207q0 -93 -25 -178h208v245z" />
<glyph unicode="&#xaebe;" d="M83 750h231q0 -238 -215 -380l-24 23q99 63 149.5 142.5t56.5 184.5h-198v30zM174 219v30h278v-315h-33v285h-245zM503 219v30h269v-315h-33v285h-236zM739 815h33v-522h-33v245h-221q-48 -129 -168 -224l-25 22q188 142 198 384h-174v30h207q0 -95 -27 -182h210v247z " />
<glyph unicode="&#xaec0;" d="M349 269l-26 24q189 150 200 412h-175v31h208q0 -111 -31 -205h214v284h33v-650h-33v336h-225q-49 -133 -165 -232zM83 736h231q0 -259 -207 -417l-25 23q188 137 199 363h-198v31zM259 -13h536v-30h-569v251h33v-221z" />
<glyph unicode="&#xaec4;" d="M351 362l-26 21q188 130 199 347h-177v30h210q0 -95 -30 -176h211v232h33v-458h-33v196h-224q-48 -108 -163 -192zM90 760h225q0 -114 -55 -194t-158 -148l-25 23q93 58 146 125.5t59 163.5h-192v30zM254 -28h550v-30h-582v207h517v130h-520v30h552v-189h-517v-148z" />
<glyph unicode="&#xaecc;" d="M83 749h231q0 -241 -216 -383l-23 23q99 63 149.5 143.5t56.5 186.5h-198v30zM248 234v-256h492v256h-492zM216 -52v315h556v-315h-556zM739 814h33v-503h-33v225h-221q-50 -133 -169 -227l-25 23q189 141 199 387h-174v30h207q0 -95 -27 -183h210v248z" />
<glyph unicode="&#xaecd;" d="M87 754h227q0 -234 -215 -374l-23 24q195 120 205 320h-194v30zM740 -24v150h-488v-150h488zM740 155v138h32v-346h-553v346h33v-138h488zM739 815h33v-472h-33v202h-221q-49 -129 -168 -221l-24 23q187 140 197 377h-174v30h207q0 -94 -27 -179h210v240z" />
<glyph unicode="&#xaecf;" d="M349 294l-25 23q191 145 199 393h-174v30h207q0 -109 -34 -207h217v282h33v-615h-33v303h-229q-53 -122 -161 -209zM86 740h228q0 -242 -216 -384l-23 23q99 63 149.5 144t56.5 187h-195v30zM516 293v-51q0 -45 20.5 -86t53 -71t74.5 -55t82.5 -40.5t80.5 -24.5l-16 -27 q-64 16 -122.5 43.5t-113.5 76.5t-76 109q-21 -61 -76.5 -111t-114.5 -77.5t-124 -43.5l-15 27q51 11 102.5 33.5t100.5 56.5t80 84t31 106v51h33z" />
<glyph unicode="&#xaed0;" d="M350 318l-25 23q188 141 198 379h-175v30h208q0 -102 -31 -191h215v255h33v-513h-33v228h-227q-48 -121 -163 -211zM83 750h231q0 -241 -216 -383l-23 23q194 123 206 330h-198v30zM665 275v-77q0 -69 55 -134t136 -94l-18 -27q-67 26 -117.5 75.5t-70.5 108.5 q-19 -58 -62 -110.5t-103 -80.5q-64 27 -107 77.5t-59 111.5q-23 -57 -73 -106t-115 -76l-17 27q79 30 135 97t56 131v77h31v-77q0 -68 40 -130.5t108 -96.5q67 37 108.5 104t41.5 123v77h31z" />
<glyph unicode="&#xaed1;" d="M349 309l-25 23q189 142 199 387h-174v30h207q0 -108 -33 -200h216v265h33v-553h-33v258h-228q-50 -121 -162 -210zM84 749h230q0 -241 -216 -383l-23 23q99 63 149.5 143.5t56.5 186.5h-197v30zM486 -34q116 0 186.5 36t70.5 95t-70.5 95t-186.5 36t-186.5 -36 t-70.5 -95t70.5 -95t186.5 -36zM486 257q136 0 213 -42.5t77 -117.5t-77 -117.5t-213 -42.5t-213 42t-77 118t77 118t213 42z" />
<glyph unicode="&#xaed8;" d="M85 704h193q0 -336 -174 -538l-28 20q162 175 173 488h-164v30zM611 453v336h33v-805h-33v439h-165q-40 -201 -146 -328l-29 19q164 182 169 560h-130v30h160q0 -141 -18 -251h159zM766 815h33v-882h-33v882z" />
<glyph unicode="&#xaed9;" d="M308 299l-30 20q161 147 170 400h-139v30h172q0 -91 -19 -176h150v221h33v-494h-33v243h-158q-42 -142 -146 -244zM84 749h201q0 -121 -42.5 -216.5t-137.5 -174.5l-26 23q164 129 173 338h-168v30zM214 214v30h580v-311h-33v281h-547zM761 814h33v-522h-33v522z" />
<glyph unicode="&#xaedc;" d="M794 815v-664h-33v664h33zM306 276l-27 22q161 152 170 413h-140v30h172q0 -104 -22 -192h154v246h33v-619h-33v343h-162q-42 -140 -145 -243zM85 741h200q0 -250 -182 -402l-26 23q166 131 175 349h-167v30zM271 1h554v-30h-587v254h33v-224z" />
<glyph unicode="&#xaee8;" d="M307 311l-28 19q160 144 169 391h-139v30h170q0 -99 -21 -182h154v225h33v-476h-33v221h-163q-42 -132 -142 -228zM84 751h199q0 -119 -42 -211t-137 -168l-24 22q86 65 126.5 144t45.5 183h-168v30zM266 230v-252h496v252h-496zM234 -52v311h560v-311h-560zM761 814h33 v-508h-33v508z" />
<glyph unicode="&#xaeeb;" d="M794 815v-601h-33v601h33zM307 286l-30 20q163 150 172 406h-140v30h172q0 -91 -19 -179h150v232h33v-500h-33v238h-159q-41 -144 -146 -247zM84 742h201q0 -122 -42.5 -218t-138.5 -174l-26 22q165 129 174 340h-168v30zM528 269v-43q0 -51 33 -97.5t83.5 -79t103 -54.5 t100.5 -31l-15 -26q-62 14 -123.5 40.5t-119 75t-79.5 105.5q-22 -57 -79.5 -105.5t-119 -75t-123.5 -40.5l-15 26q48 9 101 31t103.5 54.5t83 79t32.5 97.5v43h34z" />
<glyph unicode="&#xaeed;" d="M794 815v-546h-33v546h33zM307 299l-28 21q160 144 169 392h-139v30h172q0 -96 -20 -180h151v233h33v-491h-33v228h-160q-42 -134 -145 -233zM87 742h198q0 -120 -42 -212.5t-137 -168.5l-26 23q86 66 126.5 145t45.5 183h-165v30zM502 -34q121 0 194 34.5t73 92.5 t-73 92t-194 34t-194 -34.5t-73 -91.5q0 -58 73 -92.5t194 -34.5zM502 248q142 0 221 -40.5t79 -114.5q0 -75 -79 -115.5t-221 -40.5t-221 40.5t-79 115.5q0 74 79 114.5t221 40.5z" />
<glyph unicode="&#xaef4;" d="M78 715h241q0 -146 -59 -301t-176 -273l-28 19q106 105 166 247.5t66 277.5h-210v30zM485 321h253v202h-199q-18 -109 -54 -202zM738 816h33v-883h-33v358h-265q-49 -119 -131 -211l-31 18q74 79 123.5 191t68 207t21.5 189h-179v30h209q0 -83 -12 -162h196v263z" />
<glyph unicode="&#xaef8;" d="M345 269l-26 23q189 149 200 413h-171v31h204q0 -58 -8 -105h195v184h33v-655h-33v226h-222v30h222v185h-200q-39 -203 -194 -332zM83 736h231q0 -261 -207 -417l-25 23q188 135 199 363h-198v31zM259 -13h536v-30h-569v249h33v-219z" />
<glyph unicode="&#xaefc;" d="M349 362l-26 21q188 130 199 347h-175v30h208q0 -44 -8 -92h191v148h33v-458h-33v116h-211v30h211v134h-197q-38 -163 -192 -276zM90 760h225q0 -113 -55 -193.5t-158 -148.5l-25 23q94 59 146.5 126t58.5 163h-192v30zM254 -28h550v-30h-582v207h517v130h-520v30h552 v-189h-517v-148z" />
<glyph unicode="&#xaf07;" d="M349 294l-25 23q191 146 199 393h-174v30h207q0 -61 -10 -114h193v189h33v-614h-33v207h-215v30h215v158h-198q-42 -182 -192 -302zM86 740h228q0 -242 -216 -384l-23 23q99 63 149.5 144t56.5 187h-195v30zM516 282v-39q0 -45 20.5 -86t53 -71t74.5 -55t82.5 -40.5 t80.5 -24.5l-16 -27q-64 16 -122.5 43.5t-113.5 76.5t-76 109q-21 -61 -76.5 -111t-114.5 -77.5t-124 -43.5l-15 27q51 11 102.5 33.5t100.5 56.5t80 84t31 106v39h33z" />
<glyph unicode="&#xaf08;" d="M350 318l-25 23q188 141 198 379h-175v30h208q0 -49 -8 -100h192v164h33v-513h-33v127h-211v30h211v162h-198q-41 -184 -192 -302zM83 750h231q0 -241 -216 -383l-23 23q194 123 206 330h-198v30zM665 275v-77q0 -69 55 -134t136 -94l-18 -27q-66 26 -117 75.5t-71 107.5 q-19 -58 -62 -109.5t-103 -80.5q-64 27 -107 77.5t-59 111.5q-23 -57 -73 -106t-115 -76l-17 27q79 30 135 97t56 131v77h31v-77q0 -68 40 -130.5t108 -96.5q67 37 108.5 104t41.5 123v77h31z" />
<glyph unicode="&#xaf0d;" d="M336 325l-25 23q192 138 203 376h-165v30h198q0 -51 -9 -102h201v163h33v-490h-33v127h-212v30h212v140h-207q-40 -177 -196 -297zM84 754h230q0 -234 -215 -374l-23 24q99 61 149.5 138.5t55.5 181.5h-197v30zM255 -23h539v-30h-572v329h553v-30h-520v-118h506v-30h-506 v-121z" />
<glyph unicode="&#xaf10;" d="M85 704h193q0 -336 -174 -538l-28 20q162 175 173 488h-164v30zM424 333h189v197h-151q-12 -110 -38 -197zM613 560v229h33v-805h-33v319h-199q-42 -122 -114 -208l-29 19q164 182 169 560h-130v30h160q0 -74 -5 -144h148zM766 815h33v-882h-33v882z" />
<glyph unicode="&#xaf2c;" d="M722 649v35h-253v30h285v-65q0 -207 -40 -386l-34 7q42 169 42 379zM337 263l-36 5q58 217 58 416h-234v30h266v-15q0 -207 -54 -436zM494 105h362v-30h-797v30h402v305h33v-305z" />
<glyph unicode="&#xaf2d;" d="M730 473l-32 5q23 135 23 266h-246v30h278v-22q0 -144 -23 -279zM358 472l-32 6q36 137 36 266h-229v30h261v-22q0 -143 -36 -280zM148 200v30h607v-292h-33v262h-574zM493 377h363v-30h-797v30h401v201h33v-201z" />
<glyph unicode="&#xaf30;" d="M730 450l-33 4q24 143 24 282h-246v30h278v-24q0 -150 -23 -292zM358 450l-32 5q36 145 36 281h-229v30h261v-23q0 -149 -36 -293zM202 225v-238h572v-30h-605v268h33zM493 364h363v-30h-796v30h400v196h33v-196z" />
<glyph unicode="&#xaf32;" d="M730 482l-32 5q23 131 23 257h-246v30h278v-22q0 -139 -23 -270zM359 484l-33 6q36 130 36 254h-229v30h261v-21q0 -138 -35 -269zM194 -13h3q110 0 220 26l6 -31q-118 -26 -226 -26h-36v302h33v-271zM597 -35q52 0 85 24.5t33 61.5q0 38 -33 62t-85 24t-85 -24t-33 -62 q0 -37 33 -61.5t85 -24.5zM597 165q65 0 107 -31t42 -83t-42 -83t-107 -31q-64 0 -106.5 31t-42.5 83t42.5 83t106.5 31zM614 334v-96h177v-30h-390v30h180v96h33zM493 412h363v-30h-796v30h400v178h33v-178z" />
<glyph unicode="&#xaf34;" d="M731 513l-33 5q23 125 23 236h-246v30h278v-20q0 -130 -22 -251zM359 512l-33 6q36 124 36 236h-229v30h261v-20q0 -130 -35 -252zM194 116v-139h592v-30h-624v200h560v121h-563v30h595v-182h-560zM493 439h363v-30h-797v30h401v180h33v-180z" />
<glyph unicode="&#xaf3c;" d="M730 477l-32 5q23 133 23 262h-246v30h278v-22q0 -142 -23 -275zM358 477l-32 7q36 133 36 260h-229v30h261v-22q0 -140 -36 -275zM194 213v-236h530v236h-530zM162 -53v295h594v-295h-594zM493 395h363v-30h-797v30h401v190h33v-190z" />
<glyph unicode="&#xaf3d;" d="M730 484l-32 5q23 130 23 255h-246v30h278v-21q0 -140 -23 -269zM359 482l-33 7q36 130 36 255h-228v30h260v-21q0 -139 -35 -271zM715 -24v157h-510v-157h510zM715 163v130h33v-346h-576v346h33v-130h510zM493 411h363v-30h-796v30h400v178h33v-178z" />
<glyph unicode="&#xaf3f;" d="M730 463l-33 3q24 138 24 271h-246v30h278v-23q0 -145 -23 -281zM358 463l-32 5q36 139 36 269h-229v30h261v-22q0 -144 -36 -282zM474 275v-58q0 -51 30.5 -96t79.5 -75.5t100.5 -51t102.5 -29.5l-15 -28q-104 22 -194.5 76t-120.5 135q-30 -81 -121 -135t-195 -76 l-14 28q51 9 102.5 29.5t100.5 51t79.5 75.5t30.5 96v58h34zM493 384h363v-30h-797v30h401v184h33v-184z" />
<glyph unicode="&#xaf41;" d="M730 477l-32 5q23 133 23 262h-246v30h278v-22q0 -142 -23 -275zM358 477l-33 7q37 133 37 260h-229v30h261v-22q0 -140 -36 -275zM456 -35q122 0 195.5 36.5t73.5 97.5q0 60 -74 96.5t-195 36.5t-195 -36.5t-74 -96.5q0 -61 74 -97.5t195 -36.5zM456 261 q142 0 222 -42.5t80 -119.5t-80 -120t-222 -43t-222 43t-80 120t80 119.5t222 42.5zM493 392h363v-30h-797v30h401v189h33v-189z" />
<glyph unicode="&#xaf42;" d="M730 477l-32 5q23 133 23 262h-246v30h278v-22q0 -142 -23 -275zM358 477l-32 7q36 133 36 260h-229v30h261v-22q0 -140 -36 -275zM760 209h-283q2 -50 34.5 -94.5t81.5 -74t100 -49t101 -28.5l-14 -27q-65 13 -125.5 38t-117 71t-77.5 103q-31 -82 -123 -135t-199 -76 l-14 28q50 9 101.5 28t101 48.5t82 73.5t34.5 94h-284v30h601v-30zM493 392h363v-30h-797v30h401v191h33v-191z" />
<glyph unicode="&#xaf43;" d="M730 485l-32 5q23 131 23 257h-246v30h278v-22q0 -139 -23 -270zM359 487l-33 6q36 130 36 254h-229v30h261v-21q0 -138 -35 -269zM473 209v-3q0 -59 54.5 -112.5t122 -84.5t131.5 -43l-16 -27q-96 21 -187 75.5t-122 129.5q-21 -51 -75.5 -95.5t-114 -70.5t-118.5 -39 l-16 27q64 12 131.5 43t122 84.5t54.5 112.5v3h-272v30h272v108h33v-108h272v-30h-272zM493 415h363v-30h-797v30h401v178h33v-178z" />
<glyph unicode="&#xaf48;" d="M523 665v13h-184v30h215v-43q0 -177 -22 -332l-31 4q22 154 22 328zM246 652v26h-165v30h196v-56q0 -174 -44 -324l-33 8q46 143 46 316zM368 459v-279q134 6 252 21l3 -27q-224 -32 -565 -32l-9 31q190 2 286 6v280h33zM882 433v-30h-164v-469h-33v882h33v-383h164z" />
<glyph unicode="&#xaf49;" d="M512 710v10h-180v30h212v-40q0 -141 -28 -263l-33 5q29 122 29 258zM240 450l-34 6q33 134 36 264h-159v30h191v-12q0 -142 -34 -288zM614 384l3 -27q-217 -34 -560 -34l-6 32q155 0 277 5v183h33v-181q140 6 253 22zM157 189v30h561v-277h-33v247h-528zM865 543v-30 h-147v-247h-33v549h33v-272h147z" />
<glyph unicode="&#xaf50;" d="M512 724v5h-180v30h212v-35q0 -127 -24 -234l-32 5q24 108 24 229zM241 490l-33 5q31 119 34 234h-159v30h191v-10q0 -131 -33 -259zM615 437l3 -27q-217 -34 -560 -34l-6 32q154 0 276 5v167h33v-165q125 4 254 22zM204 111v-134h550v-30h-582v194h514v117h-517v30h549 v-177h-514zM718 580h147v-30h-147v-216h-33v482h33v-236z" />
<glyph unicode="&#xaf5c;" d="M512 713v10h-180v30h212v-40q0 -141 -28 -263l-33 5q29 121 29 258zM240 453l-34 5q33 135 36 265h-159v30h191v-12q0 -143 -34 -288zM614 390l3 -27q-201 -34 -560 -34l-6 32q153 0 277 5v181h33v-180q163 9 253 23zM638 247v-49q0 -67 50 -132t127 -95l-18 -27 q-62 26 -107.5 73.5t-66.5 104.5q-42 -131 -166 -185q-124 54 -166 185q-21 -57 -66.5 -104.5t-106.5 -73.5l-19 27q77 30 127 95t50 132v49h31v-49q0 -64 41 -128t109 -97q69 33 109.5 97t40.5 128v49h31zM718 560h147v-30h-147v-245h-33v530h33v-255z" />
<glyph unicode="&#xaf5d;" d="M512 714v9h-180v30h212v-39q0 -141 -28 -262l-33 6q29 120 29 256zM240 452l-33 6q32 136 35 265h-159v30h191v-12q0 -143 -34 -289zM614 391l3 -27q-201 -34 -560 -34l-6 32q153 0 277 5v181h33v-180q163 9 253 23zM449 -33q112 0 179 32.5t67 86.5t-67 86.5t-179 32.5 q-111 0 -178 -32.5t-67 -86.5t67 -86.5t178 -32.5zM449 234q131 0 204.5 -39t73.5 -109t-73.5 -109t-204.5 -39q-130 0 -203.5 39t-73.5 109t73.5 109t203.5 39zM718 556h147v-30h-147v-275h-33v564h33v-259z" />
<glyph unicode="&#xaf64;" d="M470 647v31h-165v30h197v-61q0 -164 -19 -287l-32 4q19 124 19 283zM221 357l-34 4q34 155 34 317h-141v30h173v-30q0 -164 -32 -321zM337 443v-250q138 7 213 19l4 -26q-173 -31 -493 -31l-7 32q127 0 250 4v252h33zM757 816h33v-883h-33v461h-134v-412h-33v810h33v-368 h134v392z" />
<glyph unicode="&#xaf65;" d="M469 717v8h-170v30h201v-38q0 -135 -19 -250l-31 3q19 116 19 247zM222 466l-32 4q26 127 29 255h-141v30h172v-11q0 -138 -28 -278zM543 385l2 -27q-187 -28 -482 -28l-6 32q135 0 246 5v196h33v-195q131 7 207 17zM202 190v30h588v-288h-33v258h-555zM757 816h33v-550 h-33v257h-133v-250h-33v527h33v-247h133v263z" />
<glyph unicode="&#xaf79;" d="M624 522v-235h-33v513h33v-248h133v264h33v-560h-33v266h-133zM469 717v8h-170v30h201v-38q0 -135 -19 -250l-31 3q19 116 19 247zM222 466l-32 4q26 127 29 255h-141v30h172v-11q0 -138 -28 -278zM543 388l2 -27q-191 -31 -482 -31l-6 32q138 0 246 6v195h33v-194 q144 10 207 19zM502 -34q117 0 188.5 34t71.5 91t-71.5 91t-188.5 34t-188.5 -34t-71.5 -91t71.5 -91t188.5 -34zM502 245q139 0 216.5 -40.5t77.5 -113.5t-78 -114t-216 -41t-216 41t-78 114t77.5 113.5t216.5 40.5z" />
<glyph unicode="&#xaf80;" d="M548 665v13h-190v30h222v-43q0 -178 -22 -333l-32 4q22 155 22 329zM257 676v2h-167v30h199v-32q0 -176 -37 -344l-34 3q39 165 39 341zM386 458v-279q162 9 270 25l3 -27q-220 -36 -592 -36l-8 32q163 0 294 5v280h33zM727 816h33v-883h-33v883z" />
<glyph unicode="&#xaf84;" d="M768 816v-659h-33v659h33zM565 691v10h-203v30h235v-40q0 -142 -28 -264l-33 5q29 122 29 259zM265 431l-34 5q35 135 38 265h-168v30h200v-12q0 -143 -36 -288zM661 364l3 -27q-248 -34 -601 -36l-5 31q170 2 296 8v182h33v-181q162 9 274 23zM244 -13h554v-30h-587v244 h33v-214z" />
<glyph unicode="&#xaf88;" d="M768 816v-491h-33v491h33zM564 724v5h-203v30h235v-35q0 -127 -24 -234l-32 4q24 109 24 230zM267 490l-33 4q31 120 34 235h-168v30h200v-10q0 -131 -33 -259zM658 434l4 -27q-235 -36 -598 -36l-6 31q196 2 295 6v171h33v-169q157 7 272 24zM228 -23h576v-30h-608v186 h540v117h-543v30h575v-177h-540v-126z" />
<glyph unicode="&#xaf90;" d="M565 708v8h-204v30h236v-38q0 -135 -28 -251l-32 4q28 118 28 247zM265 461l-32 5q33 128 36 250h-168v30h200v-11q0 -137 -36 -274zM661 395l3 -27q-248 -34 -601 -36l-4 31q169 2 295 8v178h33v-177q160 9 274 23zM244 206v-229h492v229h-492zM212 -53v288h556v-288 h-556zM735 815h33v-527h-33v527z" />
<glyph unicode="&#xaf91;" d="M565 713v8h-204v30h236v-38q0 -135 -28 -251l-32 5q28 117 28 246zM265 467l-33 4q34 128 37 250h-169v30h201v-11q0 -137 -36 -273zM661 406l3 -27q-248 -34 -601 -36l-5 31q170 2 296 8v177h33v-176q162 9 274 23zM735 -23v148h-499v-148h499zM735 155v124h33v-332 h-565v332h33v-124h499zM735 814h33v-504h-33v504z" />
<glyph unicode="&#xaf95;" d="M768 815v-550h-33v550h33zM565 707v8h-204v30h236v-38q0 -135 -28 -251l-32 4q28 118 28 247zM265 460l-33 5q34 128 37 250h-169v30h201v-11q0 -137 -36 -274zM661 394l3 -27q-248 -34 -601 -36l-5 31q170 2 296 8v178h33v-177q162 9 274 23zM489 -34q114 0 183 34.5 t69 92.5q0 57 -69.5 91.5t-182.5 34.5q-114 0 -183.5 -34.5t-69.5 -91.5q0 -58 69.5 -92.5t183.5 -34.5zM489 248q133 0 208.5 -41t75.5 -114q0 -74 -75.5 -115t-208.5 -41q-134 0 -209.5 41t-75.5 115q0 73 75.5 114t209.5 41z" />
<glyph unicode="&#xaf9c;" d="M718 649v35h-279v30h311v-65q0 -206 -35 -382l-33 6q36 169 36 376zM321 680v4h-207v30h239v-34q0 -204 -46 -413l-35 8q49 196 49 405zM598 104h258v-30h-796v30h324v290h33v-290h148v290h33v-290z" />
<glyph unicode="&#xafb8;" d="M856 368v-30h-380v-406h-33v406h-384v30h262q49 187 52 348h-249v30h281v-1q0 -176 -48 -377h332q42 181 42 348h-257v30h289v-16q0 -176 -40 -362h133z" />
<glyph unicode="&#xafb9;" d="M860 419h-385v-193h281v-288h-33v258h-578v30h297v193h-384v30h288q36 154 39 291h-242v30h274v-1q0 -154 -37 -320h317q34 159 34 291h-234v30h266v-14q0 -152 -32 -307h129v-30z" />
<glyph unicode="&#xafbc;" d="M202 225v-238h568v-30h-601v268h33zM731 410h129v-30h-384v-237h-32v237h-385v30h286q37 167 40 314h-242v30h274v-1q0 -162 -37 -343h316q35 165 35 314h-234v30h266v-15q0 -162 -32 -329z" />
<glyph unicode="&#xafc0;" d="M860 464h-387v-146h281v-197h-560v-144h592v-30h-624v205h560v136h-563v30h282v146h-383v30h291q34 142 36 255h-242v30h274v-1q0 -138 -35 -284h317q32 139 32 255h-234v30h266v-13q0 -135 -29 -272h126v-30z" />
<glyph unicode="&#xafc7;" d="M184 -22h11q170 0 268 18l6 -30q-103 -19 -274 -19h-43v192h233v117h-236v30h268v-176h-233v-132zM631 -35q50 0 80 24t30 63t-30 63t-80 24q-49 0 -78.5 -24t-29.5 -63t29.5 -63t78.5 -24zM631 167q62 0 101.5 -31t39.5 -84q0 -52 -39.5 -83.5t-101.5 -31.5 q-61 0 -100 31.5t-39 83.5q0 53 39 84t100 31zM647 333v-94h168v-30h-363v30h162v94h33zM733 486h126v-30h-385v-152h-33v152h-383v30h290q35 144 37 259h-242v30h274v-1q0 -140 -36 -288h317q33 141 33 259h-234v30h266v-13q0 -137 -30 -276z" />
<glyph unicode="&#xafc8;" d="M724 -22v236h-530v-236h530zM860 428h-386v-185h282v-295h-594v295h279v185h-383v30h291q34 151 36 282h-242v30h274v-1q0 -149 -35 -311h317q32 154 32 282h-234v30h266v-14q0 -148 -30 -298h127v-30z" />
<glyph unicode="&#xafc9;" d="M715 -24v154h-510v-154h510zM715 160v136h33v-350h-576v350h33v-136h510zM734 469h125v-31h-385v-195h-33v195h-382v31h291q33 148 35 275h-242v30h274v-1q0 -147 -34 -304h317q31 145 31 275h-234v30h266v-14q0 -144 -29 -291z" />
<glyph unicode="&#xafcb;" d="M474 222v-47q0 -44 31 -82t80 -63t101.5 -41.5t102.5 -22.5l-15 -28q-65 11 -125.5 31t-115.5 59t-76 87q-21 -48 -76 -87t-115.5 -59t-125.5 -31l-15 28q50 6 102.5 22.5t101.5 41.5t80 63t31 82v47h34zM731 448h129v-30h-387v-157h-32v157h-383v30h288q37 155 39 292 h-242v30h274v-1q0 -155 -37 -321h317q34 159 34 292h-234v30h266v-14q0 -152 -32 -308z" />
<glyph unicode="&#xafcd;" d="M723 101q0 60 -73 96t-193 36q-121 0 -194.5 -36t-73.5 -96t73.5 -96t194.5 -36q120 0 193 36t73 96zM860 419h-386v-157q133 -3 207.5 -45t74.5 -116q0 -76 -79 -118.5t-220 -42.5t-221 42.5t-80 118.5q0 74 75.5 116.5t209.5 44.5v157h-383v30h289q36 152 38 287h-242 v30h274v-1q0 -152 -36 -316h317q33 157 33 287h-234v30h266v-14q0 -150 -31 -303h128v-30z" />
<glyph unicode="&#xafce;" d="M860 418h-384v-170h284v-30h-283q1 -51 33 -96.5t81.5 -75.5t101.5 -49.5t102 -28.5l-18 -27q-64 14 -123.5 38.5t-116 71t-77.5 103.5q-21 -57 -77.5 -103t-116.5 -70.5t-125 -37.5l-17 27q51 9 103 28.5t101.5 49.5t81.5 74.5t33 95.5h-283v30h284v170h-386v30h289 q35 155 38 290h-242v30h274v-1q0 -153 -37 -319h318q33 158 33 290h-234v30h266v-14q0 -151 -31 -306h128v-30z" />
<glyph unicode="&#xafd4;" d="M653 422l3 -27q-150 -17 -293 -23v-382h-33v380q-122 -5 -276 -5l-7 32q101 0 210 3q36 150 36 309h-183v30h215v-30q0 -158 -34 -308q96 1 221 10q32 136 32 288v10h-172v30h204v-40q0 -151 -28 -287q65 5 105 10zM727 815h33v-883h-33v293h-224v30h224v560z" />
<glyph unicode="&#xafdc;" d="M512 416h215v400h33v-505h-33v75h-215v30zM311 313v167q-120 -4 -252 -4l-6 32q134 0 207 2q26 119 29 227h-167v30h199v-11q0 -123 -28 -245q144 4 212 8q27 112 27 218h-166v30h198v-19q0 -118 -25 -227q28 2 90 8l3 -27q-135 -15 -288 -21v-168h-33zM231 -23h568v-30 h-600v183h529v115h-532v30h564v-174h-529v-124z" />
<glyph unicode="&#xafe8;" d="M513 384h215v431h33v-558h-33v97h-215v30zM311 268v184q-114 -5 -252 -5l-6 32q131 0 205 2q28 121 31 243h-167v30h199v-11q0 -131 -28 -261q128 4 211 12q28 118 28 230h-166v30h198v-20q0 -122 -25 -237q66 9 90 11l3 -26q-117 -20 -288 -29v-185h-33zM668 234v-36 q0 -70 54.5 -134.5t136.5 -92.5l-17 -27q-67 25 -117 73t-72 107q-18 -60 -60.5 -110t-104.5 -77q-62 27 -104.5 77t-60.5 110q-22 -59 -72 -107t-117 -73l-17 27q81 28 136 92.5t55 134.5v36h31v-36q0 -63 40.5 -127.5t108.5 -98.5q68 34 108.5 98.5t40.5 127.5v36h31z" />
<glyph unicode="&#xafe9;" d="M513 382h214v434h33v-568h-33v104h-214v30zM311 260v191q-115 -5 -253 -5l-6 32q131 0 204 2q30 128 33 249h-168v30h200v-11q0 -134 -30 -268q115 3 212 13q29 121 29 236h-166v30h198v-20q0 -125 -26 -243q60 6 91 11l3 -27q-128 -21 -288 -29v-191h-33zM483 -34 q113 0 181.5 33.5t68.5 88.5q0 56 -68.5 89.5t-181.5 33.5t-181.5 -33.5t-68.5 -89.5q0 -55 68.5 -88.5t181.5 -33.5zM483 240q133 0 207.5 -40t74.5 -112t-74.5 -111.5t-207.5 -39.5t-207.5 39.5t-74.5 111.5t74.5 112t207.5 40z" />
<glyph unicode="&#xaff0;" d="M547 419l3 -27q-102 -15 -245 -25v-358h-33v356q-115 -7 -226 -7l-6 32q70 0 150 3q36 142 36 292h-146v30h178v-29q0 -150 -32 -292q102 5 188 12q30 128 30 272v7h-150v30h182v-37q0 -144 -28 -270q41 4 99 11zM594 256v535h33v-801h-33v236h-184v30h184zM747 816h33 v-883h-33v883z" />
<glyph unicode="&#xaff1;" d="M419 378h180v423h33v-546h-33v93h-180v30zM284 260v185q-82 -4 -225 -4l-7 32q101 0 158 2q28 118 31 240h-144v30h175v-11q0 -129 -29 -259q115 4 193 11q24 105 24 224v5h-145v30h176v-35q0 -121 -21 -221q74 8 81 9l3 -26q-107 -18 -237 -25v-187h-33zM192 181v30h588 v-273h-33v243h-555zM747 816h33v-564h-33v564z" />
<glyph unicode="&#xaff4;" d="M780 816v-673h-33v673h33zM419 334h180v466h33v-636h-33v140h-180v30zM284 240v178q-83 -4 -225 -4l-7 32q100 0 157 1q29 128 32 258h-144v30h175v-11q0 -138 -30 -276q115 4 193 11q25 113 25 239v7h-145v30h176v-37q0 -128 -23 -236q42 3 83 9l3 -26 q-107 -18 -237 -25v-180h-33zM237 -13h577v-30h-610v250h33v-220z" />
<glyph unicode="&#xaff8;" d="M780 815v-505h-33v505h33zM419 420h180v380h33v-481h-33v71h-180v30zM284 307v168q-83 -4 -225 -4l-7 32q101 0 159 2q27 113 30 220h-144v30h175v-10q0 -121 -29 -240q116 4 192 11q25 99 25 207v2h-145v30h176v-32q0 -111 -23 -205q51 5 83 10l3 -26q-107 -18 -237 -25 v-170h-33zM243 -23h569v-30h-601v183h537v113h-540v29h572v-171h-537v-124z" />
<glyph unicode="&#xb000;" d="M419 382h180v418h33v-522h-33v74h-180v30zM284 269v179q-83 -4 -225 -4l-7 32q100 0 158 1q28 126 31 242h-144v30h176v-11q0 -130 -29 -260q105 2 192 10q24 105 24 225v6h-145v30h177v-36q0 -121 -21 -222q28 3 80 9l3 -25q-96 -18 -237 -25v-181h-33zM237 198v-221 h511v221h-511zM205 -53v280h575v-280h-575zM747 815h33v-549h-33v549z" />
<glyph unicode="&#xb001;" d="M419 406h180v394h33v-504h-33v80h-180v30zM284 288v168q-83 -4 -226 -4l-6 32q100 0 157 1q29 123 32 238h-144v30h176v-11q0 -128 -28 -255q105 2 192 10q23 105 23 221v5h-145v30h177v-35q0 -119 -22 -218q29 3 81 9l3 -25q-96 -18 -237 -25v-171h-33zM747 -23v133 h-507v-133h507zM747 140v112h33v-305h-573v305h33v-112h507zM747 815h33v-522h-33v522z" />
<glyph unicode="&#xb004;" d="M780 815v-548h-33v548h33zM419 382h180v418h33v-522h-33v74h-180v30zM284 269v179q-82 -4 -225 -4l-7 32q100 0 158 1q28 126 31 242h-144v30h176v-11q0 -130 -29 -260q105 2 192 10q24 105 24 225v6h-145v30h177v-36q0 -121 -21 -222q28 3 80 9l3 -25q-96 -18 -237 -25 v-181h-33zM668 234v-36q0 -70 54.5 -134.5t136.5 -92.5l-18 -27q-66 24 -116 72.5t-72 106.5q-18 -59 -60.5 -109t-104.5 -77q-62 27 -104.5 77t-60.5 109q-22 -59 -72 -107t-117 -72l-17 27q82 28 136.5 92.5t54.5 134.5v36h31v-36q0 -63 40.5 -127.5t108.5 -98.5 q68 34 108.5 98.5t40.5 127.5v36h31z" />
<glyph unicode="&#xb00c;" d="M661 414l3 -27q-128 -16 -290 -23v-375h-32v373q-151 -6 -286 -6l-7 33q104 0 218 3q36 152 36 312h-183v30h215v-30q0 -160 -34 -312q124 3 222 10q32 138 32 292v10h-172v30h204v-40q0 -152 -29 -290q66 6 103 10zM734 817h33v-883h-33v883z" />
<glyph unicode="&#xb010;" d="M768 815v-664h-33v664h33zM346 192v205q-125 -5 -279 -5l-7 32q136 0 211 2q33 155 33 285h-179v30h210v-12q0 -150 -32 -302q130 4 216 12q31 136 31 272h-175v30h206v-23q0 -142 -28 -276q16 1 33.5 3t38.5 5t33 4l5 -26q-129 -21 -284 -29v-207h-33zM219 -13h582v-30 h-615v264h33v-234z" />
<glyph unicode="&#xb014;" d="M768 815v-458h-33v458h33zM231 -21h577v-30h-609v205h537v128h-540v30h145v143q-129 -4 -273 -4l-6 32q137 0 211 2q28 128 31 247h-178v30h210v-11q0 -133 -29 -267q144 4 213 8q30 124 30 240h-174v30h206v-20q0 -128 -27 -248q34 2 100 8l4 -27q-107 -12 -285 -19 v-144h394v-187h-537v-146z" />
<glyph unicode="&#xb01c;" d="M734 -18v227h-501v-227h501zM375 424v-185h392v-287h-567v287h142v183q-122 -5 -275 -5l-6 32q136 0 211 2q29 133 32 267h-178v30h210v-12q0 -141 -31 -284q130 4 216 12q29 131 29 254h-174v30h206v-22q0 -134 -27 -259q35 4 103 12l3 -26q-119 -20 -286 -29zM735 816 h33v-532h-33v532z" />
<glyph unicode="&#xb01d;" d="M348 259v182q-133 -4 -281 -4l-7 32q137 0 211 2q30 130 33 254h-179v30h211v-11q0 -136 -31 -274q144 4 215 8q30 128 30 247h-175v30h207v-20q0 -132 -27 -255q35 2 103 8l3 -27q-103 -11 -280 -19v-183h-33zM735 -23v138h-499v-138h499zM735 145v126h33v-324h-565v324 h33v-126h499zM735 815h33v-505h-33v505z" />
<glyph unicode="&#xb028;" d="M856 371v-30h-224v-405h-33v405h-279v-405h-33v405h-228v30h262q49 185 52 345h-248v30h280v-1q0 -175 -48 -374h332q42 183 42 345h-257v30h289v-15q0 -175 -40 -360h133z" />
<glyph unicode="&#xb044;" d="M722 629v39h-240v30h272v-69q0 -221 -41 -410l-34 5q43 181 43 405zM355 219l-37 5q60 231 60 444h-254v30h286v-16q0 -219 -55 -463zM59 105h797v-30h-797v30z" />
<glyph unicode="&#xb045;" d="M145 227v30h611v-319h-33v289h-578zM721 437h139v-30h-802v30h284q36 156 38 293h-247v30h279v-1q0 -154 -36 -322h311q33 159 33 293h-238v30h270v-14q0 -153 -31 -309z" />
<glyph unicode="&#xb048;" d="M202 247v-250h572v-30h-605v280h33zM720 394h140v-30h-801v30h281q37 173 40 322h-247v30h279v-1q0 -166 -37 -351h311q34 170 34 322h-238v30h270v-15q0 -166 -32 -337z" />
<glyph unicode="&#xb04a;" d="M194 -13h3q110 0 220 26l5 -30q-112 -26 -225 -26h-36v312h33v-282zM599 -36q54 0 86 25t32 66t-32 66t-86 25t-86 -25t-32 -66t32 -66t86 -25zM599 174q66 0 107.5 -32t41.5 -87t-41.5 -87t-107.5 -32t-107.5 32t-41.5 87t41.5 87t107.5 32zM615 349v-93h176v-30h-390 v30h181v93h33zM721 437h139v-30h-802v30h283q36 158 39 297h-247v30h279v-1q0 -156 -36 -326h312q33 157 33 297h-239v30h271v-18q0 -155 -32 -309z" />
<glyph unicode="&#xb04c;" d="M194 130v-152h592v-30h-624v212h560v135h-563v30h595v-195h-560zM724 481h136v-30h-802v30h286q35 139 37 262h-248v30h280v-1q0 -141 -35 -291h311q32 142 32 262h-240v30h272v-13q0 -139 -29 -279z" />
<glyph unicode="&#xb04e;" d="M182 -23h10q166 0 262 18l5 -30q-94 -18 -266 -18h-43v204h241v122h-244v30h276v-182h-241v-144zM522 274v-298h211v298h-211zM490 -53v356h276v-356h-276zM722 451h138v-30h-801v30h283q36 153 39 289h-247v30h279v-1q0 -153 -38 -318h313q33 157 33 289h-240v30h272 v-14q0 -150 -31 -305z" />
<glyph unicode="&#xb053;" d="M184 -22h11q170 0 268 18l6 -30q-103 -19 -274 -19h-43v209h233v131h-236v30h268v-191h-233v-148zM631 -35q51 0 81 26.5t30 68.5t-30 68.5t-81 26.5q-49 0 -79 -26.5t-30 -68.5t30 -68.5t79 -26.5zM631 183q63 0 102.5 -33.5t39.5 -89.5t-39.5 -89.5t-102.5 -33.5 q-62 0 -101 33.5t-39 89.5t39 89.5t101 33.5zM647 363v-100h167v-30h-362v30h162v100h33zM725 458h135v-30h-801v30h286q37 157 39 285h-247v30h279v-1q0 -151 -37 -314h312q33 155 33 285h-240v30h272v-14q0 -149 -31 -301z" />
<glyph unicode="&#xb054;" d="M194 226v-248h530v248h-530zM162 -52v307h594v-307h-594zM721 445h139v-30h-802v30h284q35 157 38 295h-247v30h279v-1q0 -155 -37 -324h312q33 160 33 295h-238v30h270v-14q0 -154 -31 -311z" />
<glyph unicode="&#xb055;" d="M715 -23v168h-510v-168h510zM715 175v149h33v-377h-576v377h33v-149h510zM720 457h140v-30h-801v30h282q37 153 39 287h-246v30h278v-1q0 -151 -37 -316h311q34 155 34 287h-238v30h270v-14q0 -150 -32 -303z" />
<glyph unicode="&#xb057;" d="M474 275v-59q0 -51 30.5 -96t79.5 -75.5t100.5 -50.5t102.5 -29l-15 -28q-104 22 -194.5 76t-120.5 135q-30 -81 -121 -135t-195 -76l-14 28q51 9 102.5 29t100.5 50.5t79.5 75.5t30.5 96v59h34zM721 419h139v-30h-802v30h284q35 171 38 317h-247v30h279v-1 q0 -164 -36 -346h311q33 167 33 317h-237v30h269v-15q0 -164 -31 -332z" />
<glyph unicode="&#xb059;" d="M456 -35q121 0 195 38t74 101q0 62 -74 100t-195 38q-120 0 -194.5 -38t-74.5 -100q0 -63 74.5 -101t194.5 -38zM456 271q141 0 221.5 -44.5t80.5 -122.5q0 -79 -80.5 -123.5t-221.5 -44.5t-221.5 44.5t-80.5 123.5q0 78 80.5 122.5t221.5 44.5zM720 433h140v-30h-802v30 h282q37 161 40 302h-247v30h279v-1q0 -158 -37 -331h310q35 163 35 302h-238v30h270v-14q0 -157 -32 -318z" />
<glyph unicode="&#xb05d;" d="M195 112v-135h568v-30h-601v356h596v-30h-563v-131h539v-30h-539zM720 459h140v-30h-802v30h283q37 153 39 287h-247v30h279v-1q0 -152 -37 -316h311q34 155 34 287h-238v30h270v-14q0 -149 -32 -303z" />
<glyph unicode="&#xb07c;" d="M88 715h241q0 -145 -59 -300t-176 -274l-28 20q106 104 166 246.5t66 277.5h-210v30zM356 715h217q0 -98 -15.5 -197t-65.5 -223t-131 -215l-30 18q108 115 157 274.5t55 312.5h-187v30zM738 816h33v-883h-33v883z" />
<glyph unicode="&#xb07d;" d="M368 311l-25 23q188 142 198 385h-184v30h217q0 -273 -206 -438zM89 749h231q0 -239 -215 -381l-24 23q99 63 149.5 142.5t56.5 185.5h-198v30zM196 219v30h576v-315h-33v285h-543zM739 816h33v-523h-33v523z" />
<glyph unicode="&#xb080;" d="M772 815v-641h-33v641h33zM370 274l-26 22q187 150 198 410h-184v30h217q0 -289 -205 -462zM88 736h231q0 -259 -206 -414l-25 23q187 135 198 361h-198v30zM250 -13h549v-30h-582v259h33v-229z" />
<glyph unicode="&#xb084;" d="M771 816v-455h-33v455h33zM366 361l-26 21q189 130 200 348h-184v30h217q0 -248 -207 -399zM88 760h230q0 -114 -55 -194t-158 -148l-25 23q93 58 146 125.5t59 163.5h-197v30zM255 -23h558v-30h-590v204h517v131h-520v30h552v-191h-517v-144z" />
<glyph unicode="&#xb08c;" d="M368 311l-25 22q188 145 198 387h-184v30h217q0 -274 -206 -439zM89 750h231q0 -241 -216 -383l-23 23q194 123 206 330h-198v30zM247 221v-244h492v244h-492zM215 -53v303h556v-303h-556zM738 814h33v-517h-33v517z" />
<glyph unicode="&#xb08d;" d="M371 323l-27 24q187 140 197 377h-184v30h218q0 -270 -204 -431zM89 754h232q0 -121 -53 -213t-161 -163l-24 25q193 120 204 321h-198v30zM739 -25v147h-488v-147h488zM739 152v136h32v-343h-553v343h33v-136h488zM738 815h33v-476h-33v476z" />
<glyph unicode="&#xb08f;" d="M771 815v-604h-33v604h33zM368 293l-25 23q189 145 199 393h-184v30h217q0 -280 -207 -446zM89 739h231q0 -241 -216 -383l-23 23q194 123 206 330h-198v30zM518 271v-43q0 -54 30.5 -101.5t79.5 -80t101 -54t103 -31.5l-16 -27q-65 15 -124 41t-114.5 74.5t-76.5 107.5 q-16 -45 -51 -83.5t-80.5 -65.5t-91.5 -45t-93 -29l-15 27q51 10 102.5 31.5t100.5 54t80 80t31 101.5v43h34z" />
<glyph unicode="&#xb091;" d="M772 814v-535h-33v535h33zM369 310l-26 23q189 141 199 387h-184v30h217q0 -275 -206 -440zM88 750h231q0 -241 -216 -383l-23 23q99 63 149.5 143.5t56.5 186.5h-198v30zM486 -38q117 0 189 36t72 96t-72 96t-189 36t-189 -36t-72 -96t72 -96t189 -36zM486 255 q138 0 216 -42.5t78 -118.5t-78 -118.5t-216 -42.5t-216 42.5t-78 118.5t78 118.5t216 42.5z" />
<glyph unicode="&#xb098;" d="M136 194h32q217 0 415 41l5 -29q-209 -42 -420 -42h-65v563h33v-533zM884 445v-30h-160v-482h-33v883h33v-371h160z" />
<glyph unicode="&#xb099;" d="M590 465l5 -30q-209 -42 -421 -42h-65v371h33v-340h32q218 0 416 41zM177 222v30h557v-319h-33v289h-524zM878 583v-30h-144v-242h-33v504h33v-232h144z" />
<glyph unicode="&#xb09a;" d="M590 475l6 -30q-210 -42 -422 -42h-65v361h33v-330h32q218 0 416 41zM155 234v30h270v-331h-33v301h-237zM473 234v30h261v-331h-33v301h-228zM878 587v-30h-144v-235h-33v494h33v-229h144z" />
<glyph unicode="&#xb09c;" d="M590 421l5 -30q-209 -42 -421 -42h-65v396h33v-365h32q218 0 416 41zM242 240v-253h527v-30h-560v283h33zM734 539h144v-30h-144v-335h-33v641h33v-276z" />
<glyph unicode="&#xb09f;" d="M590 476l5 -29q-207 -43 -421 -43h-65v365h33v-334h32q218 0 416 41zM231 229v-251h513v-30h-546v311h538v-30h-505zM734 593h144v-30h-144v-242h-33v495h33v-223z" />
<glyph unicode="&#xb0a0;" d="M590 495l6 -30q-210 -42 -422 -42h-65v354h33v-323h32q218 0 416 41zM232 124v-147h540v-30h-572v206h502v129h-505v30h537v-188h-502zM734 614h144v-30h-144v-223h-33v455h33v-202z" />
<glyph unicode="&#xb0a1;" d="M590 491l5 -29q-207 -43 -421 -43h-65v359h33v-328h32q218 0 416 41zM192 -22h14q173 0 291 21l5 -30q-122 -22 -296 -22h-46v195h245v122h-248v30h280v-181h-245v-135zM476 264v30h258v-354h-33v324h-225zM879 603v-30h-145v-221h-33v463h33v-212h145z" />
<glyph unicode="&#xb0a2;" d="M590 491l5 -30q-209 -42 -421 -42h-65v358h33v-327h32q218 0 416 41zM178 -22h9q161 0 248 17l5 -30q-97 -18 -253 -18h-41v200h233v126h-236v30h268v-185h-233v-140zM505 274v-298h197v298h-197zM473 -53v356h261v-356h-261zM879 605v-30h-145v-223h-33v462h33v-209h145 z" />
<glyph unicode="&#xb0a8;" d="M590 476l5 -29q-207 -43 -421 -43h-65v365h33v-334h32q218 0 416 41zM229 230v-252h473v252h-473zM197 -52v311h537v-311h-537zM879 596v-30h-145v-251h-33v500h33v-219h145z" />
<glyph unicode="&#xb0a9;" d="M590 490l6 -29q-208 -43 -422 -43h-65v355h33v-324h32q218 0 416 41zM701 -23v153h-469v-153h469zM701 162v147h33v-363h-535v363h33v-147h469zM879 602v-30h-144v-212h-34v455h34v-213h144z" />
<glyph unicode="&#xb0ab;" d="M590 451l6 -30q-210 -42 -422 -42h-65v377h33v-346h32q218 0 416 41zM499 296v-51q0 -45 20.5 -86t53 -71t74.5 -55t82.5 -40.5t80.5 -24.5l-15 -27q-64 16 -123 43.5t-114 76.5t-76 109q-21 -61 -76.5 -111t-114.5 -77.5t-124 -43.5l-15 27q51 11 102.5 33.5t100.5 56.5 t80 84t31 106v51h33zM734 556h144v-30h-144v-292h-33v581h33v-259z" />
<glyph unicode="&#xb0ac;" d="M590 456l5 -29q-207 -43 -421 -43h-65v372h33v-341h32q218 0 416 41zM658 276v-85q0 -68 55 -133.5t136 -94.5l-17 -27q-67 26 -118 76t-71 108q-20 -59 -62.5 -110.5t-102.5 -79.5q-63 26 -106 76.5t-59 111.5q-23 -57 -73.5 -106t-114.5 -76l-18 27q80 31 136 97.5 t56 130.5v85h31v-85q0 -67 40 -130t108 -97q66 37 107.5 104t41.5 123v85h31zM734 585h145v-30h-145v-240h-33v500h33v-230z" />
<glyph unicode="&#xb0ad;" d="M590 458l5 -30q-209 -42 -422 -42h-64v371h33v-340h31q219 0 417 41zM460 -35q110 0 180 38.5t70 98.5t-70 98.5t-180 38.5t-180 -38.5t-70 -98.5t70 -98.5t180 -38.5zM460 268q130 0 206 -44.5t76 -121.5t-76 -121.5t-206 -44.5t-206 44.5t-76 121.5t76 121.5t206 44.5z M734 579h144v-30h-144v-269h-33v535h33v-236z" />
<glyph unicode="&#xb0ae;" d="M590 468l5 -29q-207 -43 -421 -43h-65v366h33v-335h32q218 0 416 41zM488 216v-12q0 -44 29 -86t75 -72.5t95.5 -52.5t95.5 -32l-15 -26q-94 22 -180 77t-117 129q-29 -74 -115.5 -129t-179.5 -77l-16 26q64 14 128.5 46t115.5 85.5t51 111.5v12h-266v30h564v-30h-265z M734 577h144v-30h-144v-247h-33v518h33v-241z" />
<glyph unicode="&#xb0af;" d="M590 486l5 -29q-207 -43 -421 -43h-65v360h33v-329h32q218 0 416 41zM486 207q0 -57 51.5 -111t117.5 -86t129 -46l-15 -27q-94 23 -182 78.5t-118 129.5q-30 -74 -117 -129.5t-181 -78.5l-16 27q63 14 129 46.5t117.5 86t51.5 110.5v1h-272v30h272v112h33v-112h273v-30z M735 590h143v-30h-143v-235h-34v491h34v-226z" />
<glyph unicode="&#xb0b1;" d="M590 483l5 -29q-207 -43 -422 -43h-64v357h33v-326h31q219 0 417 41zM234 107v-130h527v-30h-560v342h539v-30h-506v-122h494v-30h-494zM734 597h144v-30h-144v-228h-33v477h33v-219z" />
<glyph unicode="&#xb0b3;" d="M590 502l6 -29q-208 -43 -422 -43h-65v347h33v-316h32q218 0 416 41zM481 -35q95 0 151.5 27t56.5 73t-56.5 73t-151.5 27q-94 0 -151 -27t-57 -73t57 -73t151 -27zM481 193q113 0 176.5 -33.5t63.5 -94.5t-63.5 -94.5t-176.5 -33.5t-176.5 33.5t-63.5 94.5t63.5 94.5 t176.5 33.5zM498 378v-101h287v-30h-608v30h288v101h33zM734 617h144v-30h-144v-234h-33v463h33v-199z" />
<glyph unicode="&#xb0b4;" d="M144 207h18q172 0 322 31l6 -31q-156 -31 -328 -31h-51v524h33v-493zM766 815h33v-882h-33v472h-170v-423h-33v809h33v-354h170v378z" />
<glyph unicode="&#xb0b5;" d="M484 459l6 -31q-156 -31 -328 -31h-51v356h33v-325h18q172 0 322 31zM218 214v30h576v-311h-33v281h-543zM761 815h33v-523h-33v255h-167v-248h-33v500h33v-222h167v238z" />
<glyph unicode="&#xb0b8;" d="M594 518v-329h-33v610h33v-251h167v267h33v-659h-33v362h-167zM485 420l5 -31q-156 -29 -328 -29h-51v379h33v-348h18q172 0 323 29zM271 1h554v-30h-587v283h33v-253z" />
<glyph unicode="&#xb0bc;" d="M593 573v-210h-33v436h33v-196h168v212h33v-458h-33v216h-168zM486 487l5 -31q-156 -29 -328 -29h-51v335h33v-304h18q172 0 323 29zM265 -23h568v-30h-600v202h529v128h-532v30h564v-187h-529v-143z" />
<glyph unicode="&#xb0c4;" d="M485 445l5 -31q-156 -29 -328 -29h-51v373h33v-342h18q172 0 323 29zM266 229v-252h496v252h-496zM234 -53v311h560v-311h-560zM761 815h33v-509h-33v236h-168v-230h-33v487h33v-227h168v243z" />
<glyph unicode="&#xb0c5;" d="M486 464l5 -31q-156 -29 -328 -29h-51v351h33v-320h18q172 0 323 29zM762 -22v150h-492v-150h492zM762 159v131h32v-343h-557v343h33v-131h492zM761 814h33v-481h-33v219h-167v-212h-33v458h33v-216h167v232z" />
<glyph unicode="&#xb0c7;" d="M594 534v-231h-33v495h33v-234h167v251h33v-587h-33v306h-167zM483 430l6 -30q-152 -39 -327 -39h-51v372h33v-341h18q179 0 321 38zM529 265v-43q0 -50 32.5 -96t82.5 -78t102.5 -54t99.5 -31l-15 -26q-100 21 -194 79t-125 140q-31 -82 -125 -140t-194 -79l-14 26 q47 9 99 31t102 54t82.5 78t32.5 96v43h34z" />
<glyph unicode="&#xb0c8;" d="M594 548v-235h-33v486h33v-221h167v237h33v-513h-33v246h-167zM486 434l5 -31q-156 -29 -328 -29h-51v365h33v-334h18q172 0 323 29zM674 275v-78q0 -68 55 -133t136 -94l-17 -27q-67 25 -118 74.5t-71 108.5q-19 -58 -61.5 -110t-102.5 -80q-64 27 -107 77t-59 111 q-23 -57 -73.5 -106t-114.5 -75l-17 27q79 30 135 97t56 130v78h31v-78q0 -67 40 -129.5t108 -96.5q66 36 107.5 103t41.5 123v78h31z" />
<glyph unicode="&#xb0c9;" d="M594 538v-230h-33v490h33v-230h167v247h33v-541h-33v264h-167zM486 438l5 -31q-156 -29 -328 -29h-51v365h33v-334h18q172 0 323 29zM514 -34q114 0 183.5 35.5t69.5 93.5q0 59 -69.5 94.5t-183.5 35.5t-184 -35.5t-70 -94.5q0 -58 70 -93.5t184 -35.5zM514 254 q133 0 209 -42t76 -117t-76 -116.5t-209 -41.5q-134 0 -210 41.5t-76 116.5t76 117t210 42z" />
<glyph unicode="&#xb0d0;" d="M136 194h32q218 0 415 42l5 -30q-207 -43 -420 -43h-65v565h33v-534zM882 547h-158v-237h158v-30h-158v-347h-33v883h33v-239h158v-30z" />
<glyph unicode="&#xb0d1;" d="M590 465l5 -30q-209 -42 -421 -42h-65v371h33v-340h32q224 0 416 41zM177 222v30h557v-319h-33v289h-524zM878 640h-144v-155h144v-30h-144v-144h-33v505h33v-146h144v-30z" />
<glyph unicode="&#xb0d4;" d="M590 421l5 -30q-209 -42 -421 -42h-65v397h33v-366h32q224 0 416 41zM242 240v-253h527v-30h-560v283h33zM878 609h-144v-190h144v-30h-144v-215h-33v641h33v-176h144v-30z" />
<glyph unicode="&#xb0d8;" d="M590 495l6 -30q-210 -42 -422 -42h-65v354h33v-323h32q218 0 416 41zM232 124v-147h540v-30h-572v206h502v129h-505v30h537v-188h-502zM878 658h-144v-133h144v-30h-144v-134h-33v455h33v-128h144v-30z" />
<glyph unicode="&#xb0e0;" d="M590 476l5 -29q-207 -43 -421 -43h-65v365h33v-334h32q218 0 416 41zM229 230v-252h473v252h-473zM197 -52v311h537v-311h-537zM879 643h-145v-153h145v-30h-145v-145h-33v500h33v-142h145v-30z" />
<glyph unicode="&#xb0e5;" d="M590 459l6 -30q-208 -43 -423 -43h-64v371h33v-340h31q220 0 417 42zM460 -35q110 0 180 38.5t70 98.5t-70 98.5t-180 38.5t-180 -38.5t-70 -98.5t70 -98.5t180 -38.5zM460 268q130 0 206 -44.5t76 -121.5t-76 -121.5t-206 -44.5t-206 44.5t-76 121.5t76 121.5t206 44.5z M879 631h-145v-157h145v-30h-145v-164h-33v536h33v-155h145v-30z" />
<glyph unicode="&#xb108;" d="M143 183h29q223 0 394 35l7 -29q-184 -36 -401 -36h-62v559h33v-529zM739 815h33v-882h-33v543h-306v30h306v309z" />
<glyph unicode="&#xb109;" d="M569 437l6 -31q-176 -36 -400 -36h-61v385h33v-354h28q231 0 394 36zM196 214v30h576v-311h-33v281h-543zM739 816h33v-528h-33v303h-287v30h287v195z" />
<glyph unicode="&#xb10b;" d="M739 316v288h-285v30h285v182h33v-500h-33zM570 448l5 -31q-175 -36 -400 -36h-61v384h33v-353h28q230 0 395 36zM163 232v30h289v-331h-33v301h-256zM682 281v-72q0 -79 45 -149.5t122 -102.5l-19 -26q-62 28 -104 79.5t-60 114.5q-20 -63 -64 -115.5t-105 -80.5l-19 26 q77 34 124.5 106.5t47.5 147.5v72h32z" />
<glyph unicode="&#xb10c;" d="M739 169v404h-287v30h287v211h33v-645h-33zM569 402l6 -30q-176 -36 -400 -36h-61v406h33v-375h28q228 0 394 35zM259 -13h540v-30h-573v266h33v-236z" />
<glyph unicode="&#xb110;" d="M739 348v267h-288v30h288v171h33v-468h-33zM570 470l7 -31q-176 -36 -401 -36h-62v365h33v-334h29q232 0 394 36zM255 -23h558v-30h-590v198h517v124h-520v30h552v-183h-517v-139z" />
<glyph unicode="&#xb112;" d="M571 462l6 -30q-176 -36 -401 -36h-62v369h33v-338h29q230 0 395 35zM204 -26h9q159 0 254 17l5 -30q-98 -18 -259 -18h-41v199h237v118h-240v30h272v-178h-237v-138zM539 261v-293h200v293h-200zM507 -61v351h264v-351h-264zM738 816h33v-482h-33v277h-286v30h286v175z " />
<glyph unicode="&#xb113;" d="M571 469l6 -30q-176 -36 -401 -36h-62v362h33v-331h29q230 0 395 35zM204 -26h9q159 0 254 17l5 -30q-98 -18 -259 -18h-41v199h237v118h-240v30h272v-178h-237v-138zM739 -27v161h-200v-161h200zM739 164v137h33v-358h-266v358h33v-137h200zM739 816h33v-477h-33v277 h-287v30h287v170z" />
<glyph unicode="&#xb118;" d="M569 450l6 -30q-175 -36 -400 -36h-61v373h33v-342h28q229 0 394 35zM256 225v-248h484v248h-484zM224 -53v307h548v-307h-548zM739 815h33v-512h-33v298h-287v30h287v184z" />
<glyph unicode="&#xb119;" d="M569 459l6 -30q-175 -36 -400 -36h-61v375h33v-344h28q229 0 394 35zM740 -23v148h-484v-148h484zM740 155v142h32v-350h-549v350h33v-142h484zM739 816h33v-473h-33v266h-287v30h287v177z" />
<glyph unicode="&#xb11b;" d="M739 197v376h-287v30h287v213h33v-619h-33zM570 418l5 -31q-175 -36 -400 -36h-61v397h33v-366h28q230 0 395 36zM517 280v-49q0 -54 31 -101.5t80 -80t100.5 -54t102.5 -31.5l-16 -27q-104 24 -194 80t-121 141q-21 -59 -77.5 -107t-116 -74t-124.5 -41l-16 28 q51 10 103 31t102 53t81.5 80t31.5 103v49h33z" />
<glyph unicode="&#xb11c;" d="M739 293v300h-287v30h287v193h33v-523h-33zM570 438l5 -31q-175 -36 -400 -36h-61v383h33v-352h28q230 0 395 36zM664 280v-82q0 -68 55 -133t136 -94l-18 -27q-66 25 -117 74.5t-71 108.5q-20 -59 -62.5 -110.5t-102.5 -79.5q-63 26 -106.5 76.5t-59.5 111.5 q-23 -57 -73.5 -106t-114.5 -75l-17 27q79 30 135 97t56 130v82h31v-82q0 -67 40 -129.5t108 -97.5q67 37 108.5 104t41.5 123v82h31z" />
<glyph unicode="&#xb11d;" d="M739 257v335h-287v30h287v194h33v-559h-33zM569 437l6 -31q-176 -36 -400 -36h-61v378h33v-347h28q229 0 394 36zM490 -35q114 0 184 36t70 96q0 59 -70 95.5t-184 36.5q-113 0 -183 -36.5t-70 -95.5q0 -60 69.5 -96t183.5 -36zM490 258q134 0 210 -42.5t76 -118.5 t-76 -118.5t-210 -42.5q-133 0 -209 42.5t-76 118.5t76 118.5t209 42.5z" />
<glyph unicode="&#xb123;" d="M739 330v295h-287v30h287v160h33v-485h-33zM569 489l7 -30q-177 -36 -401 -36h-62v352h33v-321h29q231 0 394 35zM495 -35q94 0 151 27t57 73t-57 73t-151 27q-95 0 -152 -27t-57 -73t57 -73t152 -27zM495 193q113 0 176.5 -33.5t63.5 -94.5t-63.5 -94.5t-176.5 -33.5 t-177 33.5t-64 94.5t64 94.5t177 33.5zM512 274h287v-30h-609v30h289v104h33v-104z" />
<glyph unicode="&#xb124;" d="M144 201h18q172 0 322 31l6 -31q-156 -31 -328 -31h-51v540h33v-509zM579 501v288h33v-805h-33v487h-223v30h223zM766 816h33v-883h-33v883z" />
<glyph unicode="&#xb125;" d="M589 314v277h-222v30h222v174h33v-481h-33zM485 439l5 -31q-155 -29 -327 -29h-51v374h33v-343h18q172 0 322 29zM214 222v30h580v-319h-33v289h-547zM761 815h33v-513h-33v513z" />
<glyph unicode="&#xb128;" d="M794 815v-655h-33v655h33zM589 186v381h-222v30h222v199h33v-610h-33zM486 399l4 -31q-155 -29 -327 -29h-51v395h33v-364h18q172 0 323 29zM281 -13h549v-30h-582v282h33v-252z" />
<glyph unicode="&#xb12c;" d="M794 815v-463h-33v463h33zM589 363v247h-222v30h222v155h33v-432h-33zM485 471l5 -31q-155 -29 -327 -29h-51v355h33v-324h18q172 0 322 29zM265 -26h568v-27h-600v202h529v127h-532v30h564v-186h-529v-146z" />
<glyph unicode="&#xb134;" d="M589 322v276h-222v30h222v167h33v-473h-33zM486 444l4 -31q-155 -29 -327 -29h-51v372h33v-341h18q172 0 323 29zM270 233v-256h492v256h-492zM238 -53v315h556v-315h-556zM761 815h33v-504h-33v504z" />
<glyph unicode="&#xb135;" d="M589 337v269h-222v30h222v158h33v-457h-33zM486 439l4 -31q-155 -29 -327 -29h-51v373h33v-342h18q172 0 323 29zM762 -23v152h-488v-152h488zM762 159v132h32v-344h-553v344h33v-132h488zM761 815h33v-486h-33v486z" />
<glyph unicode="&#xb137;" d="M794 815v-601h-33v601h33zM589 295v274h-222v30h222v196h33v-500h-33zM485 402l5 -31q-155 -29 -327 -29h-51v391h33v-360h18q172 0 322 29zM529 261v-39q0 -65 56 -123t125.5 -90t135.5 -45l-15 -27q-100 22 -194 80t-125 140q-31 -82 -125 -140t-194 -80l-14 27 q47 9 99.5 31t102 54t82 77.5t32.5 95.5v39h34z" />
<glyph unicode="&#xb138;" d="M794 814v-527h-33v527h33zM589 304v274h-222v30h222v186h33v-490h-33zM486 426l4 -31q-155 -29 -327 -29h-51v386h33v-355h18q172 0 323 29zM674 264v-66q0 -68 55 -133.5t136 -94.5l-17 -27q-67 26 -118 75.5t-71 108.5q-20 -59 -62.5 -110.5t-102.5 -79.5 q-63 26 -106 76.5t-59 111.5q-23 -57 -73 -106t-115 -76l-17 27q79 31 135 97.5t56 130.5v66h31v-66q0 -67 40 -130t108 -97q66 37 107.5 104t41.5 123v66h31z" />
<glyph unicode="&#xb139;" d="M794 814v-540h-33v540h33zM589 309v264h-223v30h223v191h33v-485h-33zM485 420l5 -31q-155 -29 -327 -29h-51v382h33v-351h18q172 0 322 29zM513 -29q114 0 184 35.5t70 93.5q0 59 -70 94.5t-184 35.5t-183.5 -35.5t-69.5 -94.5q0 -58 69.5 -93.5t183.5 -35.5zM513 259 q134 0 210 -42t76 -117t-76 -116.5t-210 -41.5q-133 0 -209 41.5t-76 116.5t76 117t209 42z" />
<glyph unicode="&#xb140;" d="M143 183h29q224 0 394 36l7 -30q-184 -36 -401 -36h-62v559h33v-529zM739 816h33v-883h-33v422h-297v30h297v172h-297v30h297v229z" />
<glyph unicode="&#xb141;" d="M569 402l6 -31q-176 -36 -400 -36h-61v420h33v-389h28q231 0 394 36zM196 198v31h576v-296h-33v265h-543zM739 816h33v-541h-33v219h-287v30h287v136h-287v30h287v126z" />
<glyph unicode="&#xb144;" d="M739 156v324h-287v30h287v143h-287v30h287v132h33v-659h-33zM572 373l5 -31q-198 -36 -401 -36h-62v437h33v-406h29q203 0 396 36zM259 -13h540v-30h-573v253h33v-223z" />
<glyph unicode="&#xb148;" d="M739 339v180h-287v30h287v121h-287v30h287v116h33v-477h-33zM570 442l7 -30q-176 -36 -401 -36h-62v392h33v-361h29q231 0 394 35zM255 -23h558v-30h-590v194h517v118h-520v30h552v-178h-517v-134z" />
<glyph unicode="&#xb150;" d="M569 418l6 -29q-168 -36 -400 -36h-61v413h33v-383h28q229 0 394 35zM256 221v-244h484v244h-484zM224 -53v303h548v-303h-548zM739 816h33v-523h-33v216h-287v30h287v128h-287v30h287v119z" />
<glyph unicode="&#xb151;" d="M569 435l6 -31q-176 -36 -400 -36h-61v402h33v-371h28q229 0 394 36zM739 -23v151h-481v-151h481zM739 158v128h33v-339h-547v339h33v-128h481zM739 815h33v-481h-33v188h-287v30h287v119h-287v30h287v114z" />
<glyph unicode="&#xb154;" d="M739 285v224h-287v30h287v120h-287v30h287v127h33v-531h-33zM570 411l5 -29q-168 -36 -400 -36h-61v412h33v-382h28q229 0 395 35zM664 267v-68q0 -68 55 -133.5t136 -94.5l-18 -26q-66 25 -117 74.5t-71 108.5q-20 -59 -62.5 -110.5t-102.5 -79.5q-63 26 -106.5 76.5 t-59.5 111.5q-23 -57 -73.5 -106t-114.5 -75l-17 26q79 31 135 98t56 130v68h31v-68q0 -67 40 -129.5t108 -97.5q67 37 108.5 104t41.5 123v68h31z" />
<glyph unicode="&#xb155;" d="M739 262v235h-287v30h287v129h-287v30h287v130h33v-554h-33zM569 412l6 -30q-170 -36 -400 -36h-61v408h33v-378h28q229 0 394 36zM490 -35q114 0 184 36t70 96q0 59 -70 95.5t-184 36.5q-113 0 -183 -36.5t-70 -95.5q0 -60 69.5 -96t183.5 -36zM490 258q134 0 210 -42.5 t76 -118.5t-76 -118.5t-210 -42.5q-133 0 -209 42.5t-76 118.5t76 118.5t209 42.5z" />
<glyph unicode="&#xb158;" d="M569 411l6 -31q-176 -36 -400 -36h-61v413h33v-382h28q231 0 394 36zM192 215v30h580v-311h-33v147l-561 -26l-9 30l570 23v107h-547zM739 816h33v-523h-33v208h-287v30h287v131h-287v30h287v124z" />
<glyph unicode="&#xb15c;" d="M144 196h18q172 0 322 31l6 -31q-156 -31 -328 -31h-51v548h33v-517zM579 586v203h33v-806h-33v383h-213v30h213v160h-213v30h213zM766 816h33v-883h-33v883z" />
<glyph unicode="&#xb160;" d="M794 814v-654h-33v654h33zM589 186v286h-212v30h212v123h-212v30h212v140h33v-609h-33zM486 373l4 -31q-155 -29 -327 -29h-51v421h33v-390h18q172 0 323 29zM281 -13h549v-30h-582v268h33v-238z" />
<glyph unicode="&#xb178;" d="M474 92h386v-30h-802v30h383v271h-275v370h33v-340h563v-30h-288v-271z" />
<glyph unicode="&#xb179;" d="M156 187v30h599v-285h-33v255h-566zM475 360h381v-30h-796v30h382v145h-266v285h33v-255h554v-30h-288v-145z" />
<glyph unicode="&#xb17c;" d="M201 214v-227h569v-30h-601v257h32zM474 334h382v-30h-796v30h382v151h-266v289h32v-260h555v-29h-289v-151z" />
<glyph unicode="&#xb180;" d="M202 114v-137h582v-30h-614v196h548v116h-551v30h583v-175h-548zM474 417h385v-31h-801v31h384v123h-266v260h31v-229h555v-31h-288v-123z" />
<glyph unicode="&#xb182;" d="M182 -25h10q166 0 262 18l5 -30q-94 -18 -266 -18h-43v192h241v115h-244v30h276v-175h-241v-132zM522 253v-279h211v279h-211zM490 -55v337h276v-337h-276zM475 403h384v-30h-801v30h384v127h-266v263h33v-233h554v-30h-288v-127z" />
<glyph unicode="&#xb188;" d="M198 202v-225h522v225h-522zM166 -53v284h586v-284h-586zM475 374h381v-30h-796v30h382v146h-266v277h33v-247h554v-30h-288v-146z" />
<glyph unicode="&#xb189;" d="M713 -23v148h-506v-148h506zM713 155v124h33v-332h-572v332h33v-124h506zM475 391h380v-30h-795v30h382v131h-266v273h33v-243h553v-30h-287v-131z" />
<glyph unicode="&#xb18b;" d="M475 256v-39q0 -51 30.5 -96.5t79 -76t100 -51t101.5 -30.5l-14 -27q-64 14 -123.5 39t-114.5 71.5t-76 102.5q-16 -43 -51 -80t-80 -62.5t-91 -42.5t-93 -27l-15 28q51 9 102.5 29.5t100.5 51t79.5 75.5t30.5 96v39h34zM475 362h381v-30h-796v30h382v153h-266v278h33 v-248h554v-30h-288v-153z" />
<glyph unicode="&#xb18d;" d="M458 -34q120 0 192.5 35t72.5 93t-72.5 93t-192.5 35t-192.5 -35t-72.5 -93t72.5 -93t192.5 -35zM458 251q140 0 219 -41t79 -116t-79 -116t-219 -41t-219 41t-79 116t79 116t219 41zM475 368h381v-30h-796v30h382v146h-266v281h33v-251h554v-30h-288v-146z" />
<glyph unicode="&#xb192;" d="M335 210v-233h247v233h-247zM615 210v-233h157v-30h-628v30h158v233h-150v30h614v-30h-151zM475 386h381v-30h-796v30h382v147h-266v260h33v-230h554v-30h-288v-147z" />
<glyph unicode="&#xb193;" d="M459 -35q107 0 167.5 23.5t60.5 65.5q0 43 -60.5 66.5t-167.5 23.5t-167.5 -23.5t-60.5 -66.5q0 -42 60.5 -65.5t167.5 -23.5zM459 172q260 0 260 -118q0 -117 -260 -117t-260 117q0 118 260 118zM476 362v-102h305v-31h-644v31h306v102h33zM475 433h383v-30h-800v30h384 v115h-266v256h33v-226h553v-30h-287v-115z" />
<glyph unicode="&#xb194;" d="M361 403v-225q144 7 259 22l3 -27q-224 -33 -566 -33l-9 31q186 2 280 6v226h-205v316h33v-286h408v-30h-203zM882 426v-30h-164v-462h-33v882h33v-390h164z" />
<glyph unicode="&#xb198;" d="M626 353l3 -26q-206 -38 -563 -38l-6 32q171 0 267 5v154h-194v271h33v-241h398v-30h-204v-153q165 9 266 26zM234 196v-209h522v-30h-555v239h33zM726 506h148v-30h-148v-335h-33v673h33v-308z" />
<glyph unicode="&#xb19c;" d="M626 438l3 -27q-201 -34 -563 -34l-6 32q168 0 263 4v132h-190v229h33v-199h390v-30h-200v-131q175 10 270 24zM213 109v-132h550v-30h-582v191h514v117h-517v30h549v-176h-514zM727 583h147v-30h-147v-223h-33v485h33v-232z" />
<glyph unicode="&#xb1a8;" d="M626 385l3 -27q-206 -38 -563 -38l-6 32q147 0 267 5v139h-194v256h33v-226h398v-30h-204v-137q165 9 266 26zM647 243v-41q0 -69 54 -134t135 -94l-17 -27q-66 26 -115.5 73.5t-70.5 104.5q-18 -60 -61 -110.5t-105 -77.5q-62 27 -104.5 77.5t-60.5 110.5 q-21 -57 -70.5 -104.5t-115.5 -73.5l-18 27q82 29 136 94t54 134v41h31v-45q0 -64 40.5 -128.5t107.5 -98.5q68 34 108.5 98.5t40.5 128.5v45h31zM726 552h148v-30h-148v-248h-33v541h33v-263z" />
<glyph unicode="&#xb1cc;" d="M377 402v-224q174 7 284 23l3 -27q-233 -35 -591 -35l-9 32q156 0 280 5v226h-203v317h33v-287h417v-30h-214zM727 816h33v-883h-33v883z" />
<glyph unicode="&#xb1d0;" d="M768 814v-654h-33v654h33zM645 353l2 -27q-241 -37 -577 -37l-7 32q140 0 276 7v152h-194v271h33v-241h398v-30h-204v-151q146 6 273 24zM258 -13h539v-30h-572v249h33v-219z" />
<glyph unicode="&#xb1d4;" d="M768 815v-476h-33v476h33zM646 438l2 -27q-241 -37 -577 -37l-7 32q139 0 273 7v125h-191v233h33v-203h393v-30h-202v-124q148 6 276 24zM239 -23h568v-30h-600v193h529v115h-532v30h564v-175h-529v-133z" />
<glyph unicode="&#xb1dc;" d="M646 393l2 -26q-214 -37 -577 -37l-7 32q176 0 275 5v137h-193v263h33v-233h398v-30h-205v-136q150 6 274 25zM244 202v-225h492v225h-492zM212 -53v284h556v-284h-556zM735 814h33v-535h-33v535z" />
<glyph unicode="&#xb1dd;" d="M644 405l2 -27q-241 -37 -577 -37l-7 32q140 0 277 7v139h-193v254h33v-224h398v-30h-205v-138q147 6 272 24zM736 -23v141h-484v-141h484zM736 148v123h32v-324h-549v324h33v-123h484zM735 815h33v-500h-33v500z" />
<glyph unicode="&#xb1df;" d="M768 815v-633h-33v633h33zM645 375l2 -27q-241 -37 -577 -37l-7 32q139 0 275 7v147h-193v263h33v-233h398v-30h-205v-146q166 9 274 24zM505 247v-44q0 -48 30.5 -91t78.5 -72t99.5 -48.5t101.5 -28.5l-14 -27q-64 13 -123 36.5t-113.5 66.5t-75.5 96q-21 -53 -75.5 -96 t-113.5 -66.5t-122 -36.5l-15 27q50 9 101.5 28.5t99.5 48.5t78.5 72t30.5 91v44h32z" />
<glyph unicode="&#xb1e8;" d="M338 358v-264h248v264h-248zM619 94h241v-30h-802v30h247v264h-143v373h33v-343h568v-30h-144v-264z" />
<glyph unicode="&#xb1e9;" d="M156 184v30h599v-292h-33v262h-566zM338 505v-148h240v148h-240zM611 357h245v-30h-796v30h245v148h-132v285h33v-255h554v-30h-149v-148z" />
<glyph unicode="&#xb1ec;" d="M201 217v-230h568v-30h-600v260h32zM337 487v-155h241v155h-241zM611 332h245v-30h-796v30h244v155h-128v287h32v-258h555v-29h-152v-155z" />
<glyph unicode="&#xb1f0;" d="M202 114v-137h582v-30h-614v196h548v116h-551v30h583v-175h-548zM337 541v-126h241v126h-241zM611 415h248v-31h-801v31h246v126h-128v259h31v-228h555v-31h-151v-126z" />
<glyph unicode="&#xb1f9;" d="M713 -24v148h-506v-148h506zM713 154v124h33v-332h-572v332h33v-124h506zM337 524v-137h241v137h-241zM611 387h244v-30h-795v30h244v137h-128v271h33v-241h553v-30h-151v-137z" />
<glyph unicode="&#xb1fb;" d="M475 255v-39q0 -51 30.5 -96.5t79 -76t100 -51t101.5 -30.5l-15 -27q-64 14 -123.5 39.5t-114 71.5t-75.5 102q-30 -81 -121 -135.5t-194 -76.5l-15 28q51 9 102.5 29.5t100.5 51t79.5 75.5t30.5 96v39h34zM337 517v-155h241v155h-241zM611 362h245v-30h-796v30h244v155 h-128v276h33v-246h554v-30h-152v-155z" />
<glyph unicode="&#xb1fd;" d="M458 -34q120 0 192.5 35t72.5 93t-72.5 93t-192.5 35t-192.5 -35t-72.5 -93t72.5 -93t192.5 -35zM458 251q141 0 219.5 -41t78.5 -116t-78.5 -116t-219.5 -41t-219.5 41t-78.5 116t78.5 116t219.5 41zM337 517v-148h241v148h-241zM611 369h245v-30h-796v30h244v148h-128 v278h33v-248h554v-30h-152v-148z" />
<glyph unicode="&#xb204;" d="M757 497v-30h-591v299h33v-269h558zM860 301v-30h-386v-338h-33v338h-383v30h802z" />
<glyph unicode="&#xb205;" d="M763 534v-30h-587v285h33v-255h554zM856 356h-381v-149h280v-288h-33v258h-566v30h286v149h-382v30h796v-30z" />
<glyph unicode="&#xb208;" d="M763 517v-29h-587v285h32v-256h555zM201 206v-219h569v-30h-601v249h32zM60 357h796v-30h-380v-209h-32v209h-384v30z" />
<glyph unicode="&#xb20b;" d="M763 547v-29h-587v275h32v-246h555zM856 368h-382v-135h283v-31h-564v-224h569v-31h-601v286h281v135h-382v30h796v-30z" />
<glyph unicode="&#xb20c;" d="M762 571v-31h-586v260h31v-229h555zM859 407h-385v-118h276v-175h-548v-137h582v-30h-614v196h548v116h-551v30h275v118h-384v31h801v-31z" />
<glyph unicode="&#xb214;" d="M763 550v-30h-587v277h33v-247h554zM720 -22v225h-522v-225h522zM856 370h-382v-138h278v-284h-586v284h276v138h-383v30h797v-30z" />
<glyph unicode="&#xb215;" d="M762 552v-30h-586v273h33v-243h553zM713 -24v145h-506v-145h506zM713 151v127h33v-332h-572v332h33v-127h506zM60 403h795v-30h-381v-160h-32v160h-382v30z" />
<glyph unicode="&#xb217;" d="M763 555v-30h-587v269h33v-239h554zM474 225v-51q0 -58 54.5 -105t122.5 -71t138 -34l-12 -28q-106 18 -198 63t-122 116q-30 -71 -121.5 -116t-197.5 -63l-13 28q51 7 103 23t101 41.5t80 63.5t31 82v51h34zM59 412h801v-30h-386v-121h-33v121h-382v30z" />
<glyph unicode="&#xb219;" d="M763 545v-30h-587v280h33v-250h554zM723 94q0 58 -72.5 93t-192.5 35t-192.5 -35t-72.5 -93t72.5 -93t192.5 -35t192.5 35t72.5 93zM856 373h-382v-122q133 -2 207.5 -43.5t74.5 -113.5q0 -75 -79 -116t-219 -41t-219 41t-79 116q0 72 74 113t208 44v122h-382v30h796v-30 z" />
<glyph unicode="&#xb220;" d="M573 510v-30h-431v284h33v-254h398zM648 364l3 -27q-123 -14 -292 -23v-353h-33v352q-118 -5 -265 -5l-6 32q381 2 593 24zM727 814h33v-882h-33v249h-224v30h224v603z" />
<glyph unicode="&#xb234;" d="M531 363h197v452h33v-564h-33v82h-197v30zM565 585v-30h-409v227h33v-197h376zM321 258v164q-117 -5 -262 -5l-6 32q374 0 575 30l4 -27q-114 -19 -278 -28v-166h-33zM660 222v-24q0 -71 55 -135.5t136 -92.5l-17 -27q-67 25 -117 73t-72 107q-18 -60 -60.5 -110 t-104.5 -77q-62 27 -104.5 77t-60.5 110q-22 -59 -72 -107t-117 -73l-17 27q82 28 136.5 92.5t54.5 135.5v24h31v-24q0 -64 40.5 -128.5t108.5 -98.5q68 34 108.5 98.5t40.5 128.5v24h31z" />
<glyph unicode="&#xb23c;" d="M480 523v-30h-363v251h33v-221h330zM522 389l3 -26q-88 -14 -230 -23v-333h-33v330q-112 -6 -206 -6l-7 32q288 2 473 26zM590 245v546h33v-806h-33v230h-190v30h190zM747 816h33v-883h-33v883z" />
<glyph unicode="&#xb258;" d="M566 510v-30h-418v271h33v-241h385zM658 353l3 -27q-148 -17 -292 -23v-342h-32v340q-123 -5 -277 -5l-7 32q388 2 605 25zM734 814h33v-882h-33v882z" />
<glyph unicode="&#xb25c;" d="M759 816v-673h-33v673h33zM556 530v-30h-408v252h33v-222h375zM348 174v177q-125 -5 -281 -5l-6 32q373 0 586 22l5 -27q-127 -15 -271 -21v-178h-33zM233 -13h558v-30h-591v250h33v-220z" />
<glyph unicode="&#xb260;" d="M759 815v-491h-33v491h33zM552 573v-30h-404v238h33v-208h371zM230 -23h568v-30h-600v188h529v114h-532v30h141v136q-127 -4 -266 -4l-7 32q369 0 585 19l4 -27q-125 -12 -283 -19v-137h390v-173h-529v-129z" />
<glyph unicode="&#xb268;" d="M556 550v-30h-408v249h33v-219h375zM725 -21v221h-492v-221h492zM367 380v-151h390v-280h-556v280h133v149q-117 -5 -265 -5l-6 32q378 0 585 30l4 -26q-117 -20 -285 -29zM726 816h33v-541h-33v541z" />
<glyph unicode="&#xb269;" d="M556 565v-30h-408v236h33v-206h375zM348 230v168q-120 -6 -279 -6l-6 32q378 0 585 30l4 -26q-113 -19 -271 -28v-170h-33zM727 -23v131h-489v-131h489zM727 138v122h32v-313h-554v313h33v-122h489zM726 816h33v-513h-33v513z" />
<glyph unicode="&#xb274;" d="M757 497v-30h-591v299h33v-269h558zM855 310v-30h-231v-347h-33v347h-268v-347h-33v347h-231v30h796z" />
<glyph unicode="&#xb275;" d="M763 553v-30h-587v270h33v-240h554zM591 203v170h-264v-170h264zM856 373h-232v-170h131v-281h-33v251h-574v30h146v170h-234v30h796v-30z" />
<glyph unicode="&#xb27c;" d="M762 571v-30h-586v259h33v-229h553zM593 289v126h-266v-126h266zM859 415h-233v-126h124v-175h-548v-137h582v-30h-614v196h548v116h-551v30h127v126h-236v31h801v-31z" />
<glyph unicode="&#xb284;" d="M763 563v-30h-587v260h33v-230h554zM590 232v147h-262v-147h262zM724 -22v225h-530v-225h530zM856 379h-233v-147h133v-284h-594v284h133v147h-236v30h797v-30z" />
<glyph unicode="&#xb285;" d="M762 554v-30h-586v269h33v-239h553zM717 -29v135h-515v-135h515zM717 136v124h32v-319h-579v319h32v-124h515zM60 409h796v-30h-258v-148h-33v148h-210v-148h-33v148h-262v30z" />
<glyph unicode="&#xb289;" d="M763 545v-30h-587v280h33v-250h554zM601 236v137h-285v-137q60 15 142 15q83 0 143 -15zM723 94q0 58 -72.5 93t-192.5 35t-192.5 -35t-72.5 -93t72.5 -93t192.5 -35t192.5 35t72.5 93zM856 373h-223v-145q123 -39 123 -134q0 -75 -79 -116t-219 -41t-219 41t-79 116 q0 95 124 135v144h-224v30h796v-30z" />
<glyph unicode="&#xb290;" d="M762 408v-30h-596v361h33v-331h563zM58 102h802v-30h-802v30z" />
<glyph unicode="&#xb291;" d="M763 547v-30h-587v273h33v-243h554zM148 182v30h607v-288h-29v258h-578zM60 387h796v-30h-796v30z" />
<glyph unicode="&#xb294;" d="M763 523v-30h-587v290h33v-260h554zM206 210v-223h563v-30h-596v253h33zM58 347h801v-30h-801v30z" />
<glyph unicode="&#xb298;" d="M762 571v-31h-586v260h31v-229h555zM202 110v-133h582v-30h-614v193h548v119h-551v30h583v-179h-548zM58 425h801v-31h-801v31z" />
<glyph unicode="&#xb299;" d="M763 571v-31h-587v260h31v-229h556zM184 -22h17q186 0 309 26l5 -31q-128 -26 -314 -26h-49v196h252v115h-255v30h287v-174h-252v-136zM489 258v30h273v-346h-33v316h-240zM58 427h801v-31h-801v31z" />
<glyph unicode="&#xb29a;" d="M762 571v-31h-586v260h31v-229h555zM188 -23h10q166 0 262 18l5 -30q-94 -18 -266 -18h-43v194h241v117h-244v30h276v-176h-241v-135zM528 259v-283h211v283h-211zM496 -53v341h276v-341h-276zM57 426h801v-31h-801v31z" />
<glyph unicode="&#xb2a0;" d="M763 550v-30h-587v277h33v-247h554zM198 203v-225h522v225h-522zM166 -52v284h586v-284h-586zM59 397h797v-30h-797v30z" />
<glyph unicode="&#xb2a1;" d="M762 552v-30h-586v273h33v-243h553zM713 -24v148h-506v-148h506zM713 154v124h33v-332h-572v332h33v-124h506zM60 403h795v-30h-795v30z" />
<glyph unicode="&#xb2a3;" d="M763 545v-30h-587v278h33v-248h554zM475 261v-40q0 -51 30.5 -96t79 -76t100 -51t101.5 -30l-14 -27q-64 14 -123.5 39t-114.5 71t-76 102q-30 -81 -120.5 -135t-194.5 -76l-15 28q51 9 102.5 29t100.5 50.5t79.5 75.5t30.5 96v40h34zM60 382h796v-30h-796v30z" />
<glyph unicode="&#xb2a5;" d="M763 544v-30h-587v281h33v-251h554zM458 -33q120 0 192.5 35t72.5 93t-72.5 93t-192.5 35t-192.5 -35t-72.5 -93t72.5 -93t192.5 -35zM458 252q140 0 219 -41t79 -116t-79 -116t-219 -41t-219 41t-79 116t79 116t219 41zM60 384h796v-30h-796v30z" />
<glyph unicode="&#xb2a6;" d="M762 552v-30h-586v273h33v-243h553zM476 217q0 -52 31.5 -97t81.5 -75.5t102.5 -50.5t103.5 -29l-15 -27q-65 13 -125.5 37.5t-117 70t-78.5 102.5q-21 -57 -77.5 -102.5t-116.5 -70t-125 -37.5l-15 27q51 9 103.5 29t102 50.5t81 75.5t31.5 97v1h-283v30h599v-30z M60 401h795v-30h-795v30z" />
<glyph unicode="&#xb2aa;" d="M763 560v-30h-587v263h33v-233h554zM335 218v-241h247v241h-247zM615 218v-241h157v-30h-628v30h158v241h-150v30h614v-30h-151zM60 403h796v-30h-796v30z" />
<glyph unicode="&#xb2ac;" d="M572 460v-30h-431v307h33v-277h398zM73 151l-9 32q389 2 597 30l3 -27q-233 -35 -591 -35zM727 815h33v-882h-33v882z" />
<glyph unicode="&#xb2b0;" d="M768 815v-656h-33v656h33zM576 521v-30h-426v270h33v-240h393zM645 372l2 -27q-241 -37 -577 -37l-6 32q358 2 581 32zM258 -13h539v-30h-572v248h33v-218z" />
<glyph unicode="&#xb2b4;" d="M768 815v-482h-33v482h33zM573 568v-30h-422v233h33v-203h389zM646 446l2 -27q-241 -37 -577 -37l-6 32q358 2 581 32zM239 -21h568v-32h-600v193h529v115h-532v30h564v-175h-529v-131z" />
<glyph unicode="&#xb2c8;" d="M158 202h34q224 0 428 44l6 -31q-216 -44 -434 -44h-67v556h33v-525zM734 816h33v-883h-33v883z" />
<glyph unicode="&#xb2c9;" d="M617 466l8 -30q-221 -43 -439 -43h-67v371h33v-340h34q225 0 431 42zM196 214v30h576v-311h-33v281h-543zM739 816h33v-518h-33v518z" />
<glyph unicode="&#xb2cc;" d="M772 814v-640h-33v640h33zM619 430l7 -30q-194 -41 -441 -41h-66v390h33v-359h33q253 0 434 40zM246 -13h558v-30h-591v273h33v-243z" />
<glyph unicode="&#xb2d0;" d="M772 816v-445h-33v445h33zM618 498l7 -28q-191 -42 -440 -42h-67v346h33v-316h34q252 0 433 40zM255 -23h554v-30h-586v208h517v131h-520v30h552v-191h-517v-148z" />
<glyph unicode="&#xb2d2;" d="M619 485l7 -29q-191 -42 -441 -42h-66v359h33v-328h33q253 0 434 40zM214 -25h8q161 0 248 17l5 -31q-97 -17 -253 -17h-40v204h234v122h-237v30h269v-182h-234v-143zM540 271v-298h200v298h-200zM508 -56v356h264v-356h-264zM739 816h33v-468h-33v468z" />
<glyph unicode="&#xb2d8;" d="M617 475l8 -30q-221 -43 -439 -43h-67v362h33v-331h34q225 0 431 42zM251 234v-256h488v256h-488zM219 -52v315h552v-315h-552zM738 816h33v-504h-33v504z" />
<glyph unicode="&#xb2d9;" d="M616 484l8 -30q-221 -43 -439 -43h-67v358h33v-327h34q225 0 431 42zM740 -23v156h-484v-156h484zM740 163v149h32v-365h-549v365h33v-149h484zM739 815h33v-459h-33v459z" />
<glyph unicode="&#xb2db;" d="M773 816v-609h-33v609h33zM618 444l7 -29q-188 -41 -440 -41h-67v378h33v-348h34q252 0 433 40zM517 295v-52q0 -55 30.5 -104.5t79 -83.5t99.5 -57t101 -34l-17 -27q-102 27 -191 86t-119 146q-16 -46 -51 -86t-80.5 -68t-91 -47t-92.5 -31l-16 27q51 11 102.5 33.5 t100.5 56.5t80 83.5t31 105.5v52h34z" />
<glyph unicode="&#xb2dd;" d="M771 816v-546h-33v546h33zM619 447l7 -30q-194 -41 -441 -41h-66v379h33v-348h33q253 0 434 40zM485 -34q115 0 186 38t71 99t-71 99t-186 38t-186 -38t-71 -99t71 -99t186 -38zM485 269q135 0 212.5 -44t77.5 -122t-77.5 -122t-212.5 -44t-212.5 44t-77.5 122t77.5 122 t212.5 44z" />
<glyph unicode="&#xb2e2;" d="M771 815v-486h-33v486h33zM624 467l7 -30q-221 -44 -444 -44h-68v371h33v-340h35q229 0 437 43zM374 234v-257h234v257h-234zM641 -23h148v-30h-595v30h147v257h-139v30h577v-30h-138v-257z" />
<glyph unicode="&#xb2e4;" d="M134 191h32q251 0 421 33l5 -31q-175 -33 -426 -33h-65v566h407v-30h-374v-505zM886 445v-30h-162v-483h-33v883h33v-370h162z" />
<glyph unicode="&#xb2e5;" d="M582 443l6 -30q-173 -33 -417 -33h-64v372h385v-30h-352v-311h31q250 0 411 32zM177 209v30h557v-308h-33v278h-524zM878 576v-30h-144v-253h-33v522h33v-239h144z" />
<glyph unicode="&#xb2e6;" d="M582 443l6 -30q-171 -33 -417 -33h-64v372h385v-30h-352v-311h31q251 0 411 32zM157 227v30h270v-323h-33v293h-237zM473 227v30h261v-323h-33v293h-228zM878 569v-30h-144v-236h-33v512h33v-246h144z" />
<glyph unicode="&#xb2e8;" d="M582 407l6 -30q-173 -33 -417 -33h-64v390h385v-30h-352v-329h31q250 0 411 32zM237 237v-250h545v-30h-578v280h33zM734 532h145v-30h-145v-326h-33v641h33v-285z" />
<glyph unicode="&#xb2eb;" d="M582 446l6 -30q-173 -33 -417 -33h-64v372h385v-30h-352v-311h31q250 0 411 32zM239 229v-252h522v-30h-555v312h539v-30h-506zM734 594h144v-30h-144v-248h-33v500h33v-222z" />
<glyph unicode="&#xb2ec;" d="M582 475l6 -30q-171 -33 -417 -33h-64v348h385v-30h-352v-287h31q251 0 411 32zM232 121v-144h540v-30h-572v204h502v131h-505v30h537v-191h-502zM734 610h144v-30h-144v-214h-33v450h33v-206z" />
<glyph unicode="&#xb2ed;" d="M582 455l6 -30q-173 -33 -417 -33h-64v360h385v-30h-352v-299h31q250 0 411 32zM192 -23h14q173 0 291 21l5 -30q-122 -21 -296 -21h-46v194h245v118h-248v30h280v-177h-245v-135zM476 259v30h258v-350h-33v320h-225zM878 587v-30h-144v-223h-33v481h33v-228h144z" />
<glyph unicode="&#xb2ee;" d="M582 454l6 -30q-173 -33 -417 -33h-64v361h384v-30h-351v-300h31q250 0 411 32zM178 -22h9q161 0 248 17l5 -30q-97 -18 -253 -18h-41v196h233v118h-236v30h268v-178h-233v-135zM505 262v-286h197v286h-197zM473 -53v344h261v-344h-261zM878 595v-30h-144v-226h-33v476 h33v-220h144z" />
<glyph unicode="&#xb2ef;" d="M582 456l6 -30q-171 -33 -417 -33h-64v359h385v-30h-352v-298h31q251 0 411 32zM177 -21h9q157 0 249 19l4 -31q-95 -19 -253 -19h-41v195h233v117h-236v30h268v-176h-233v-135zM701 -23v159h-200v-159h200zM701 166v135h33v-354h-266v354h33v-135h200zM878 597v-30h-144 v-228h-33v476h33v-218h144z" />
<glyph unicode="&#xb2f3;" d="M582 459l6 -30q-173 -33 -417 -33h-64v361h384v-30h-351v-300h31q250 0 411 32zM177 -25h9q157 0 249 19l4 -31q-95 -19 -253 -19h-41v196h233v118h-236v30h268v-178h-233v-135zM620 -37q52 0 83 24.5t31 64.5q0 39 -31 63.5t-83 24.5q-53 0 -84 -24.5t-31 -63.5 q0 -40 31 -64.5t84 -24.5zM620 168q64 0 104.5 -31.5t40.5 -84.5q0 -54 -40.5 -85t-104.5 -31t-105 31t-41 85q0 53 41 84.5t105 31.5zM637 342v-94h169v-30h-364v30h162v94h33zM734 607h144v-30h-144v-206h-33v444h33v-208z" />
<glyph unicode="&#xb2f4;" d="M582 443l6 -30q-171 -33 -417 -33h-64v372h385v-30h-352v-311h31q251 0 411 32zM232 226v-248h469v248h-469zM200 -52v307h534v-307h-534zM878 582v-30h-144v-241h-33v504h33v-233h144z" />
<glyph unicode="&#xb2f5;" d="M582 450l6 -30q-171 -33 -417 -33h-64v365h385v-30h-352v-304h31q251 0 411 32zM701 -18v145h-469v-145h469zM701 157v138h33v-343h-535v343h33v-138h469zM878 592v-30h-144v-214h-33v467h33v-223h144z" />
<glyph unicode="&#xb2f7;" d="M582 415l6 -30q-171 -33 -417 -33h-64v389h385v-30h-352v-328h31q251 0 411 32zM499 281v-43q0 -55 31 -104t80 -82t100.5 -54.5t102.5 -32.5l-16 -28q-64 16 -123.5 42.5t-115 75.5t-76.5 109q-21 -59 -76.5 -108.5t-115 -76t-123.5 -42.5l-15 28q51 11 102.5 32.5 t100.5 54.5t80 82t31 104v43h33zM734 551h144v-30h-144v-287h-33v582h33v-265z" />
<glyph unicode="&#xb2f8;" d="M582 443l6 -30q-171 -33 -417 -33h-64v372h385v-30h-352v-311h31q251 0 411 32zM658 275v-77q0 -69 55 -134t136 -94l-17 -27q-67 26 -118 75.5t-71 107.5q-19 -58 -62 -110t-103 -80q-63 27 -106 77.5t-59 111.5q-23 -57 -73.5 -106t-115.5 -76l-17 27q79 30 135.5 97 t56.5 131v77h31v-77q0 -68 40 -130.5t108 -96.5q66 37 107.5 104t41.5 123v77h31zM734 583h144v-30h-144v-242h-33v504h33v-232z" />
<glyph unicode="&#xb2f9;" d="M582 432l6 -30q-174 -32 -418 -32h-63v370h385v-30h-352v-310h30q251 0 412 32zM460 -34q112 0 181 35.5t69 93.5q0 59 -68.5 94.5t-181.5 35.5t-181.5 -35.5t-68.5 -94.5q0 -58 69 -93.5t181 -35.5zM460 254q133 0 207.5 -42t74.5 -117q0 -74 -75 -116t-207 -42t-207 42 t-75 116q0 75 74.5 117t207.5 42zM734 565h144v-30h-144v-260h-33v541h33v-251z" />
<glyph unicode="&#xb2fa;" d="M582 443l6 -30q-173 -33 -417 -33h-64v372h385v-30h-352v-311h31q250 0 411 32zM486 215v-9q0 -58 51 -111.5t115.5 -85.5t128.5 -46l-14 -27q-94 23 -179.5 77t-116.5 127q-31 -73 -116.5 -127t-179.5 -77l-15 27q64 14 128.5 46t115.5 85.5t51 111.5v9h-266v30h564v-30 h-267zM734 567h144v-30h-144v-244h-33v522h33v-248z" />
<glyph unicode="&#xb2fb;" d="M582 466l6 -30q-173 -33 -417 -33h-64v358h385v-30h-352v-297h31q250 0 411 32zM759 201h-273q3 -56 55 -108.5t116.5 -83.5t126.5 -45l-15 -27q-94 23 -182 78.5t-118 128.5q-30 -73 -117 -128.5t-181 -78.5l-16 27q62 14 126.5 45.5t116.5 83.5t55 108h-272v30h272v109 h33v-109h273v-30zM734 595h144v-30h-144v-249h-33v500h33v-221z" />
<glyph unicode="&#xb2ff;" d="M582 482l6 -30q-171 -33 -417 -33h-64v343h385v-30h-352v-282h31q251 0 411 32zM481 -39q95 0 151.5 26.5t56.5 72.5t-56.5 72.5t-151.5 26.5q-94 0 -151 -27t-57 -72t57 -72t151 -27zM481 187q113 0 176.5 -33.5t63.5 -93.5q0 -61 -63.5 -94t-176.5 -33t-176.5 33 t-63.5 94q0 60 64 93.5t176 33.5zM498 371v-100h287v-30h-608v30h288v100h33zM734 607h145v-30h-145v-234h-33v473h33v-209z" />
<glyph unicode="&#xb300;" d="M131 200h19q216 0 336 29l6 -30q-126 -29 -341 -29h-53v533h331v-30h-298v-473zM766 815h33v-882h-33v484h-170v-435h-33v809h33v-344h170v368z" />
<glyph unicode="&#xb301;" d="M495 436l4 -30q-141 -29 -340 -29h-52v366h327v-30h-294v-306h19q198 0 336 29zM218 214v30h576v-311h-33v281h-543zM761 815h33v-523h-33v253h-167v-246h-33v500h33v-224h167v240z" />
<glyph unicode="&#xb304;" d="M594 517v-327h-33v609h33v-252h167v268h33v-659h-33v361h-167zM495 404l5 -30q-143 -29 -341 -29h-52v379h327v-30h-294v-319h19q198 0 336 29zM271 -13h554v-30h-587v279h33v-249z" />
<glyph unicode="&#xb308;" d="M593 572v-219h-33v445h33v-196h168v213h33v-473h-33v230h-168zM495 466l4 -30q-141 -29 -340 -29h-52v347h327v-30h-294v-287h19q198 0 336 29zM265 -23h568v-30h-600v199h529v123h-532v30h564v-183h-529v-139z" />
<glyph unicode="&#xb310;" d="M495 439l5 -30q-143 -29 -341 -29h-52v365h327v-30h-294v-305h19q198 0 336 29zM266 226v-248h496v248h-496zM234 -52v307h560v-307h-560zM761 815h33v-513h-33v253h-167v-243h-33v487h33v-214h167v230z" />
<glyph unicode="&#xb311;" d="M495 436l5 -30q-143 -29 -341 -29h-52v366h327v-30h-294v-306h19q198 0 336 29zM762 -21v150h-492v-150h492zM762 158v131h32v-340h-557v340h33v-131h492zM761 815h33v-481h-33v225h-167v-215h-33v455h33v-210h167v226z" />
<glyph unicode="&#xb313;" d="M594 536v-233h-33v495h33v-232h167v250h33v-587h-33v307h-167zM494 415l5 -30q-141 -29 -340 -29h-52v376h327v-30h-294v-316h19q198 0 335 29zM529 266v-43q0 -50 32.5 -96t82.5 -78t102.5 -54t99.5 -31l-16 -27q-99 22 -193 80t-125 139q-31 -81 -124.5 -139 t-192.5 -80l-17 27q47 9 99.5 31t102.5 54t82.5 78t32.5 96v43h34z" />
<glyph unicode="&#xb314;" d="M594 545v-241h-33v495h33v-224h167v240h33v-518h-33v248h-167zM495 426l5 -30q-143 -29 -341 -29h-52v372h327v-30h-294v-312h19q198 0 336 29zM674 262v-76q0 -68 55 -133t136 -94l-17 -27q-68 26 -118.5 75t-70.5 107q-19 -58 -62 -109.5t-103 -79.5q-64 26 -107 76 t-60 111q-23 -56 -73.5 -105t-114.5 -75l-17 27q79 31 135 97.5t56 129.5v76h31v-76q0 -67 40.5 -129.5t108.5 -95.5q67 36 108.5 102t41.5 123v76h31z" />
<glyph unicode="&#xb315;" d="M594 530v-241h-33v509h33v-238h168v255h33v-555h-33v270h-168zM495 421l4 -30q-141 -29 -340 -29h-52v371h327v-30h-293v-311h18q198 0 336 29zM514 -34q114 0 183.5 34.5t69.5 92.5q0 57 -69.5 91.5t-183.5 34.5t-184 -34.5t-70 -91.5q0 -58 70 -92.5t184 -34.5z M514 248q134 0 209.5 -41t75.5 -114q0 -74 -75.5 -115t-209.5 -41q-135 0 -210.5 41t-75.5 115q0 73 75.5 114t210.5 41z" />
<glyph unicode="&#xb31c;" d="M134 191h32q251 0 421 33l5 -30q-175 -33 -426 -33h-65v565h407v-30h-374v-505zM882 553h-158v-237h158v-30h-158v-354h-33v883h33v-232h158v-30z" />
<glyph unicode="&#xb354;" d="M138 187h31q251 0 413 32l5 -30q-173 -33 -418 -33h-64v570h404v-32h-371v-507zM739 815h33v-882h-33v517h-291v30h291v335z" />
<glyph unicode="&#xb355;" d="M574 411l6 -30q-172 -32 -410 -32h-63v403h407v-30h-374v-343h30q245 0 404 32zM196 210v30h576v-308h-33v278h-543zM739 815h33v-522h-33v256h-287v30h287v236z" />
<glyph unicode="&#xb356;" d="M574 413l6 -29q-170 -32 -410 -32h-63v398h408v-30h-375v-338h30q245 0 404 31zM160 227v30h289v-323h-34v293h-255zM495 227v30h276v-323h-34v293h-242zM739 815h33v-508h-33v242h-286v30h286v236z" />
<glyph unicode="&#xb358;" d="M452 556h287v259h33v-646h-33v357h-287v30zM574 374l6 -30q-172 -32 -410 -32h-63v418h407v-30h-374v-358h30q245 0 404 32zM259 -23h540v-30h-573v265h33v-235z" />
<glyph unicode="&#xb35b;" d="M452 586h287v229h33v-508h-33v249h-287v30zM574 427l6 -30q-170 -32 -410 -32h-63v389h408v-30h-375v-329h30q246 0 404 32zM250 -23h539v-30h-572v305h557v-30h-524v-245z" />
<glyph unicode="&#xb35c;" d="M451 608h287v207h33v-476h-33v239h-287v30zM574 451l6 -30q-170 -32 -410 -32h-63v365h408v-30h-375v-305h30q246 0 404 32zM254 -23h558v-30h-590v194h517v118h-520v30h552v-178h-517v-134z" />
<glyph unicode="&#xb35e;" d="M574 435l6 -30q-170 -32 -410 -32h-63v381h408v-30h-375v-321h30q246 0 404 32zM204 -22h9q159 0 254 17l5 -30q-98 -18 -259 -18h-41v197h237v117h-240v30h272v-176h-237v-137zM539 262v-290h200v290h-200zM507 -57v348h264v-348h-264zM738 815h33v-481h-33v225h-286v30 h286v226z" />
<glyph unicode="&#xb35f;" d="M574 433l6 -30q-170 -32 -410 -32h-63v383h408v-30h-375v-323h30q246 0 404 32zM202 -22h9q159 0 254 17l5 -30q-98 -18 -259 -18h-41v200h237v118h-240v30h272v-178h-237v-139zM737 -22v160h-200v-160h200zM737 168v138h33v-358h-266v358h33v-138h200zM738 815h33v-476 h-33v220h-287v30h287v226z" />
<glyph unicode="&#xb364;" d="M574 427l6 -30q-170 -32 -410 -32h-63v385h408v-30h-375v-325h30q246 0 404 32zM248 223v-244h492v244h-492zM216 -51v303h556v-303h-556zM739 815h33v-512h-33v257h-287v30h287v225z" />
<glyph unicode="&#xb365;" d="M574 440l6 -30q-170 -32 -410 -32h-63v375h408v-30h-375v-315h30q246 0 404 32zM740 -23v148h-484v-148h484zM740 155v142h32v-350h-549v350h33v-142h484zM739 815h33v-472h-33v220h-287v30h287v222z" />
<glyph unicode="&#xb367;" d="M452 571h287v244h33v-618h-33v344h-287v30zM574 411l6 -30q-170 -32 -410 -32h-63v403h408v-30h-375v-343h30q246 0 404 32zM518 281v-43q0 -45 20.5 -85.5t53.5 -70.5t75.5 -54.5t83.5 -39.5t81 -23l-16 -28q-104 25 -194.5 83t-120.5 145q-30 -87 -121 -145t-195 -83 l-15 28q51 11 102.5 32.5t100.5 54.5t80 82t31 104v43h34z" />
<glyph unicode="&#xb369;" d="M452 585h287v230h33v-548h-33v288h-287v30zM574 416l6 -30q-172 -32 -410 -32h-63v398h407v-30h-374v-338h30q245 0 404 32zM490 -36q114 0 184 36t70 96q0 59 -70 95.5t-184 36.5q-113 0 -183 -36.5t-70 -95.5q0 -60 69.5 -96t183.5 -36zM490 257q134 0 210 -42.5 t76 -118.5t-76 -118.5t-210 -42.5q-133 0 -209 42.5t-76 118.5t76 118.5t209 42.5z" />
<glyph unicode="&#xb36b;" d="M452 600h288v216h33v-505h-33v259h-288v30zM575 445l5 -30q-170 -32 -410 -32h-63v379h408v-30h-375v-319h30q246 0 405 32zM524 196v-12q0 -50 52.5 -99t119.5 -79t128 -41l-14 -28q-93 20 -182.5 72.5t-120.5 119.5q-31 -68 -123.5 -120t-186.5 -72l-14 28 q61 10 129.5 39.5t123.5 79t55 100.5v12h-272v30h272v103h33v-103h272v-30h-272z" />
<glyph unicode="&#xb36e;" d="M453 590h286v225h33v-499h-33v244h-286v30zM574 422l6 -30q-170 -32 -410 -32h-63v394h408v-30h-375v-334h30q246 0 404 32zM378 229v-252h227v252h-227zM638 -23h153v-30h-595v30h149v252h-142v30h577v-30h-142v-252z" />
<glyph unicode="&#xb370;" d="M133 192h19q211 0 332 28l6 -30q-125 -28 -338 -28h-52v537h326v-30h-293v-477zM593 464v326h33v-806h-33v450h-226v30h226zM766 816h33v-884h-33v884z" />
<glyph unicode="&#xb371;" d="M376 580h223v215h33v-505h-33v260h-223v30zM494 416l5 -30q-141 -29 -340 -29h-52v386h327v-30h-294v-326h19q198 0 335 29zM214 209v30h580v-308h-33v278h-547zM761 815h33v-531h-33v531z" />
<glyph unicode="&#xb374;" d="M794 815v-655h-33v655h33zM376 559h221v237h33v-609h-33v342h-221v30zM494 390l5 -30q-141 -29 -340 -29h-52v393h327v-30h-294v-333h19q198 0 335 29zM271 -13h554v-30h-587v281h33v-251z" />
<glyph unicode="&#xb378;" d="M794 815v-477h-33v477h33zM376 610h223v184h33v-445h-33v231h-223v30zM494 463l5 -30q-141 -29 -340 -29h-52v352h327v-30h-293v-292h18q198 0 335 29zM265 -23h568v-30h-600v195h529v117h-532v30h564v-177h-529v-135z" />
<glyph unicode="&#xb380;" d="M376 591h223v204h33v-482h-33v248h-223v30zM494 427l5 -30q-141 -29 -340 -29h-52v378h327v-30h-294v-318h19q198 0 335 29zM266 225v-248h496v248h-496zM234 -53v307h560v-307h-560zM761 815h33v-513h-33v513z" />
<glyph unicode="&#xb381;" d="M376 601h223v193h33v-458h-33v235h-223v30zM494 442l5 -30q-141 -29 -340 -29h-52v368h327v-30h-294v-308h19q198 0 335 29zM762 -25v152h-492v-152h492zM762 157v131h32v-343h-557v343h33v-131h492zM761 814h33v-486h-33v486z" />
<glyph unicode="&#xb383;" d="M794 815v-601h-33v601h33zM376 578h223v217h33v-500h-33v253h-223v30zM494 406l5 -30q-141 -29 -340 -29h-52v387h327v-30h-293v-327h18q198 0 335 29zM529 262v-43q0 -65 56.5 -122t126 -88.5t135.5 -44.5l-15 -27q-101 22 -195 79t-125 138q-31 -81 -125 -138t-195 -79 l-15 27q66 13 135.5 44.5t126 88.5t56.5 122v43h34z" />
<glyph unicode="&#xb384;" d="M794 815v-527h-33v527h33zM377 580h222v215h33v-491h-33v246h-222v30zM495 409l4 -30q-141 -29 -340 -29h-52v389h327v-30h-294v-329h19q198 0 336 29zM674 265v-67q0 -68 55 -133t136 -94l-17 -27q-67 25 -118 74.5t-71 108.5q-20 -59 -62.5 -110.5t-102.5 -79.5 q-63 27 -106 77t-59 111q-23 -57 -73.5 -106t-114.5 -75l-18 27q79 30 135.5 97t56.5 130v67h31v-67q0 -67 40 -129.5t108 -96.5q66 36 107.5 103t41.5 123v67h31z" />
<glyph unicode="&#xb385;" d="M794 815v-541h-33v541h33zM376 580h223v215h33v-486h-33v241h-223v30zM494 410l5 -30q-141 -29 -340 -29h-52v388h331v-30h-298v-328h19q198 0 335 29zM514 -34q114 0 183.5 34.5t69.5 92.5q0 57 -69.5 91.5t-183.5 34.5t-184 -34.5t-70 -91.5q0 -58 70 -92.5t184 -34.5z M514 248q134 0 209.5 -41t75.5 -114q0 -74 -75.5 -115t-209.5 -41q-135 0 -210.5 41t-75.5 115q0 73 75.5 114t210.5 41z" />
<glyph unicode="&#xb38c;" d="M138 183h31q251 0 413 32l5 -30q-174 -32 -418 -32h-64v573h404v-30h-371v-513zM739 815h33v-882h-33v406h-291v30h291v178h-291v30h291v238z" />
<glyph unicode="&#xb390;" d="M452 621h287v194h33v-656h-33v261h-287v30h287v141h-287v30zM566 343l6 -30q-164 -31 -403 -31h-62v448h400v-30h-367v-388h29q240 0 397 31zM257 -13h542v-30h-573v242h31v-212z" />
<glyph unicode="&#xb394;" d="M452 661h286v155h33v-486h-33v158h-286v30h286v113h-286v30zM566 424l6 -30q-162 -31 -403 -31h-62v396h400v-30h-367v-336h29q241 0 397 31zM254 -23h554v-30h-586v191h517v119h-520v30h552v-179h-517v-131z" />
<glyph unicode="&#xb3a0;" d="M457 644h281v171h33v-530h-33v173h-281v30h281v126h-281v30zM567 391l5 -29q-162 -31 -403 -31h-62v418h400v-30h-367v-358h29q239 0 398 30zM664 264v-66q0 -69 55 -134t136 -94l-18 -27q-66 26 -117 75.5t-71 107.5q-19 -58 -62 -110t-103 -80q-64 27 -107 77.5 t-59 111.5q-23 -57 -73 -106t-115 -76l-17 27q79 30 135 97t56 131v66h31v-66q0 -68 40 -130.5t108 -96.5q67 37 108.5 104t41.5 123v66h31z" />
<glyph unicode="&#xb3a1;" d="M452 634h286v181h33v-563h-33v203h-286v30h286v119h-286v30zM566 392l6 -29q-166 -33 -403 -33h-62v419h400v-30h-367v-359h29q236 0 397 32zM490 -36q114 0 184 36t70 96q0 59 -70 95.5t-184 36.5q-113 0 -183 -36.5t-70 -95.5q0 -60 69.5 -96t183.5 -36zM490 257 q134 0 210 -42.5t76 -118.5t-76 -118.5t-210 -42.5q-133 0 -209 42.5t-76 118.5t76 118.5t209 42.5z" />
<glyph unicode="&#xb3a8;" d="M133 192h19q211 0 332 28l6 -30q-125 -28 -338 -28h-52v537h330v-30h-297v-477zM593 556v234h33v-806h-33v351h-226v30h226v161h-226v30h226zM766 816h33v-884h-33v884z" />
<glyph unicode="&#xb3ac;" d="M794 814v-654h-33v654h33zM379 615h218v180h33v-608h-33v251h-218v30h218v117h-218v30zM494 356l5 -30q-141 -29 -340 -29h-52v428h327v-30h-294v-368h19q198 0 335 29zM271 -13h554v-30h-587v253h33v-223z" />
<glyph unicode="&#xb3c4;" d="M474 86h386v-30h-801v30h382v269h-272v380h581v-30h-548v-320h558v-30h-286v-269z" />
<glyph unicode="&#xb3c5;" d="M148 191v30h607v-300h-33v270h-574zM475 363h381v-30h-797v30h383v135h-278v282h588v-30h-555v-222h563v-30h-285v-135z" />
<glyph unicode="&#xb3c8;" d="M202 205v-218h568v-30h-601v248h33zM474 336h382v-30h-797v30h382v145h-277v288h589v-30h-556v-228h563v-30h-286v-145z" />
<glyph unicode="&#xb3cb;" d="M198 192v-216h568v-30h-601v276h592v-30h-559zM475 371h381v-30h-797v30h383v134h-274v273h581v-30h-548v-213h558v-30h-284v-134z" />
<glyph unicode="&#xb3cc;" d="M196 104v-126h582v-30h-614v185h552v111h-555v29h587v-169h-552zM475 406h381v-30h-796v30h382v112h-269v259h576v-30h-543v-199h554v-30h-285v-112z" />
<glyph unicode="&#xb3ce;" d="M182 -23h10q166 0 262 18l5 -30q-94 -18 -266 -18h-43v191h241v115h-244v30h276v-175h-241v-131zM521 255v-280h212v280h-212zM490 -53v336h274v-336h-274zM475 408h381v-30h-797v30h383v113h-279v252h588v-30h-555v-192h563v-30h-284v-113z" />
<glyph unicode="&#xb3d0;" d="M182 -23h9q155 0 247 17l6 -30q-91 -17 -253 -17h-41v191h237v115h-240v30h272v-175h-237v-131zM652 302v-72q0 -76 44 -150t119 -109l-21 -25q-59 30 -99.5 83t-58.5 117q-19 -64 -60.5 -117t-100.5 -83l-22 25q76 35 121.5 109t45.5 150v72h32zM475 404h381v-30h-797 v30h383v115h-279v254h588v-30h-555v-194h563v-30h-284v-115z" />
<glyph unicode="&#xb3d4;" d="M194 198v-221h530v221h-530zM162 -53v280h594v-280h-594zM475 372h381v-30h-797v30h383v129h-278v278h588v-30h-555v-218h563v-30h-285v-129z" />
<glyph unicode="&#xb3d5;" d="M715 -24v148h-510v-148h510zM715 154v124h33v-332h-576v332h33v-124h510zM475 380h381v-30h-797v30h383v131h-278v269h588v-30h-555v-209h563v-30h-285v-131z" />
<glyph unicode="&#xb3d7;" d="M475 256v-40q0 -51 30.5 -96t79 -75.5t100 -50.5t101.5 -29l-15 -28q-64 14 -123.5 39t-114 71t-75.5 101q-21 -55 -75.5 -101t-114 -71t-123.5 -39l-16 28q51 9 102.5 29t100 50.5t79 75.5t30.5 96v40h34zM475 352h381v-30h-797v30h383v134h-278v288h589v-30h-556v-228 h563v-30h-285v-134z" />
<glyph unicode="&#xb3d9;" d="M458 -35q120 0 192.5 34.5t72.5 92.5t-72.5 92t-192.5 34t-192.5 -34t-72.5 -92t72.5 -92.5t192.5 -34.5zM458 247q140 0 219 -41t79 -114q0 -75 -79 -115.5t-219 -40.5t-219 40.5t-79 115.5q0 73 79 114t219 41zM473 361h383v-30h-797v30h382v130h-277v282h588v-30h-556 v-222h564v-30h-287v-130z" />
<glyph unicode="&#xb3db;" d="M746 197h-273q2 -43 34.5 -84t80 -70.5t98 -49.5t95.5 -29l-14 -27q-60 13 -119.5 38.5t-114 69.5t-75.5 94q-21 -54 -75.5 -97.5t-113.5 -67.5t-123 -37l-15 27q50 9 100 28t97.5 47t78.5 69.5t33 88.5h-272v30h272v100h33v-100h273v-30zM475 401h382v-30h-797v30h382 v122h-278v251h589v-30h-556v-191h563v-30h-285v-122z" />
<glyph unicode="&#xb3dd;" d="M195 90v-114h568v-30h-601v313h596v-30h-563v-109h539v-30h-539zM475 389h381v-30h-797v30h383v127h-278v259h589v-30h-556v-199h563v-30h-285v-127z" />
<glyph unicode="&#xb3e0;" d="M350 382v-205q163 7 270 22l3 -27q-222 -34 -567 -34l-8 32q150 0 269 5v207h-202v336h438v-30h-405v-276h412v-30h-210zM882 433v-30h-164v-471h-33v884h33v-383h164z" />
<glyph unicode="&#xb3e4;" d="M626 353l3 -27q-207 -36 -563 -36l-6 32q165 0 258 4v143h-189v285h400v-30h-367v-225h376v-30h-187v-141q163 7 275 25zM233 192v-205h526v-30h-559v235h33zM726 497h148v-30h-148v-326h-33v674h33v-318z" />
<glyph unicode="&#xb3e8;" d="M626 423l3 -27q-221 -38 -563 -38l-6 32q120 0 258 6v119h-189v247h400v-30h-367v-187h376v-30h-187v-117q153 6 275 25zM213 101v-124h550v-30h-582v184h514v113h-517v30h549v-173h-514zM727 574h147v-30h-147v-223h-33v495h33v-242z" />
<glyph unicode="&#xb3fc;" d="M307 382v-202q128 5 215 16l3 -26q-181 -28 -469 -28l-7 32q116 0 225 4v204h-170v334h368v-30h-335v-274h343v-30h-173zM747 816h33v-883h-33v470h-148v-417h-33v806h33v-359h148v383z" />
<glyph unicode="&#xb410;" d="M600 520v-247h-33v527h33v-250h147v266h33v-550h-33v254h-147zM517 367l3 -26q-160 -29 -461 -29l-7 32q117 0 229 4v137h-169v270h361v-30h-328v-209h335v-31h-166v-136q131 7 203 18zM670 224v-26q0 -70 54.5 -134.5t136.5 -93.5l-18 -27q-66 25 -116 73t-72 107 q-18 -60 -61 -110t-105 -77q-61 27 -103.5 77t-60.5 110q-22 -59 -72 -107t-117 -73l-17 27q82 29 136.5 93.5t54.5 134.5v26h31v-26q0 -64 40.5 -128.5t107.5 -98.5q68 34 109 98.5t41 128.5v26h31z" />
<glyph unicode="&#xb418;" d="M369 381v-200q178 7 291 22l4 -26q-237 -35 -592 -35l-7 32q113 0 271 5v202h-196v346h438v-31h-406v-284h409v-31h-212zM727 815h33v-882h-33v882z" />
<glyph unicode="&#xb41c;" d="M768 814v-656h-33v656h33zM646 344l2 -27q-248 -35 -578 -35l-7 32q130 0 274 6v158h-189v276h411v-30h-378v-216h385v-30h-196v-156q154 7 276 22zM258 -13h545v-30h-578v242h33v-212z" />
<glyph unicode="&#xb420;" d="M768 814v-485h-33v485h33zM646 429l2 -27q-241 -37 -577 -37l-7 32q139 0 273 7v123h-189v249h407v-30h-374v-189h384v-30h-195v-122q148 6 276 24zM239 -23h568v-30h-600v187h529v116h-532v30h564v-176h-529v-127z" />
<glyph unicode="&#xb428;" d="M646 394l2 -27q-214 -35 -577 -35l-7 32q177 0 275 4v131h-191v264h422v-30h-389v-204h398v-30h-207v-129q160 7 274 24zM244 198v-221h492v221h-492zM212 -53v280h556v-280h-556zM735 815h33v-536h-33v536z" />
<glyph unicode="&#xb429;" d="M646 407l2 -26q-214 -37 -577 -37l-7 32q175 0 273 5v121h-189v266h407v-30h-374v-206h384v-30h-195v-120q151 6 276 25zM736 -23v139h-492v-139h492zM736 146v121h32v-320h-557v320h33v-121h492zM735 815h33v-505h-33v505z" />
<glyph unicode="&#xb42b;" d="M768 815v-628h-33v628h33zM646 378l2 -27q-241 -37 -577 -37l-7 32q139 0 275 7v134h-191v276h415v-30h-382v-216h389v-30h-198v-133q147 6 274 24zM505 248v-43q0 -39 20.5 -75t52.5 -62.5t74 -48t82.5 -35t80.5 -20.5l-14 -27q-64 13 -123 37t-113.5 66.5t-75.5 95.5 q-21 -53 -75.5 -95.5t-113 -66.5t-122.5 -37l-14 27q39 7 79.5 20.5t82.5 35t74 48t52.5 62.5t20.5 75v43h32z" />
<glyph unicode="&#xb434;" d="M344 340v-244h237v244h-237zM614 96h246v-30h-801v30h252v244h-142v391h580v-30h-547v-331h558v-30h-146v-244z" />
<glyph unicode="&#xb450;" d="M751 471v-30h-574v318h558v-30h-525v-258h541zM859 297v-30h-385v-329h-33v329h-384v30h802z" />
<glyph unicode="&#xb451;" d="M760 532v-30h-596v279h588v-30h-555v-219h563zM856 354h-381v-149h280v-273h-33v243h-574v30h294v149h-383v30h797v-30z" />
<glyph unicode="&#xb454;" d="M759 504v-30h-595v293h588v-30h-555v-233h562zM202 202v-215h567v-30h-600v245h33zM60 351h796v-30h-376v-203h-33v203h-387v30z" />
<glyph unicode="&#xb458;" d="M760 548v-30h-587v259h576v-30h-543v-199h554zM856 391h-382v-118h274v-169h-552v-126h582v-30h-614v185h552v111h-555v29h281v118h-382v30h796v-30z" />
<glyph unicode="&#xb460;" d="M760 531v-30h-596v278h588v-30h-555v-218h563zM724 -22v221h-530v-221h530zM856 361h-382v-133h282v-280h-594v280h280v133h-383v30h797v-30z" />
<glyph unicode="&#xb461;" d="M760 539v-30h-596v271h588v-30h-555v-211h563zM715 -24v147h-510v-147h510zM715 152v126h33v-332h-576v332h33v-126h510zM60 401h796v-30h-381v-158h-33v158h-382v30z" />
<glyph unicode="&#xb463;" d="M760 532v-30h-596v277h588v-30h-555v-217h563zM474 207v-39q0 -43 31.5 -80t81 -61.5t101.5 -40.5t102 -22l-12 -28q-106 17 -198 60.5t-123 113.5q-31 -70 -123 -113.5t-199 -60.5l-11 28q50 6 102 22t101.5 40.5t81 61.5t31.5 80v39h34zM58 390h802v-30h-387v-111h-33 v111h-382v30z" />
<glyph unicode="&#xb465;" d="M760 523v-30h-596v280h588v-30h-556v-220h564zM723 92q0 58 -72.5 92t-192.5 34t-192.5 -34t-72.5 -92t72.5 -92.5t192.5 -34.5t192.5 34.5t72.5 92.5zM856 358h-381v-111q133 -3 207 -43.5t74 -111.5q0 -75 -79 -115.5t-219 -40.5t-219 40.5t-79 115.5q0 71 74.5 111.5 t207.5 43.5v111h-383v30h797v-30z" />
<glyph unicode="&#xb46c;" d="M571 499v-31h-431v296h419v-31h-387v-234h399zM648 360l3 -27q-122 -14 -293 -23v-349h-32v348q-141 -6 -265 -6l-6 33q381 2 593 24zM727 815h33v-883h-33v243h-224v30h224v610z" />
<glyph unicode="&#xb480;" d="M531 355h197v461h33v-568h-33v77h-197v30zM540 563v-30h-395v253h392v-30h-359v-193h362zM321 255v158q-94 -5 -261 -5l-6 32q373 0 574 30l3 -27q-111 -20 -277 -29v-159h-33zM660 218v-20q0 -70 55 -134.5t136 -92.5l-17 -27q-67 24 -117 72t-72 107 q-18 -60 -60.5 -110t-104.5 -76q-62 26 -104.5 76t-60.5 110q-22 -58 -72 -106.5t-116 -72.5l-18 27q82 28 136.5 92.5t54.5 134.5v20h31v-20q0 -63 40.5 -127.5t108.5 -98.5q68 34 108.5 98.5t40.5 127.5v20h31z" />
<glyph unicode="&#xb488;" d="M468 488v-30h-358v278h357v-30h-324v-218h325zM522 368l3 -26q-88 -14 -230 -23v-311h-33v308q-112 -6 -207 -6l-6 32q288 2 473 26zM590 231v560h33v-805h-33v215h-190v30h190zM747 816h33v-883h-33v883z" />
<glyph unicode="&#xb49d;" d="M780 816v-591h-33v591h33zM409 356h190v444h33v-540h-33v66h-190v30zM491 558v-31h-358v234h358v-30h-325v-173h325zM279 251v156q-101 -5 -218 -5l-7 34q321 0 485 27l2 -28q-87 -17 -229 -26v-158h-33zM499 -36q117 0 187.5 31.5t70.5 85.5q0 53 -70.5 84.5 t-187.5 31.5t-187.5 -31.5t-70.5 -84.5q0 -54 70.5 -85.5t187.5 -31.5zM499 226q139 0 216.5 -38t77.5 -107q0 -70 -77 -107.5t-217 -37.5t-217 37.5t-77 107.5q0 69 77.5 107t216.5 38z" />
<glyph unicode="&#xb4a4;" d="M579 489v-30h-436v305h423v-30h-390v-245h403zM658 349l3 -27q-145 -17 -291 -23v-338h-33v336q-123 -5 -278 -5l-6 32q388 2 605 25zM734 815h33v-883h-33v883z" />
<glyph unicode="&#xb4a8;" d="M759 816v-674h-33v674h33zM566 507v-30h-414v284h408v-30h-375v-224h381zM344 176v163q-132 -4 -277 -4l-7 32q375 0 587 22l5 -27q-131 -15 -275 -21v-165h-33zM233 -14h558v-30h-591v251h33v-221z" />
<glyph unicode="&#xb4ac;" d="M759 815v-491h-33v491h33zM557 569v-30h-405v250h400v-30h-367v-190h372zM230 -23h568v-30h-600v192h529v118h-532v30h141v131q-119 -5 -267 -5l-6 32q378 0 585 30l4 -26q-116 -20 -283 -29v-133h390v-177h-529v-133z" />
<glyph unicode="&#xb4b5;" d="M565 545v-30h-413v265h407v-30h-374v-205h380zM338 253v137q-128 -4 -269 -4l-6 32q372 0 585 21l4 -27q-132 -15 -281 -21v-138h-33zM727 -23v135h-489v-135h489zM727 142v118h32v-313h-554v313h33v-118h489zM726 816h33v-513h-33v513z" />
<glyph unicode="&#xb4b7;" d="M759 816v-646h-33v646h33zM572 535v-30h-419v266h416v-30h-383v-206h386zM327 195v169q-123 -4 -258 -4l-6 32q374 0 588 22l3 -27q-133 -15 -294 -22v-170h-33zM523 249v-43q0 -39 20.5 -75t52.5 -62.5t74 -48t82.5 -35t80.5 -20.5l-15 -26q-64 13 -123 36.5t-113 66 t-75 95.5q-21 -53 -75.5 -96t-114 -66.5t-123.5 -36.5l-14 27q70 13 137 41.5t120.5 82t53.5 117.5v43h32z" />
<glyph unicode="&#xb4b9;" d="M759 815v-572h-33v572h33zM565 534v-30h-413v269h407v-30h-374v-209h380zM483 -32q113 0 181.5 33.5t68.5 88.5q0 56 -68.5 89.5t-181.5 33.5t-181.5 -33.5t-68.5 -89.5q0 -55 68.5 -88.5t181.5 -33.5zM365 375v-143q58 10 118 10q133 0 207.5 -40t74.5 -112 t-74.5 -111.5t-207.5 -39.5t-207.5 39.5t-74.5 111.5q0 98 131 135v149q-125 -4 -262 -4l-6 32q373 0 587 22l3 -27q-130 -15 -289 -22z" />
<glyph unicode="&#xb4c0;" d="M750 478v-30h-573v316h557v-30h-524v-256h540zM858 299v-30h-234v-336h-33v336h-268v-336h-33v336h-233v30h801z" />
<glyph unicode="&#xb4c4;" d="M760 504v-30h-596v293h588v-30h-555v-233h563zM202 188v-201h567v-30h-600v231h33zM60 353h796v-30h-221v-207h-33v207h-226v-207h-33v207h-283v30z" />
<glyph unicode="&#xb4c8;" d="M760 551v-30h-587v259h576v-30h-543v-199h554zM593 273v121h-266v-121h266zM856 394h-230v-121h122v-169h-552v-126h582v-30h-614v185h552v111h-555v29h133v121h-234v30h796v-30z" />
<glyph unicode="&#xb4d0;" d="M760 533v-30h-596v276h588v-30h-555v-216h563zM591 228v135h-265v-135h265zM724 -22v221h-530v-221h530zM856 363h-233v-135h133v-280h-594v280h132v135h-235v30h797v-30z" />
<glyph unicode="&#xb4d5;" d="M760 530v-30h-596v275h588v-30h-556v-215h564zM600 233v125h-284v-125q62 14 142 14t142 -14zM723 92q0 58 -72.5 92t-192.5 34t-192.5 -34t-72.5 -92t72.5 -92.5t192.5 -34.5t192.5 34.5t72.5 92.5zM856 358h-223v-134q123 -39 123 -132q0 -75 -79 -115.5t-219 -40.5 t-219 40.5t-79 115.5q0 93 123 132v134h-224v30h797v-30z" />
<glyph unicode="&#xb4dc;" d="M760 376v-30h-591v379h580v-30h-547v-319h558zM59 96h801v-30h-801v30z" />
<glyph unicode="&#xb4dd;" d="M760 530v-30h-596v278h588v-30h-555v-218h563zM148 177v30h607v-281h-33v251h-574zM59 374h797v-30h-797v30z" />
<glyph unicode="&#xb4e0;" d="M760 513v-30h-596v290h588v-30h-555v-230h563zM202 210v-222h568v-30h-601v252h33zM60 361h796v-30h-796v30z" />
<glyph unicode="&#xb4e3;" d="M759 540v-30h-591v273h580v-30h-547v-213h558zM198 194v-216h568v-30h-601v276h592v-30h-559zM59 381h797v-30h-797v30z" />
<glyph unicode="&#xb4e4;" d="M760 546v-30h-587v258h576v-30h-543v-198h554zM196 105v-128h582v-30h-614v188h552v120h-555v30h587v-180h-552zM59 420h797v-30h-797v30z" />
<glyph unicode="&#xb4e6;" d="M759 545v-30h-596v267h588v-30h-555v-207h563zM182 -24h10q166 0 262 18l5 -30q-94 -18 -266 -18h-43v192h241v118h-244v30h276v-177h-241v-133zM521 258v-284h212v284h-212zM490 -54v340h274v-340h-274zM60 415h796v-30h-796v30z" />
<glyph unicode="&#xb4ec;" d="M760 535v-30h-596v278h588v-30h-555v-218h563zM194 201v-221h530v221h-530zM162 -50v280h594v-280h-594zM59 388h797v-30h-797v30z" />
<glyph unicode="&#xb4ed;" d="M760 549v-30h-596v264h588v-30h-555v-204h563zM715 -22v148h-510v-148h510zM715 156v124h33v-332h-576v332h33v-124h510zM60 400h796v-30h-796v30z" />
<glyph unicode="&#xb4ef;" d="M760 517v-30h-596v293h589v-30h-556v-233h563zM475 257v-40q0 -51 30.5 -96t79 -75.5t100 -50.5t101.5 -29l-15 -28q-64 14 -123.5 39t-114 71t-75.5 101q-21 -55 -75.5 -101t-114 -71t-123.5 -39l-16 28q51 9 102.5 29t100 50.5t79 75.5t30.5 96v40h34zM59 372h797v-30 h-797v30z" />
<glyph unicode="&#xb4f1;" d="M760 516v-30h-596v283h588v-30h-556v-223h564zM458 -34q120 0 192.5 34.5t72.5 92.5q0 57 -72.5 91.5t-192.5 34.5t-192.5 -34.5t-72.5 -91.5q0 -58 72.5 -92.5t192.5 -34.5zM458 248q140 0 219 -41t79 -114q0 -75 -79 -115.5t-219 -40.5t-219 40.5t-79 115.5 q0 73 79 114t219 41zM59 379h797v-30h-797v30z" />
<glyph unicode="&#xb4f8;" d="M581 421v-30h-441v336h427v-30h-394v-276h408zM72 150l-7 32q379 2 595 29l4 -26q-237 -35 -592 -35zM727 815h33v-882h-33v882z" />
<glyph unicode="&#xb514;" d="M153 191h34q245 0 428 34l6 -31q-197 -34 -434 -34h-67v566h407v-32h-374v-503zM737 815h33v-883h-33v883z" />
<glyph unicode="&#xb515;" d="M630 430l5 -30q-187 -35 -450 -35h-68v378h411v-30h-378v-318h35q270 0 445 35zM196 203v30h576v-300h-33v270h-543zM739 816h33v-528h-33v528z" />
<glyph unicode="&#xb518;" d="M771 815v-641h-33v641h33zM629 408l5 -30q-187 -35 -450 -35h-68v391h415v-30h-382v-331h35q270 0 445 35zM245 -13h558v-30h-591v268h33v-238z" />
<glyph unicode="&#xb51b;" d="M772 815v-512h-33v512h33zM630 448l5 -30q-187 -35 -450 -35h-68v366h411v-30h-378v-306h35q270 0 445 35zM252 -22h549v-30h-582v305h561v-30h-528v-245z" />
<glyph unicode="&#xb51c;" d="M771 816v-454h-33v454h33zM630 484l5 -30q-187 -35 -449 -35h-69v341h415v-30h-382v-281h36q269 0 444 35zM254 -28h554v-30h-586v203h517v133h-520v30h552v-193h-517v-143z" />
<glyph unicode="&#xb524;" d="M630 455l5 -30q-187 -35 -450 -35h-68v359h411v-30h-378v-299h35q270 0 445 35zM252 223v-244h488v244h-488zM220 -51v303h552v-303h-552zM739 815h33v-512h-33v512z" />
<glyph unicode="&#xb525;" d="M630 465l6 -29q-188 -35 -450 -35h-69v355h411v-30h-378v-295h36q268 0 444 34zM740 -23v148h-484v-148h484zM740 155v142h32v-350h-549v350h33v-142h484zM739 816h33v-473h-33v473z" />
<glyph unicode="&#xb527;" d="M772 816v-596h-33v596h33zM630 426l6 -30q-188 -35 -450 -35h-69v376h415v-30h-382v-316h36q269 0 444 35zM517 291v-47q0 -56 30.5 -105.5t79 -83.5t99.5 -57t101 -34l-17 -27q-102 27 -191 86t-119 147q-16 -46 -51 -86.5t-80.5 -68.5t-91 -47t-92.5 -31l-16 27 q51 11 102.5 33.5t100.5 56.5t80 84t31 106v47h34z" />
<glyph unicode="&#xb528;" d="M772 815v-522h-33v522h33zM630 449l6 -30q-188 -35 -451 -35h-68v365h415v-30h-382v-305h35q270 0 445 35zM664 278v-81q0 -69 55 -134t136 -94l-18 -27q-67 26 -117.5 75t-70.5 108q-20 -59 -63 -110.5t-103 -79.5q-64 26 -107 76t-60 112q-23 -56 -73 -105t-114 -76 l-18 27q80 31 135.5 97.5t55.5 130.5v81h31v-81q0 -67 40.5 -130t108.5 -96q67 36 109 102.5t42 123.5v81h31z" />
<glyph unicode="&#xb529;" d="M772 816v-560h-33v560h33zM630 442l5 -30q-187 -35 -450 -35h-68v366h411v-30h-378v-306h35q270 0 445 35zM485 -35q115 0 186 37t71 98q0 60 -71 97t-186 37t-186 -37t-71 -97q0 -61 71 -98t186 -37zM485 263q135 0 212.5 -43.5t77.5 -119.5q0 -77 -77.5 -120.5 t-212.5 -43.5t-212.5 43.5t-77.5 120.5q0 76 77.5 119.5t212.5 43.5z" />
<glyph unicode="&#xb52a;" d="M772 814v-517h-33v517h33zM630 453l6 -31q-193 -36 -450 -36h-69v363h415v-30h-382v-301h36q269 0 444 35zM517 215v-8q0 -58 51.5 -112t117 -85.5t130.5 -45.5l-15 -28q-95 22 -182.5 76.5t-118.5 128.5q-21 -50 -72.5 -94t-108.5 -70t-116 -41l-16 28q47 10 97 31.5 t96 52t75 73t29 86.5v8h-266v30h564v-30h-265z" />
<glyph unicode="&#xb530;" d="M127 689v-479q104 0 199 23l6 -30q-98 -23 -205 -23h-33v539h219v-30h-186zM400 210h6q136 0 235 25l6 -30q-106 -25 -241 -25h-39v539h231v-30h-198v-479zM887 452v-30h-152v-489h-33v883h33v-364h152z" />
<glyph unicode="&#xb531;" d="M649 428l5 -30q-103 -23 -239 -23h-39v370h231v-30h-198v-310h6q132 0 234 23zM337 429l6 -31q-97 -23 -205 -23h-34v370h211v-30h-178v-310h1q104 0 199 24zM189 209v30h556v-308h-33v278h-523zM878 564v-30h-133v-250h-33v532h33v-252h133z" />
<glyph unicode="&#xb534;" d="M649 392l5 -30q-103 -23 -239 -23h-39v387h231v-30h-198v-327h6q132 0 234 23zM337 390l7 -31q-98 -23 -206 -23h-34v390h211v-30h-178v-330h1q104 0 199 24zM247 222v-235h535v-30h-568v265h33zM745 534h133v-30h-133v-333h-33v645h33v-282z" />
<glyph unicode="&#xb538;" d="M649 473l5 -30q-103 -23 -239 -23h-39v335h231v-30h-198v-275h6q132 0 234 23zM337 470l7 -31q-98 -23 -206 -23h-34v339h215v-30h-182v-279h1q104 0 199 24zM232 115v-138h549v-30h-581v198h513v128h-516v30h548v-188h-513zM745 604h133v-30h-133v-226h-33v468h33v-212z " />
<glyph unicode="&#xb540;" d="M649 430l5 -30q-103 -23 -239 -23h-39v368h231v-30h-198v-308h6q132 0 234 23zM337 431l6 -31q-98 -23 -205 -23h-34v368h211v-30h-178v-308h1q103 0 199 24zM236 221v-244h477v244h-477zM204 -53v303h541v-303h-541zM878 579v-30h-133v-247h-33v513h33v-236h133z" />
<glyph unicode="&#xb541;" d="M651 441l5 -30q-104 -23 -241 -23h-39v357h230v-30h-197v-297h6q131 0 236 23zM345 438l6 -30q-105 -24 -212 -24h-35v361h211v-30h-178v-301h1q110 0 207 24zM711 -22v147h-480v-147h480zM711 156v142h33v-351h-546v351h33v-142h480zM877 588v-31h-133v-219h-34v477h34 v-227h133z" />
<glyph unicode="&#xb543;" d="M649 407l6 -30q-104 -23 -240 -23h-39v379h231v-30h-198v-319h6q132 0 234 23zM337 405l6 -31q-97 -23 -205 -23h-34v382h211v-30h-178v-322h1q104 0 199 24zM502 277v-39q0 -56 31.5 -105t81 -82t101.5 -54.5t103 -31.5l-15 -28q-66 16 -126 42.5t-116 76.5t-77 111 q-31 -89 -123 -146.5t-197 -83.5l-16 28q51 10 103 31.5t102 54.5t81.5 82t31.5 105v39h35zM745 549h133v-30h-133v-306h-33v604h33v-268z" />
<glyph unicode="&#xb544;" d="M650 430l5 -30q-104 -23 -240 -23h-39v368h231v-30h-198v-308h6q131 0 235 23zM337 427l7 -31q-98 -23 -206 -23h-34v372h211v-30h-178v-312h1q104 0 199 24zM670 276v-78q0 -68 55 -133t135 -94l-17 -27q-66 25 -117 74.5t-71 108.5q-20 -59 -62.5 -110.5t-102.5 -79.5 q-64 26 -107 76t-59 112q-23 -57 -73 -106t-114 -75l-17 27q78 30 134 97t56 130v78h31v-78q0 -67 39.5 -129.5t108.5 -96.5q66 36 108 103t42 123v78h31zM745 579h133v-30h-133v-243h-33v509h33v-236z" />
<glyph unicode="&#xb545;" d="M649 423l5 -30q-103 -23 -239 -23h-39v368h231v-30h-198v-308h6q132 0 234 23zM337 420l6 -31q-97 -23 -205 -23h-34v372h211v-30h-178v-312h1q104 0 199 24zM472 -35q112 0 181 37t69 98q0 60 -69 97t-181 37t-180.5 -37t-68.5 -97q0 -61 68.5 -98t180.5 -37zM472 263 q132 0 207 -43.5t75 -119.5q0 -77 -75 -120.5t-207 -43.5q-131 0 -206 43.5t-75 120.5q0 76 75 119.5t206 43.5zM745 564h133v-30h-133v-256h-33v537h33v-251z" />
<glyph unicode="&#xb54b;" d="M649 484l6 -30q-104 -23 -240 -23h-39v332h231v-30h-198v-272h6q132 0 234 23zM337 482l7 -31q-98 -23 -206 -23h-34v335h211v-30h-178v-275h1q104 0 199 24zM480 -39q94 0 150.5 26.5t56.5 72.5q0 45 -56.5 72t-150.5 27q-93 0 -149.5 -27t-56.5 -72t56 -72t150 -27z M480 187q112 0 175.5 -33.5t63.5 -93.5q0 -61 -63.5 -94t-175.5 -33q-111 0 -174.5 33t-63.5 94q0 60 63.5 93.5t174.5 33.5zM497 377v-100h287v-30h-609v30h289v100h33zM745 612h133v-30h-133v-230h-33v464h33v-204z" />
<glyph unicode="&#xb54c;" d="M130 669v-459q89 0 170 21l6 -31q-83 -20 -179 -20h-30v519h192v-30h-159zM365 669v-459q112 0 189 26l7 -31q-82 -25 -197 -25h-32v519h196v-30h-163zM777 816h33v-883h-33v474h-145v-426h-33v810h33v-354h145v379z" />
<glyph unicode="&#xb54d;" d="M546 416l7 -30q-81 -21 -190 -21h-31v377h192v-30h-159v-317q104 0 181 21zM295 415l7 -30q-82 -20 -176 -20h-29v377h184v-30h-151v-317q91 0 165 20zM206 205v30h599v-300h-33v270h-566zM772 816h33v-527h-33v256h-140v-246h-33v500h33v-224h140v241z" />
<glyph unicode="&#xb550;" d="M632 515v-325h-33v609h33v-254h140v271h33v-659h-33v358h-140zM546 396l7 -30q-81 -21 -190 -21h-31v379h192v-30h-159v-319q104 0 181 21zM295 395l7 -30q-82 -20 -176 -20h-29v379h184v-30h-151v-319q91 0 165 20zM271 -13h563v-30h-596v280h33v-250z" />
<glyph unicode="&#xb554;" d="M632 573v-210h-33v435h33v-195h140v213h33v-463h-33v220h-140zM546 455l7 -30q-81 -21 -190 -21h-31v357h192v-30h-159v-297q104 0 181 21zM295 454l7 -30q-82 -20 -176 -20h-29v357h184v-30h-151v-297q91 0 165 20zM268 -23h577v-30h-609v197h537v125h-540v30h572v-185 h-537v-137z" />
<glyph unicode="&#xb55c;" d="M546 434l7 -30q-81 -21 -190 -21h-31v366h192v-30h-159v-306q104 0 181 21zM295 433l7 -30q-82 -20 -176 -20h-29v366h184v-30h-151v-306q90 0 165 20zM265 226v-248h507v248h-507zM233 -52v307h572v-307h-572zM772 816h33v-513h-33v244h-140v-239h-33v491h33v-222h140 v239z" />
<glyph unicode="&#xb55d;" d="M546 442l7 -30q-81 -21 -190 -21h-31v363h192v-30h-159v-303q104 0 181 21zM295 441l7 -30q-82 -20 -176 -20h-29v363h184v-30h-151v-303q91 0 165 20zM772 -24v152h-503v-152h503zM772 158v131h33v-343h-569v343h33v-131h503zM772 815h33v-481h-33v228h-140v-222h-33 v458h33v-206h140v223z" />
<glyph unicode="&#xb55f;" d="M632 527v-242h-33v513h33v-241h140v259h33v-601h-33v312h-140zM546 409l7 -30q-81 -21 -190 -21h-31v374h192v-30h-159v-314q104 0 181 21zM295 408l7 -30q-82 -20 -176 -20h-29v374h184v-30h-151v-314q91 0 165 20zM529 263v-43q0 -50 32.5 -95.5t83 -77t102.5 -53 t100 -30.5l-14 -27q-101 22 -195.5 79t-125.5 138q-31 -81 -125 -138t-195 -79l-14 27q48 9 100 30.5t102 53t82.5 77t32.5 95.5v43h34z" />
<glyph unicode="&#xb560;" d="M632 549v-242h-33v492h33v-220h140v237h33v-518h-33v251h-140zM546 416l7 -30q-81 -21 -190 -21h-31v377h192v-30h-159v-317q104 0 181 21zM295 415l7 -30q-82 -20 -176 -20h-29v377h184v-30h-151v-317q91 0 165 20zM684 262v-64q0 -68 55 -133t136 -95l-17 -27 q-68 26 -118.5 75t-70.5 108q-20 -59 -63 -110.5t-102 -78.5q-64 25 -107 75t-60 112q-23 -57 -73 -105.5t-115 -75.5l-17 27q80 31 135.5 97.5t55.5 130.5v64h31v-64q0 -67 40.5 -130t108.5 -96q67 37 108.5 103t41.5 123v64h31z" />
<glyph unicode="&#xb561;" d="M631 530v-231h-32v500h32v-238h141v255h33v-546h-33v260h-141zM546 426l7 -30q-81 -21 -190 -21h-31v367h192v-30h-160v-307q105 0 182 21zM302 422l8 -31q-84 -20 -183 -20h-30v371h188v-30h-155v-311q90 0 172 21zM510 -34q120 0 193.5 36t73.5 95q0 60 -73 95.5 t-194 35.5t-194 -35.5t-73 -95.5q0 -59 73 -95t194 -36zM510 257q141 0 220.5 -42t79.5 -118t-79.5 -118t-220.5 -42t-220.5 42t-79.5 118t79 118t221 42z" />
<glyph unicode="&#xb5a0;" d="M126 689v-490q100 0 185 22l7 -30q-93 -22 -193 -22h-32v550h207v-30h-174zM389 199h7q142 0 244 26l6 -30q-107 -26 -250 -26h-40v550h238v-30h-205v-490zM748 816h33v-883h-33v514h-205v30h205v339z" />
<glyph unicode="&#xb5a1;" d="M650 413l6 -30q-113 -24 -253 -24h-41v386h242v-30h-209v-326h8q140 0 247 24zM319 412l7 -31q-96 -22 -200 -22h-33v386h215v-30h-182v-326q100 0 193 23zM198 202v30h584v-300h-33v270h-551zM749 816h33v-536h-33v269h-202v30h202v237z" />
<glyph unicode="&#xb5a4;" d="M547 563h202v252h33v-645h-33v363h-202v30zM650 385l6 -30q-113 -24 -253 -24h-41v405h242v-30h-209v-345h8q140 0 247 24zM323 384l6 -30q-97 -23 -203 -23h-33v405h215v-30h-182v-345q103 0 197 23zM250 -13h554v-30h-587v265h33v-235z" />
<glyph unicode="&#xb5a8;" d="M547 609h202v206h33v-463h-33v227h-202v30zM650 459l6 -30q-113 -24 -253 -24h-41v349h242v-30h-209v-289h8q140 0 247 24zM319 458l7 -31q-95 -22 -200 -22h-33v349h212v-30h-179v-289q101 0 193 23zM253 -23h568v-30h-600v197h529v125h-532v30h564v-185h-529v-137z" />
<glyph unicode="&#xb5aa;" d="M650 459l6 -30q-113 -24 -253 -24h-41v349h242v-30h-209v-289h8q140 0 247 24zM319 458l6 -31q-95 -22 -199 -22h-33v349h211v-30h-178v-289q100 0 193 23zM214 -22h9q160 0 254 17l5 -30q-97 -18 -259 -18h-41v205h238v121h-241v30h273v-181h-238v-144zM549 274v-298 h201v298h-201zM517 -53v356h265v-356h-265zM749 815h33v-462h-33v226h-203v30h203v206z" />
<glyph unicode="&#xb5ab;" d="M650 459l6 -30q-112 -24 -253 -24h-41v349h243v-30h-210v-289h8q141 0 247 24zM319 458l6 -31q-95 -22 -199 -22h-33v349h211v-30h-178v-289q100 0 193 23zM213 -23h9q160 0 255 17l5 -30q-94 -17 -260 -17h-41v199h238v118h-241v30h273v-178h-238v-139zM749 -23v160 h-200v-160h200zM749 167v137h33v-357h-266v357h33v-137h200zM749 815h33v-463h-33v227h-202v30h202v206z" />
<glyph unicode="&#xb5b0;" d="M650 420l6 -30q-113 -24 -253 -24h-41v381h242v-30h-209v-321h8q140 0 247 24zM319 415l7 -31q-95 -22 -200 -22h-33v385h212v-30h-179v-325q101 0 193 23zM254 222v-244h496v244h-496zM222 -52v303h560v-303h-560zM749 816h33v-510h-33v249h-202v30h202v231z" />
<glyph unicode="&#xb5b1;" d="M650 437l6 -30q-113 -24 -253 -24h-41v371h242v-30h-209v-311h8q140 0 247 24zM319 432l7 -31q-95 -22 -200 -22h-33v375h216v-30h-183v-315q101 0 193 23zM750 -23v151h-492v-151h492zM750 158v139h32v-350h-557v350h33v-139h492zM749 815h33v-473h-33v225h-202v30h202 v218z" />
<glyph unicode="&#xb5b3;" d="M547 574h202v242h33v-619h-33v347h-202v30zM650 410l6 -30q-113 -24 -253 -24h-41v389h242v-30h-209v-329h8q140 0 247 24zM319 409l7 -31q-96 -22 -200 -22h-33v389h215v-30h-182v-329q100 0 193 23zM518 283v-52q0 -54 31 -102t80.5 -80t101.5 -53.5t103 -31.5l-16 -28 q-65 15 -124.5 41.5t-115.5 74.5t-77 108q-21 -60 -77 -108t-115.5 -74.5t-124.5 -41.5l-16 28q51 10 103 31.5t101.5 53.5t80.5 80t31 102v52h34z" />
<glyph unicode="&#xb5b4;" d="M546 576h203v240h33v-514h-33v244h-203v30zM650 410l6 -30q-113 -24 -253 -24h-41v389h242v-30h-210v-329h9q140 0 247 24zM319 406l6 -31q-95 -22 -199 -22h-33v392h215v-30h-182v-332q100 0 193 23zM664 264v-67q0 -68 55 -133t136 -94l-17 -27q-67 25 -118 75t-71 108 q-19 -58 -62 -110t-103 -80q-63 27 -106.5 77.5t-59.5 110.5q-23 -56 -73.5 -105.5t-113.5 -75.5l-18 27q79 30 135 97t56 130v67h31v-67q0 -67 40 -129.5t108 -96.5q67 37 108.5 103.5t41.5 122.5v67h31z" />
<glyph unicode="&#xb5b5;" d="M547 580h201v236h33v-550h-33v284h-201v30zM650 417l6 -30q-113 -24 -253 -24h-41v384h242v-30h-209v-324h8q140 0 247 24zM319 412l7 -31q-96 -22 -200 -22h-33v388h212v-30h-179v-328q100 0 193 23zM501 -35q113 0 183 35t70 93t-70 93t-183 35q-114 0 -184 -35 t-70 -93t70 -93t184 -35zM501 250q134 0 209.5 -41.5t75.5 -115.5t-75.5 -115.5t-209.5 -41.5t-210 41.5t-76 115.5t76 115.5t210 41.5z" />
<glyph unicode="&#xb5bb;" d="M547 619h202v197h33v-468h-33v241h-202v30zM650 472l6 -30q-113 -24 -253 -24h-41v346h242v-30h-209v-286h8q140 0 247 24zM319 471l6 -31q-95 -22 -199 -22h-33v346h211v-30h-178v-286q100 0 193 23zM497 -36q96 0 152 27t56 73t-56 73t-152 27q-97 0 -153 -27t-56 -73 t56 -73t153 -27zM497 192q115 0 177.5 -33t62.5 -95t-62.5 -95t-177.5 -33q-116 0 -178.5 33t-62.5 95t63 95t178 33zM514 278h287v-30h-609v30h289v100h33v-100z" />
<glyph unicode="&#xb5bc;" d="M130 669v-458q90 0 164 20l5 -31q-77 -19 -173 -19h-29v518h177v-30h-144zM356 215q117 0 198 27l7 -31q-89 -26 -205 -26h-33v514h203v-30h-171zM621 473v316h32v-805h-32v459h-166v30h166zM777 816h33v-883h-33v883z" />
<glyph unicode="&#xb5bd;" d="M466 588h156v209h33v-505h-33v266h-156v30zM561 419l7 -30q-96 -24 -212 -24h-34v383h200v-30h-167v-323h1q117 0 205 24zM285 414l5 -30q-73 -19 -165 -19h-28v383h176v-30h-143v-323q85 0 155 19zM213 209v30h592v-308h-33v278h-559zM772 816h33v-531h-33v531z" />
<glyph unicode="&#xb5c0;" d="M805 814v-654h-33v654h33zM467 560h155v234h33v-609h-33v345h-155v30zM561 389l7 -30q-96 -24 -212 -24h-34v394h200v-30h-167v-334h1q117 0 205 24zM285 384l6 -30q-74 -19 -166 -19h-28v394h177v-30h-144v-334q85 0 155 19zM271 -13h563v-30h-596v276h33v-246z" />
<glyph unicode="&#xb5c4;" d="M804 816v-477h-33v477h33zM469 608h154v188h32v-444h-32v225h-154v31zM561 454l6 -30q-96 -24 -211 -24h-34v357h203v-30h-171v-297h2q116 0 205 24zM285 449l6 -30q-74 -19 -166 -19h-28v357h177v-30h-144v-297q85 0 155 19zM263 -23h577v-30h-609v195h541v123h-544v30 h576v-182h-541v-136z" />
<glyph unicode="&#xb5cc;" d="M466 584h156v211h33v-482h-33v241h-156v30zM561 427l7 -30q-96 -24 -212 -24h-34v375h200v-30h-167v-315h1q117 0 205 24zM285 422l6 -30q-74 -19 -166 -19h-28v375h177v-30h-144v-315q85 0 155 19zM265 222v-244h507v244h-507zM233 -52v303h572v-303h-572zM772 816h33 v-518h-33v518z" />
<glyph unicode="&#xb5cd;" d="M466 596h156v198h32v-458h-32v230h-156v30zM561 440l7 -30q-96 -24 -212 -24h-34v366h200v-30h-167v-306h1q117 0 205 24zM285 435l6 -30q-74 -19 -166 -19h-28v366h177v-30h-144v-306q85 0 155 19zM772 -23v150h-503v-150h503zM772 156v130h33v-339h-569v339h33v-130 h503zM772 815h33v-486h-33v486z" />
<glyph unicode="&#xb5cf;" d="M805 816v-601h-33v601h33zM466 573h156v222h33v-500h-33v248h-156v30zM562 398l6 -30q-96 -24 -212 -24h-34v392h200v-30h-167v-332h1q117 0 206 24zM285 393l5 -30q-73 -19 -165 -19h-28v392h176v-30h-143v-332q85 0 155 19zM529 262v-43q0 -65 56.5 -122t126 -88.5 t135.5 -44.5l-14 -27q-101 22 -195.5 79t-125.5 138q-31 -81 -125 -138t-195 -79l-14 27q47 9 99.5 30.5t102.5 53t82.5 77t32.5 94.5v43h34z" />
<glyph unicode="&#xb5d0;" d="M805 816v-519h-33v519h33zM467 582h155v213h33v-482h-33v239h-155v30zM561 409l7 -30q-96 -24 -212 -24h-34v391h200v-30h-167v-331h1q117 0 205 24zM285 404l5 -30q-73 -19 -165 -19h-28v391h176v-30h-143v-331q85 0 155 19zM684 262v-65q0 -68 55 -133t136 -94l-17 -27 q-68 26 -118.5 75t-70.5 107q-20 -59 -63 -110t-103 -79q-63 26 -106.5 76.5t-60.5 111.5q-23 -56 -73 -105t-114 -76l-17 27q79 31 134.5 97.5t55.5 129.5v65h31v-65q0 -67 40.5 -129.5t108.5 -95.5q67 37 109 102.5t42 122.5v65h31z" />
<glyph unicode="&#xb5d1;" d="M805 816v-554h-33v554h33zM467 579h155v216h32v-500h-32v253h-155v31zM562 413l6 -30q-96 -24 -211 -24h-34v384h199v-30h-167v-324h2q116 0 205 24zM291 409l6 -31q-77 -19 -172 -19h-28v384h177v-30h-144v-324q89 0 161 20zM510 -34q120 0 193.5 35t73.5 93t-73.5 93 t-193.5 35t-193.5 -35t-73.5 -93t73.5 -93t193.5 -35zM510 251q141 0 220.5 -41t79.5 -116t-79.5 -116t-220.5 -41t-220.5 41t-79.5 116t79.5 116t220.5 41z" />
<glyph unicode="&#xb5d8;" d="M126 689v-497q100 0 193 23l7 -31q-96 -22 -200 -22h-33v557h219v-30h-186zM398 192h7q137 0 237 25l6 -30q-106 -25 -243 -25h-39v557h230v-30h-198v-497zM748 816h33v-884h-33v410h-199v30h199v177h-199v30h199v237z" />
<glyph unicode="&#xb5ec;" d="M562 639h187v177h33v-523h-33v180h-187v30h187v106h-187v30zM650 399l6 -30q-113 -24 -253 -24h-41v400h242v-30h-209v-340h8q140 0 247 24zM319 398l6 -31q-95 -22 -199 -22h-33v400h215v-30h-182v-340q100 0 193 23zM664 263v-66q0 -68 55 -133.5t136 -94.5l-17 -26 q-67 25 -118 74.5t-71 108.5q-20 -59 -62.5 -110.5t-102.5 -79.5q-63 26 -106.5 76.5t-59.5 111.5q-23 -57 -73 -106t-114 -75l-18 26q79 31 135 98t56 130v66h31v-66q0 -67 40 -129.5t108 -97.5q67 37 108.5 104t41.5 123v66h31z" />
<glyph unicode="&#xb610;" d="M790 376v-30h-317v377h304v-30h-271v-317h284zM431 405l7 -30q-121 -29 -260 -29h-42v375h284v-30h-251v-315h8q141 0 254 29zM474 87h386v-30h-802v30h383v209h33v-209z" />
<glyph unicode="&#xb611;" d="M783 534v-30h-299v274h292v-30h-259v-214h266zM447 564l6 -30q-128 -30 -273 -30h-44v274h292v-30h-259v-214h11q145 0 267 30zM148 170v30h607v-277h-33v247h-574zM475 349h381v-30h-797v30h383v126h33v-126z" />
<glyph unicode="&#xb614;" d="M783 528v-30h-299v275h292v-30h-259v-215h266zM448 556l5 -31q-130 -27 -273 -27h-44v275h292v-30h-259v-215h11q144 0 268 28zM202 209v-222h568v-30h-601v252h33zM475 336h381v-30h-796v30h382v131h33v-131z" />
<glyph unicode="&#xb618;" d="M783 564v-30h-299v245h292v-30h-259v-185h266zM447 594l6 -30q-128 -30 -273 -30h-44v245h292v-30h-259v-185h11q145 0 267 30zM196 104v-126h582v-30h-614v185h552v111h-555v29h587v-169h-552zM475 402h381v-30h-797v30h383v103h33v-103z" />
<glyph unicode="&#xb625;" d="M783 530v-30h-299v271h292v-30h-259v-211h266zM448 561l7 -31q-130 -30 -275 -30h-44v271h292v-30h-259v-211h11q146 0 268 31zM458 -36q120 0 192.5 33.5t72.5 90.5t-72.5 90.5t-192.5 33.5t-192.5 -33.5t-72.5 -90.5t72.5 -90.5t192.5 -33.5zM458 241q141 0 219.5 -40 t78.5 -113t-78.5 -113t-219.5 -40t-219.5 40t-78.5 113t78.5 113t219.5 40zM474 361h386v-30h-802v30h383v113h33v-113z" />
<glyph unicode="&#xb62c;" d="M607 430v-30h-240v324h227v-30h-194v-264h207zM325 450l6 -30q-91 -20 -200 -20h-33v324h219v-30h-186v-264q110 0 194 20zM357 353v-187q174 7 283 23l3 -27q-229 -35 -589 -35l-6 32q155 0 276 5v189h33zM882 433v-30h-146v-470h-33v883h33v-383h146z" />
<glyph unicode="&#xb634;" d="M592 559v-30h-240v233h227v-30h-194v-173h207zM319 582l6 -30q-84 -23 -198 -23h-32v233h207v-30h-174v-173q111 0 191 23zM625 434l3 -25q-224 -38 -570 -38l-6 31q118 0 256 6v99h33v-98q157 6 284 25zM206 111v-134h563v-30h-595v193h525v122h-528v30h560v-181h-525z M732 591h138v-30h-138v-222h-33v477h33v-225z" />
<glyph unicode="&#xb648;" d="M531 438v-30h-208v315h196v-30h-163v-255h175zM288 458l7 -32q-82 -22 -172 -22h-28v319h184v-30h-151v-259q85 0 160 24zM315 369v-171q147 7 229 18l2 -26q-188 -29 -487 -29l-7 32q119 0 230 4v172h33zM771 816h33v-884h-33v480h-143v-431h-33v811h33v-350h143v374z " />
<glyph unicode="&#xb664;" d="M632 424v-30h-244v330h234v-30h-201v-270h211zM353 446l6 -31q-95 -21 -213 -21h-35v330h227v-30h-194v-270h2q115 0 207 22zM383 365v-188q171 7 297 24l3 -26q-224 -36 -616 -36l-7 32q187 0 290 4v190h33zM746 816h33v-883h-33v883z" />
<glyph unicode="&#xb668;" d="M778 814v-656h-33v656h33zM620 505v-30h-244v274h235v-30h-202v-214h211zM340 528l6 -30q-89 -23 -199 -23h-33v274h215v-30h-182v-214q106 0 193 23zM662 348l3 -27q-224 -36 -601 -36l-7 32q164 0 294 5v128h33v-127q169 9 278 25zM248 -23h558v-30h-591v252h33v-222z " />
<glyph unicode="&#xb69c;" d="M793 462v-30h-309v332h296v-30h-263v-272h276zM444 489l6 -30q-130 -27 -271 -27h-43v330h293v-30h-260v-270h10q142 0 265 27zM859 302v-30h-385v-339h-33v339h-384v30h802z" />
<glyph unicode="&#xb69d;" d="M783 524v-30h-299v289h292v-30h-259v-229h266zM443 554l6 -30q-127 -30 -270 -30h-43v289h292v-30h-259v-229h10q143 0 264 30zM856 358h-381v-144h280v-281h-33v251h-574v30h294v144h-383v30h797v-30z" />
<glyph unicode="&#xb6a0;" d="M788 504v-30h-304v296h292v-30h-259v-236h271zM443 534l6 -30q-127 -30 -270 -30h-43v296h292v-30h-259v-236h10q143 0 264 30zM202 210v-223h567v-30h-600v253h33zM60 359h796v-30h-376v-207h-33v207h-387v30z" />
<glyph unicode="&#xb6a4;" d="M787 547v-30h-303v263h292v-30h-259v-203h270zM448 578l7 -31q-130 -30 -275 -30h-44v263h292v-30h-259v-203h11q146 0 268 31zM856 393h-382v-120h274v-169h-552v-126h582v-30h-614v185h552v111h-555v29h281v120h-383v30h797v-30z" />
<glyph unicode="&#xb6ab;" d="M787 555l1 -30h-304v254h292v-30h-259v-194h270zM448 586l7 -31q-130 -30 -275 -30h-44v254h292v-30h-259v-194h11q146 0 268 31zM184 -23h11q170 0 268 18l6 -30q-103 -18 -274 -18h-43v188h233v113h-236v30h268v-173h-233v-128zM631 -35q50 0 80 24t30 63t-30 63 t-80 24q-49 0 -78.5 -24t-29.5 -63t29.5 -63t78.5 -24zM631 167q62 0 101.5 -31t39.5 -84q0 -52 -39.5 -83.5t-101.5 -31.5q-61 0 -100 31.5t-39 83.5q0 53 39 84t100 31zM647 323v-88h167v-30h-362v30h162v88h33zM60 442h796v-30h-381v-129h-33v129h-382v30z" />
<glyph unicode="&#xb6ac;" d="M788 530v-30h-304v282h292v-30h-259v-222h271zM448 561l7 -31q-130 -30 -275 -30h-44v282h292v-30h-259v-222h11q146 0 268 31zM724 -21v225h-530v-225h530zM856 366h-381v-133h281v-284h-594v284h280v133h-383v30h797v-30z" />
<glyph unicode="&#xb6b1;" d="M788 527v-30h-304v274h292v-30h-259v-214h271zM448 558l7 -31q-130 -30 -275 -30h-44v274h292v-30h-259v-214h11q146 0 268 31zM723 88q0 57 -72.5 90.5t-192.5 33.5t-192.5 -33.5t-72.5 -90.5t72.5 -90.5t192.5 -33.5t192.5 33.5t72.5 90.5zM856 368h-381v-127 q133 -2 207 -42t74 -111q0 -73 -78.5 -113t-219.5 -40t-219.5 40t-78.5 113q0 71 74 111t208 42v127h-383v30h797v-30z" />
<glyph unicode="&#xb6d4;" d="M525 481v-30h-203v287h195v-31h-163v-226h171zM293 503l4 -31q-74 -21 -179 -21h-30v287h192v-31h-160v-226q102 0 173 22zM556 370l2 -27q-100 -18 -246 -27v-308h-33v306q-104 -5 -227 -5l-7 32q333 0 511 29zM613 231v560h33v-805h-33v215h-194v30h194zM766 816h33 v-883h-33v883z" />
<glyph unicode="&#xb6f0;" d="M629 472v-30h-235v304h226v-30h-193v-244h202zM353 493l6 -30q-91 -21 -206 -21h-34v304h222v-30h-189v-244h1q110 0 200 21zM679 333l3 -27q-140 -19 -299 -25v-319h-33v318q-104 -5 -293 -5l-7 32q400 0 629 26zM744 815h33v-883h-33v883z" />
<glyph unicode="&#xb6f4;" d="M778 816v-674h-33v674h33zM633 506v-30h-240v281h227v-30h-194v-221h207zM356 528l5 -31q-91 -21 -200 -21h-33v281h216v-30h-183v-221q109 0 195 22zM369 165v174q-135 -5 -304 -5l-7 32q389 0 612 23l4 -27q-126 -16 -272 -22v-175h-33zM233 -13h576v-30h-609v250h33 v-220z" />
<glyph unicode="&#xb6f8;" d="M778 814v-467h-33v467h33zM631 567v-30h-244v241h230v-31h-198v-180h212zM350 589l5 -31q-91 -21 -199 -21h-33v241h215v-31h-183v-180h1q108 0 194 22zM230 -23h586v-30h-618v195h548v122h-551v30h158v122q-103 -3 -287 -3l-6 32q407 0 614 23l4 -27q-130 -16 -292 -23 v-124h392v-182h-548v-135z" />
<glyph unicode="&#xb700;" d="M631 529v-30h-244v267h230v-30h-197v-207h211zM350 551l5 -31q-91 -21 -199 -21h-33v267h215v-30h-182v-207q108 0 194 22zM745 -23v213h-507v-213h507zM384 377v-158h394v-272h-572v272h145v157q-135 -4 -285 -4l-6 32q377 0 614 22l4 -27q-110 -13 -294 -22zM745 815 h33v-536h-33v536z" />
<glyph unicode="&#xb701;" d="M636 551v-30h-249v248h234v-31h-202v-187h217zM353 569l6 -30q-93 -22 -203 -22h-33v252h215v-31h-183v-191h1q106 0 197 22zM360 242v152q-131 -5 -295 -5l-6 34q377 0 613 22l4 -28q-136 -15 -284 -21v-154h-32zM744 -23v144h-503v-144h503zM744 152v123h33v-328h-569 v328h33v-123h503zM745 815h33v-504h-33v504z" />
<glyph unicode="&#xb705;" d="M778 816v-568h-33v568h33zM631 524v-30h-244v267h230v-30h-197v-207h211zM350 546l5 -31q-91 -21 -199 -21h-33v267h215v-30h-182v-207q108 0 194 22zM497 -34q115 0 184.5 34t69.5 90t-69.5 90t-184.5 34t-184 -34t-69 -90t69 -90t184 -34zM384 372v-138q51 9 113 9 q135 0 210.5 -40t75.5 -113t-75.5 -113t-210.5 -40q-134 0 -209.5 40.5t-75.5 112.5q0 100 139 137v144q-133 -4 -285 -4l-6 32q378 0 614 22l4 -27q-110 -13 -294 -22z" />
<glyph unicode="&#xb728;" d="M790 361v-30h-317v383h304v-30h-271v-323h284zM431 390l7 -30q-121 -29 -260 -29h-42v381h284v-30h-251v-321h8q141 0 254 29zM58 96h801v-30h-801v30z" />
<glyph unicode="&#xb729;" d="M783 518v-30h-299v293h292v-30h-259v-233h266zM443 548l6 -30q-127 -30 -270 -30h-43v293h292v-30h-259v-233h10q143 0 264 30zM148 195v30h607v-292h-33v262h-574zM59 379h797v-30h-797v30z" />
<glyph unicode="&#xb72c;" d="M783 498v-30h-299v299h292v-30h-259v-239h266zM443 528l6 -30q-127 -30 -270 -30h-43v299h292v-30h-259v-239h10q143 0 264 30zM202 211v-224h568v-30h-601v254h33zM60 347h796v-30h-796v30z" />
<glyph unicode="&#xb72f;" d="M783 524v-30h-299v289h292v-30h-259v-229h266zM443 554l6 -30q-127 -30 -270 -30h-43v289h292v-30h-259v-229h10q143 0 264 30zM195 195v-218h569v-30h-601v278h592v-30h-560zM59 385h797v-30h-797v30z" />
<glyph unicode="&#xb730;" d="M787 543v-30h-303v263h292v-30h-259v-203h270zM448 574l7 -31q-130 -30 -275 -30h-44v263h292v-30h-259v-203h11q146 0 268 31zM196 104v-126h582v-30h-614v185h552v111h-555v29h587v-169h-552zM59 413h797v-30h-797v30z" />
<glyph unicode="&#xb738;" d="M788 523v-30h-304v285h292v-30h-259v-225h271zM448 554l7 -31q-130 -30 -275 -30h-44v285h292v-30h-259v-225h11q146 0 268 31zM194 202v-225h530v225h-530zM162 -53v284h594v-284h-594zM59 384h797v-30h-797v30z" />
<glyph unicode="&#xb739;" d="M787 527v-30h-303v284h292v-30h-259v-224h270zM449 558l6 -31q-130 -30 -275 -30h-44v284h292v-30h-259v-224h11q146 0 269 31zM715 -23v151h-510v-151h510zM715 158v125h33v-336h-576v336h33v-125h510zM60 394h796v-30h-796v30z" />
<glyph unicode="&#xb73b;" d="M788 513v-30h-304v290h292v-30h-259v-230h271zM448 544l7 -31q-130 -30 -275 -30h-44v290h292v-30h-259v-230h11q146 0 268 31zM475 256v-40q0 -51 30.5 -96t79 -75.5t100 -50.5t101.5 -29l-15 -28q-64 14 -124 39t-114.5 71t-74.5 101q-21 -55 -75.5 -101t-114 -71 t-123.5 -39l-16 28q51 9 102.5 29t100 50.5t79 75.5t30.5 96v40h34zM59 377h797v-30h-797v30z" />
<glyph unicode="&#xb744;" d="M632 421v-30h-244v328h234v-30h-201v-268h211zM353 443l6 -31q-95 -21 -213 -21h-35v328h227v-30h-194v-268h2q115 0 207 22zM67 153l-7 32q398 0 620 30l3 -26q-229 -36 -616 -36zM746 816h33v-883h-33v883z" />
<glyph unicode="&#xb748;" d="M778 814v-664h-33v664h33zM630 497v-30h-244v282h234v-30h-201v-222h211zM350 520l6 -30q-89 -23 -199 -23h-33v282h215v-30h-182v-222q106 0 193 23zM666 372l3 -26q-225 -37 -605 -37l-6 32q393 0 608 31zM258 -13h549v-30h-582v248h33v-218z" />
<glyph unicode="&#xb74c;" d="M778 815v-468h-33v468h33zM636 562v-30h-249v248h234v-30h-201v-188h216zM350 584l5 -31q-91 -21 -199 -21h-33v248h215v-30h-182v-188q108 0 194 22zM670 454l4 -26q-231 -25 -608 -25l-6 32q383 0 610 19zM230 -23h586v-30h-618v196h548v122h-551v30h583v-182h-548 v-136z" />
<glyph unicode="&#xb754;" d="M636 530v-30h-249v272h234v-30h-201v-212h216zM353 552l6 -30q-93 -22 -203 -22h-33v272h215v-30h-182v-212q106 0 197 22zM670 418l4 -27q-226 -37 -609 -37l-6 32q394 0 611 32zM234 202v-225h511v225h-511zM202 -53v284h575v-284h-575zM744 815h33v-536h-33v536z" />
<glyph unicode="&#xb755;" d="M636 537v-30h-249v266h234v-30h-201v-206h216zM353 559l6 -30q-93 -22 -203 -22h-33v266h215v-30h-182v-206q106 0 197 22zM670 433l4 -26q-226 -37 -609 -37l-6 32q394 0 611 31zM745 -23v144h-503v-144h503zM745 151v124h33v-328h-569v328h33v-124h503zM745 814h33 v-494h-33v494z" />
<glyph unicode="&#xb760;" d="M133 202h4q112 0 219 26l7 -30q-112 -26 -226 -26h-37v550h238v-31h-205v-489zM432 202h9q141 0 248 27l7 -30q-109 -27 -255 -27h-41v550h242v-31h-210v-489zM748 816h33v-883h-33v883z" />
<glyph unicode="&#xb764;" d="M781 814v-640h-33v640h33zM675 406l6 -30q-112 -24 -248 -24h-40v377h238v-30h-205v-317h7q137 0 242 24zM345 407l7 -30q-110 -25 -220 -25h-36v377h238v-30h-205v-317h3q107 0 213 25zM267 -13h554v-30h-587v271h33v-241z" />
<glyph unicode="&#xb768;" d="M781 816v-450h-33v450h33zM677 477l6 -30q-101 -20 -250 -20h-40v329h242v-30h-209v-269h7q148 0 244 20zM346 483l6 -31q-109 -25 -220 -25h-36v329h238v-30h-205v-269h3q109 0 214 26zM244 -23h577v-30h-609v204h537v131h-540v30h572v-191h-537v-144z" />
<glyph unicode="&#xb770;" d="M676 453l6 -30q-112 -24 -248 -24h-40v344h238v-30h-205v-284h7q137 0 242 24zM345 454l7 -30q-109 -25 -220 -25h-36v344h238v-30h-205v-284h3q108 0 213 25zM246 225v-248h503v248h-503zM214 -53v307h568v-307h-568zM749 816h33v-500h-33v500z" />
<glyph unicode="&#xb771;" d="M676 464l6 -30q-112 -24 -248 -24h-40v340h238v-30h-206v-280h8q137 0 242 24zM358 463l7 -31q-118 -26 -232 -26h-37v344h238v-30h-205v-284h4q117 0 225 27zM749 -23v154h-499v-154h499zM749 161v147h33v-361h-565v361h33v-147h499zM749 815h33v-458h-33v458z" />
<glyph unicode="&#xb773;" d="M782 816v-601h-33v601h33zM676 426l6 -30q-112 -24 -248 -24h-40v376h238v-30h-205v-316h7q137 0 242 24zM345 423l7 -30q-109 -25 -220 -25h-36v380h238v-30h-205v-320h3q108 0 213 25zM518 284v-51q0 -54 31 -102t80.5 -80t101.5 -53.5t103 -31.5l-16 -28 q-65 15 -124.5 41.5t-115.5 74.5t-77 108q-21 -60 -77 -108t-115.5 -74.5t-124.5 -41.5l-16 28q51 10 103 31.5t101.5 53.5t80.5 80t31 102v51h34z" />
<glyph unicode="&#xb775;" d="M782 816v-541h-33v541h33zM676 433l6 -30q-112 -24 -248 -24h-40v360h238v-30h-205v-300h7q137 0 242 24zM345 430l7 -30q-109 -25 -220 -25h-36v364h238v-30h-205v-304h3q108 0 213 25zM501 -36q113 0 183 37t70 98t-70 98t-183 37q-114 0 -184 -37t-70 -98t70 -98 t184 -37zM501 263q133 0 209 -43.5t76 -120.5t-76 -120.5t-209 -43.5q-134 0 -210 43.5t-76 120.5t76 120.5t210 43.5z" />
<glyph unicode="&#xb77c;" d="M127 184h35q259 0 434 34l4 -30q-186 -34 -438 -34h-67v313h356v228h-359v31h391v-290h-356v-252zM886 447v-30h-162v-484h-33v882h33v-368h162z" />
<glyph unicode="&#xb77d;" d="M591 403l4 -31q-196 -30 -426 -30h-65v231h357v157h-360v30h392v-217h-357v-171h33q231 0 422 31zM176 196v30h558v-292h-33v262h-525zM879 574v-30h-145v-265h-33v536h33v-241h145z" />
<glyph unicode="&#xb780;" d="M591 374l4 -31q-196 -30 -426 -30h-65v243h357v167h-360v30h392v-227h-357v-183h33q231 0 422 31zM246 212v-225h536v-30h-569v255h33zM734 527h145v-30h-145v-333h-33v650h33v-287z" />
<glyph unicode="&#xb784;" d="M591 457l4 -31q-196 -30 -426 -30h-65v211h357v136h-360v30h392v-195h-357v-152h33q231 0 422 31zM232 115v-138h540v-30h-572v198h502v125h-505v30h537v-185h-502zM734 601h145v-30h-145v-223h-33v467h33v-214z" />
<glyph unicode="&#xb78c;" d="M591 409l4 -31q-196 -30 -426 -30h-65v231h357v155h-360v30h392v-215h-357v-171h33q231 0 422 31zM229 210v-233h473v233h-473zM197 -53v292h537v-292h-537zM879 571v-30h-145v-253h-33v527h33v-244h145z" />
<glyph unicode="&#xb78d;" d="M591 420l4 -31q-196 -30 -426 -30h-65v229h357v150h-360v30h392v-210h-357v-169h33q231 0 422 31zM701 -23v142h-469v-142h469zM701 149v137h33v-339h-535v339h33v-137h469zM879 583v-30h-145v-225h-33v487h33v-232h145z" />
<glyph unicode="&#xb78f;" d="M104 562h357v163h-360v30h392v-223h-357v-174h33q231 0 422 31l4 -31q-196 -30 -426 -30h-65v234zM499 269v-31q0 -55 31 -104t80 -82t100.5 -54.5t102.5 -32.5l-16 -28q-64 16 -123.5 42.5t-115 75.5t-76.5 109q-21 -59 -76.5 -108.5t-115 -76t-123.5 -42.5l-16 28 q51 11 102.5 32.5t101 54.5t80.5 82t31 104v31h33zM734 558h145v-30h-145v-304h-33v591h33v-257z" />
<glyph unicode="&#xb790;" d="M104 581h357v155h-360v30h392v-215h-357v-166h33q255 0 422 31l3 -31q-173 -30 -425 -30h-65v226zM658 257v-59q0 -68 55 -133t136 -94l-17 -27q-67 26 -118 75t-71 107q-20 -59 -63 -110t-103 -79q-63 26 -106 76t-60 112q-23 -57 -73.5 -106t-115.5 -75l-17 27 q80 31 136 97.5t56 129.5v59h31v-59q0 -67 40 -129.5t109 -95.5q67 36 108.5 102t41.5 123v59h31zM734 579h145v-30h-145v-256h-33v522h33v-236z" />
<glyph unicode="&#xb791;" d="M591 407l4 -31q-196 -30 -427 -30h-64v229h357v153h-360v30h392v-213h-357v-169h32q232 0 423 31zM460 -35q113 0 181.5 34t68.5 90t-68.5 90t-181.5 34t-181.5 -34t-68.5 -90t68.5 -90t181.5 -34zM460 242q133 0 207.5 -40.5t74.5 -112.5t-74.5 -112.5t-207.5 -40.5 t-207.5 40.5t-74.5 112.5t74.5 112.5t207.5 40.5zM734 579h145v-30h-145v-270h-33v536h33v-236z" />
<glyph unicode="&#xb792;" d="M104 577h357v155h-360v30h392v-215h-357v-166h33q231 0 422 31l3 -31q-195 -30 -425 -30h-65v226zM486 204v-9q0 -56 51.5 -107t117 -80.5t130.5 -42.5l-15 -28q-95 22 -182 73.5t-117 121.5q-31 -71 -117.5 -122t-182.5 -73l-15 28q47 9 97 29t96.5 48.5t76 69 t29.5 83.5v9h-266v30h564v-30h-267zM734 577h145v-30h-145v-255h-33v523h33v-238z" />
<glyph unicode="&#xb796;" d="M590 413l4 -31q-195 -30 -425 -30h-65v226h357v155h-360v30h392v-215h-357v-166h33q231 0 421 31zM358 212v-235h234v235h-234zM625 212v-235h149v-30h-596v30h147v235h-139v30h578v-30h-139zM734 582h145v-30h-145v-250h-33v513h33v-233z" />
<glyph unicode="&#xb797;" d="M591 457l4 -31q-196 -30 -426 -30h-65v211h357v136h-360v30h392v-195h-357v-152h33q231 0 422 31zM481 -36q96 0 152 24t56 67t-56 67t-152 24t-152 -24.5t-56 -66.5t56 -66.5t152 -24.5zM481 174q115 0 177.5 -30.5t62.5 -88.5t-62.5 -88.5t-177.5 -30.5 q-114 0 -177 30.5t-63 88.5t63 88.5t177 30.5zM498 362v-102h288v-30h-610v30h289v102h33zM734 597h144v-30h-144v-246h-33v494h33v-218z" />
<glyph unicode="&#xb798;" d="M126 191h22q187 0 343 29l5 -30q-161 -29 -348 -29h-54v302h291v216h-294v31h326v-278h-291v-241zM766 816h33v-883h-33v489h-170v-440h-33v810h33v-340h170v364z" />
<glyph unicode="&#xb799;" d="M500 379l6 -30q-159 -32 -348 -32h-54v237h295v163h-298v30h330v-223h-295v-177h22q196 0 342 32zM218 180v30h576v-277h-33v247h-543zM761 815h33v-554h-33v274h-167v-264h-33v528h33v-234h167v250z" />
<glyph unicode="&#xb79c;" d="M594 508v-318h-33v608h33v-260h167v277h33v-659h-33v352h-167zM500 362l6 -30q-159 -32 -348 -32h-54v237h295v168h-298v30h330v-228h-295v-177h22q196 0 342 32zM271 -13h554v-30h-587v258h33v-228z" />
<glyph unicode="&#xb7a0;" d="M594 570v-217h-33v445h33v-198h167v215h33v-473h-33v228h-167zM500 449l6 -30q-148 -32 -348 -32h-54v210h295v134h-298v30h330v-194h-295v-150h22q204 0 342 32zM265 -23h568v-30h-600v195h529v121h-532v30h564v-181h-529v-135z" />
<glyph unicode="&#xb7a8;" d="M500 393l6 -30q-159 -32 -348 -32h-54v233h295v157h-298v30h330v-217h-295v-173h22q196 0 342 32zM266 206v-229h496v229h-496zM234 -53v288h560v-288h-560zM761 814h33v-531h-33v261h-167v-245h-33v499h33v-224h167v240z" />
<glyph unicode="&#xb7a9;" d="M500 423l6 -30q-159 -32 -348 -32h-54v221h295v144h-298v30h330v-204h-295v-161h22q196 0 342 32zM762 -23v147h-492v-147h492zM762 154v128h32v-335h-557v335h33v-128h492zM761 815h33v-487h-33v235h-167v-223h-33v458h33v-205h167v222z" />
<glyph unicode="&#xb7ab;" d="M594 537v-252h-33v514h33v-232h167v248h33v-610h-33v332h-167zM500 368l6 -30q-159 -32 -348 -32h-54v238h295v164h-298v30h330v-224h-295v-178h22q196 0 342 32zM529 248v-29q0 -50 32.5 -95.5t83 -77t102.5 -53t100 -30.5l-15 -27q-101 22 -195 79t-125 138 q-31 -81 -125 -138t-195 -79l-15 27q48 9 100 30.5t102.5 53t83 77t32.5 95.5v29h34z" />
<glyph unicode="&#xb7ac;" d="M594 543v-249h-33v505h33v-226h167v242h33v-528h-33v256h-167zM104 563h295v156h-298v30h330v-216h-295v-170h22q196 0 342 32l6 -30q-159 -32 -348 -32h-54v230zM674 252v-54q0 -69 55 -134t136 -94l-17 -27q-68 26 -118.5 75t-70.5 108q-19 -58 -62.5 -110t-102.5 -80 q-63 26 -106 76t-61 111q-23 -56 -73.5 -105t-114.5 -76l-18 27q80 31 136 97.5t56 130.5v55h31v-54q0 -68 40 -130.5t109 -95.5q67 36 108.5 102.5t41.5 123.5v54h31z" />
<glyph unicode="&#xb7ad;" d="M594 530v-231h-33v500h33v-239h167v255h33v-550h-33v265h-167zM500 388l6 -30q-159 -32 -348 -32h-54v231h295v156h-298v30h330v-216h-295v-171h22q196 0 342 32zM514 -34q115 0 184 33.5t69 88.5q0 56 -69 89.5t-184 33.5t-184.5 -33.5t-69.5 -89.5q0 -55 69.5 -88.5 t184.5 -33.5zM514 240q134 0 209.5 -40t75.5 -112t-75.5 -111.5t-209.5 -39.5q-135 0 -210.5 39.5t-75.5 111.5t75.5 112t210.5 40z" />
<glyph unicode="&#xb7b4;" d="M127 184h35q260 0 434 35l4 -31q-186 -34 -438 -34h-67v313h356v228h-359v31h391v-290h-356v-252zM882 544h-158v-236h158v-30h-158v-345h-33v882h33v-241h158v-30z" />
</font>
</defs>
</svg>
