<?xml version="1.0" standalone="no"?>
<!DOCTYPE svg PUBLIC "-//W3C//DTD SVG 1.1//EN" "http://www.w3.org/Graphics/SVG/1.1/DTD/svg11.dtd" >
<svg xmlns="http://www.w3.org/2000/svg">
<metadata>Generated by IcoMoon</metadata>
<defs>
<font id="icomoon" horiz-adv-x="1024">
<font-face units-per-em="1024" ascent="960" descent="-64" />
<missing-glyph horiz-adv-x="1024" />
<glyph unicode="&#x20;" horiz-adv-x="512" d="" />
<glyph unicode="&#xe900;" glyph-name="ABC" d="M472.224 642.176c19.008 0 37.92 0 54.848 0 8.48 0 27.36-2.080 33.76 8.48 2.080 4.224 4.224 8.48 4.224 12.608 2.080 6.304 0 21.056 0 27.36 0 12.608 0 25.312 0 37.92 0 50.624 0 101.216 0 151.84 0 8.48 2.080 71.68-2.080 71.68-14.784 0-29.536 0-44.32 0s-29.536 0-44.32 0c-6.304 0-14.784 0-21.056 0-2.080 0-2.080-31.616-2.080-35.84 0-50.624 0-101.216 0-151.84 0-35.84-4.224-71.68 0-105.44 2.080-10.336 10.432-16.736 20.96-16.736zM632.416 943.648c0-52.672 0-105.44 0-160.192 0-48.448 6.304-101.216-2.080-149.664-4.224-31.616-75.904-10.528-99.040-16.832-21.056-6.304-12.608-48.448-12.608-65.376 0-33.76 0-67.456 0-101.216 8.48 19.008 35.84 12.608 52.672 12.608 27.36 0 61.152-6.304 88.512 0 10.528 2.080 16.832 12.608 16.832 23.232-2.080 2.080 0 33.76 0 40.064 0 21.056 0 42.144 0 63.2 0 75.904 0 149.664 0 225.568 141.28-65.376 234.048-210.816 234.048-366.784 0-198.208-151.84-373.184-347.872-398.464 0 40.064 0 80.16 0 120.128 0 21.056 0 40.064 0 59.072 0 10.528 0 19.008 0 29.536 0 4.224-2.080 10.528 0 14.784 2.080 8.48-2.080 4.224 6.304 8.48 12.608 4.224 122.304-14.784 107.52 23.232-6.304 8.48 0 37.92 0 50.624 0 35.84 0 71.68 0 105.44 2.080-27.36-33.76-21.056-50.624-21.056-27.36 0-56.896 4.224-86.464 0-27.36 0-21.056-35.84-21.056-54.848 0-33.76 0-67.456 0-101.216-4.224 0-12.608-2.080-16.832 0-6.304 2.080-6.304 0-6.304 10.528s0 19.008 0 27.36c0 19.008 0 35.84 0 52.672s2.080 33.76 0 48.448c-4.224 25.312-44.32 16.832-61.152 16.832-25.312 0-56.896-6.304-84.288 0-6.304 0-10.528 8.48-10.528 16.832 0-40.064 0-80.16 0-118.048 0-12.608-2.080-27.36 0-42.144 4.224-23.232 35.84-16.832 52.672-16.832 12.608 0 23.232 0 35.84 0 6.304 0 10.528 0 16.832 0 10.528 0 8.48-10.528 8.48-21.056 0-69.6 0-141.28 0-210.816-198.208 27.36-350.016 202.336-350.016 400.544 0 155.968 94.912 301.504 236.096 366.88 0-86.464 0-170.72 0-257.184 0-25.312 0-48.448 0-73.76 0-14.784 8.48-21.056 21.056-23.232 23.232 0 44.32 0 67.456 0 19.008 0 59.072 8.48 69.6-12.608 0 37.92 0 77.984 0 116 0 25.312 6.304 50.624-25.312 52.672-16.832 2.080-35.84 0-52.672 0-33.76 0-33.76 16.832-33.76 48.448 0 92.736 0 185.504 0 276.192-236.096-57.024-400.544-282.592-383.712-525.088 19.008-288.8 288.8-508.064 575.52-468 259.36 35.84 453.312 271.936 438.56 533.376-12.608 217.216-170.72 409.024-383.712 461.696z" />
<glyph unicode="&#xe901;" glyph-name="allow-down" d="M239.616 611.84l268.288-288.768 268.288 288.768z" />
<glyph unicode="&#xe902;" glyph-name="arrow-down" d="M158.464 619.392h68.224l289.952-289.92 289.92 289.92h68.224l-358.144-358.176z" />
<glyph unicode="&#xe903;" glyph-name="arrow-down2" d="M877.248 338.752l-320-320c-24.992-24.992-65.504-24.992-90.496 0l-320 320c-24.992 24.992-24.992 65.504 0 90.496s65.504 24.992 90.496 0l210.752-210.752v613.504c0 35.36 28.64 64 64 64s64-28.64 64-64v-613.504l210.752 210.752c12.48 12.48 28.864 18.752 45.248 18.752s32.768-6.24 45.248-18.752c24.992-24.992 24.992-65.504 0-90.496z" />
<glyph unicode="&#xe904;" glyph-name="arrow-left" d="M408.224 448l256.576 233.248c8.992 8.192 8.992 21.568 0 29.76s-23.712 8.192-32.736 0l-272.864-248.064c-4.512-4.096-6.752-9.536-6.752-14.944s2.24-10.848 6.752-14.944l272.864-248.064c8.992-8.192 23.712-8.192 32.736 0s8.992 21.568 0 29.76l-256.576 233.248z" />
<glyph unicode="&#xe905;" glyph-name="arrow-right" d="M318.72 123.68c4-4 9.248-6.016 14.464-6.016s10.496 2.016 14.464 6.016l307.2 307.2c8 8 8 20.96 0 28.96l-307.2 307.2c-8 8-20.96 8-28.96 0s-8-20.96 0-28.96l292.736-292.736-292.736-292.736c-8-8-8-20.96 0-28.96z" />
<glyph unicode="&#xe906;" glyph-name="arrow-up" d="M836.32 254.72c4 4 6.016 9.248 6.016 14.464s-2.016 10.496-6.016 14.464l-307.2 307.2c-8 8-20.96 8-28.96 0l-307.2-307.2c-8-8-8-20.96 0-28.96s20.96-8 28.96 0l292.736 292.736 292.736-292.736c8-8 20.96-8 28.96 0z" />
<glyph unicode="&#xe907;" glyph-name="arrow-up2" d="M877.248 557.248l-320 320c-24.992 24.992-65.504 24.992-90.496 0l-320-320c-24.992-24.992-24.992-65.504 0-90.496s65.504-24.992 90.496 0l210.752 210.752v-613.504c0-35.36 28.64-64 64-64s64 28.64 64 64v613.504l210.752-210.752c12.48-12.48 28.864-18.752 45.248-18.752s32.768 6.24 45.248 18.752c24.992 24.992 24.992 65.504 0 90.496z" />
<glyph unicode="&#xe908;" glyph-name="BANK_OTHER" d="M929.888 853.984h-837.888c-50.592 0-92-41.184-92-91.584v-102.304h1022.016v102.304c0 50.4-41.408 91.584-92.096 91.584zM0 137.696c0-50.4 41.408-91.616 92-91.616h837.888c50.688 0 92.096 41.216 92.096 91.616v385.088h-1022.016v-385.088zM836 273.088h75.808v-86.208h-75.808v86.208zM738.592 273.088h75.712v-86.208h-75.712v86.208zM645.216 273.088h75.808v-86.208h-75.808v86.208z" />
<glyph unicode="&#xe909;" glyph-name="bank" d="M976 72.16h-928.16c-26.72 0.928-48.032 22.816-48.032 49.696 0 0.544 0 1.056 0.032 1.6l0.16 371.552h1024v-371.584c0-0.448 0.032-0.992 0.032-1.504 0-26.848-21.312-48.736-47.936-49.696h-0.096zM93.088 165.984h186.176v94.016h-186.208v-94.016zM558.528 353.984h-465.472v-47.008h465.472v47.008zM-0.16 772.64c0 0.448-0.032 0.992-0.032 1.536 0 26.848 21.312 48.736 47.936 49.664h928.256c26.72-0.928 48.032-22.816 48.032-49.664 0-0.544 0-1.088-0.032-1.6v-183.584h-1024l-0.16 183.648z" />
<glyph unicode="&#xe90a;" glyph-name="BCM" d="M809.888 192.192c-60.384-1.888-116.192-3.808-176.608-5.792-38.208-161.792-354.496-118.112-319.296 87.2 17.696 121.6 183.008 174.688 285.504 82.784 22.496-25.216 33.6-48.8 40.896-100.288 50.592 2.016 118.912 4 169.504 5.888 2.592 261.6-296.192 394.496-520.192 267.392-214.688-121.696-189.888-492.512 35.104-587.2v-5.888c-122.688 2.4-257.312 96.992-286.592 209.312l1.696 603.296c97.312 65.792 204.992 144.896 302.496 210.688 3.808-2.016 7.712-3.904 11.616-5.888-6.688-90.912-2.4-240.704 3.008-350.304 60.992 58.912 102.208 120.608 207.488 140.992 67.904 13.184 132.8 5.184 173.792-8.704 307.904-104.896 327.008-500.608 65.792-636.704-5.888 0-18.688-11.488-28.192-13.408 0 1.888 6.016 10.4 10.784 19.104 7.712 29.312 15.488 58.4 23.2 87.488v0 0z" />
<glyph unicode="&#xe90b;" glyph-name="BOB" d="M1003.712 308.288l4.704 17.216 4.096 17.216 3.392 17.504 2.784 17.216 1.312 8.704 0.896 9.088 0.896 8.8 0.896 8.704 0.288 9.088 0.608 9.088v9.088l0.288 9.088-0.288 13.088-0.288 12.8-1.792 25.6-1.216 12.8-1.6 12.512-1.888 12.512-4.992 24.384-2.784 12.192-2.784 11.904-3.392 11.904-3.808 11.616-4.096 11.616-4.384 11.616-4.384 11.296-10.016 22.4-11.2 21.792-5.888 10.592-6.304 10.592-6.912 10.592-6.784 10.112-7.2 10.304-7.488 10.016-7.808 10.016-7.808 9.696-8.384 10.016-8.8 9.408-8.8 9.696-9.408 9.408-9.408 9.088-9.696 9.088-19.392 16.8-10.016 8.096-10.016 7.808-10.304 7.488-10.112 7.104-10.304 6.912-10.592 6.592-10.592 6.208-10.912 6.304-11.008 5.6-11.008 5.312-11.2 5.312-11.296 4.704-11.488 4.608-11.616 4.384-11.488 3.808-11.616 3.712-11.904 3.392-11.808 3.2-12.192 2.816-12.192 2.496-12.192 2.208-12.512 1.888-24.992 3.008-12.8 0.896-12.8 0.704-12.8 0.608h-26.208l-26.208-1.184-12.8-0.896-12.512-1.504-12.512-1.6-12.512-1.888-12.512-2.208-12.192-2.496-12.192-2.816-11.904-3.104-11.904-3.392-11.616-3.712-11.616-3.808-11.616-4.416-22.4-9.408-11.2-5.312-10.912-5.312-10.912-5.6-10.592-6.304-10.592-6.208-10.592-6.592-10.4-6.912-10.304-7.2-10.016-7.488-10.016-7.808-10.016-8.096-10.016-8.416-9.408-8.416-9.696-9.088-9.408-9.088-9.408-9.408-8.8-9.696-8.704-9.408-8.416-10.016-8.096-9.696-15.008-20-7.104-10.208-7.2-10.304-6.592-10.592-6.208-10.688-6.016-10.592-5.888-10.912-5.312-10.912-10.016-22.4-4.704-11.296-4.096-11.616-4-11.616-3.712-11.616-3.392-11.904-3.104-11.904-2.784-12.192-2.496-12.192-2.208-12.192-1.888-12.512-1.6-12.512-1.184-12.8-1.312-12.8-0.608-12.8-0.416-12.704-0.288-13.088 0.608-26.208 0.608-12.8 1.312-12.8 1.216-12.8 1.6-12.512 1.888-12.512 2.208-12.192 2.496-12.192 2.816-12.192 3.104-12.192 3.392-11.904 3.712-11.488 4.096-11.904 4.096-11.296 4.704-11.488 4.992-11.296 4.992-11.2 5.312-10.912 11.808-21.792 6.208-10.592 6.592-10.592 7.2-10.592 7.2-10.304 7.488-10.016 7.488-10.304 8.096-9.696 8.416-10.016 8.704-9.696 8.8-9.696 9.408-9.408 9.408-8.992 9.696-9.088 9.408-8.704 20-16.192 10.016-7.808 10.016-7.488 10.304-7.2 10.304-6.912 10.592-6.496 21.184-12.608 21.792-11.2 22.4-10.016 11.2-4.384 11.616-4.384 11.616-4.096 11.616-3.392 11.904-3.392 11.904-3.104 12.192-2.784 12.192-2.496 12.512-2.208 24.992-3.808 12.512-1.216 12.8-0.896 26.208-1.216h13.216l18.4 0.288 18.112 0.608 17.792 1.6 17.792 1.888 17.504 2.496 16.896 3.104 17.216 3.808 16.608 4.096 16.192 4.992 16.288 5.312 15.904 5.888 15.616 6.304 15.296 7.2 15.296 7.488 15.008 8.096 14.688 8.384 10.016 6.208 9.696 6.304 9.408 6.304 8.8 6.496 8.704 6.304 8.096 6.592 7.808 6.496 7.488 6.592 6.912 6.912 6.912 6.496 6.208 6.912 5.888 6.912 5.6 7.2 5.312 6.912 9.408 14.4 4.096 7.2 3.712 7.2 3.392 7.2 3.104 7.488 2.784 7.488 4.384 15.008 1.6 7.808 1.216 7.488 0.896 7.808 0.608 15.616-0.288 8.096-0.288 7.808-0.896 8.096-1.216 8.192-1.6 6.496-1.6 6.912-1.888 6.304-1.792 6.016-2.496 6.304-2.496 6.016-2.784 5.888-3.104 5.888-6.784 11.2-4.096 5.6-4.096 5.312-8.8 10.016-10.016 10.016-5.312 4.8-5.6 4.384-11.808 8.8-6.304 4.096-6.592 4.096-6.912 3.712-7.2 4.096-7.2 3.392-7.488 3.392-7.808 3.392-8.096 3.104-16.8 6.208-8.8 2.784-9.088 2.784-23.392 8.096 7.488 4.384 7.2 4.704 6.912 4.704 6.208 4.992 5.888 5.312 5.6 5.312 4.992 5.6 4.704 5.888 4.384 5.888 3.712 6.304 3.712 6.592 2.784 6.592 2.784 6.912 2.208 6.912 1.6 7.2 1.6 7.488 0.608 8.704 0.288 8.096-0.288 8.384-0.608 8.384-1.6 8.096-2.208 8.096-2.496 7.808-3.104 8.096-3.712 7.808-4.384 7.808-4.992 7.808-5.6 7.488-6.304 7.488-6.912 7.488-7.488 7.2-7.808 7.2-8.8 7.488-8.8 7.2-9.088 6.592-9.408 6.304-9.696 5.888-10.016 5.6-10.304 4.992-10.592 4.992-11.008 4.384-11.2 4.384-11.616 3.808-11.904 3.392-12.192 3.104-12.512 3.104-12.8 2.496-13.088 2.208-15.008 2.208-15.008 1.888-15.616 1.6-15.616 1.184-15.904 1.312-16.288 0.896-16.192 0.608-33.792 0.608-17.184-0.288h-17.504l-17.792-0.608-54.912-2.688-18.688-1.6v-161.504l30.016 3.808 15.008 1.184 15.296 1.312 15.008 0.896 15.296 0.608 15.296 0.288h30.912l30.912-1.184 31.2-2.592 15.616-1.6 31.808-3.808 12.8-2.208 12.192-2.496 11.2-2.816 10.592-2.816 9.696-3.488 9.088-3.392 8.384-3.712 7.488-4.096 3.392-1.888 3.104-2.208 3.104-2.496 2.784-2.208 2.784-2.496 2.208-2.496 2.496-2.496 1.888-2.496 3.808-5.6 1.6-2.816 1.216-3.104 0.896-2.816 0.896-3.104 0.608-3.104 0.608-3.392v-5.6l-0.608-2.816-0.608-3.104-2.496-6.912-3.392-7.808-2.208-3.104-2.496-3.104-2.784-2.784-6.784-4.384-3.712-1.888-4.096-1.6-4.384-1.216-4.704-0.992-5.312-0.896-5.312-0.288h-11.808l-6.304 0.288-13.696 1.888-18.784 2.208-18.4 1.888-18.4 1.504-18.112 1.216-17.792 0.992-17.792 0.608-35.296 0.608-34.4-0.608-17.184-0.608-16.896-0.992-16.512-1.216-16.608-1.504-16.192-1.888-16.192-2.208v-164.704l22.816 2.496 22.208 2.496 21.888 1.888 21.888 1.6 41.792 1.792 20.288 0.288h20l39.104-1.216 18.688-1.216 36.512-3.808 17.792-2.496 17.216-2.784 16.896-3.104 13.408-2.496 12.512-3.104 11.904-3.104 11.008-3.392 10.304-4.096 9.408-4.096 4.384-2.208 8.192-4.384 3.712-2.496 6.784-4.992 5.888-5.28 2.784-2.784 2.496-2.784 2.208-2.784 2.208-3.104 1.888-3.104 3.2-6.208 0.896-3.392 1.216-3.104 1.216-6.784 0.608-3.712v-2.784l0.288-3.104-0.288-3.104v-2.784l-0.608-3.104-0.608-2.784-0.896-3.104-0.896-2.784-1.216-3.104-1.6-2.784-1.504-3.104-1.888-3.104-4-6.208-4.992-6.304-3.104-3.808-3.808-3.392-3.712-3.392-8.192-6.208-4.384-3.104-4.384-2.784-9.408-5.6-4.992-2.496-10.592-4.992-5.6-2.208-5.888-2.208-5.888-1.888-12.384-3.808-6.592-1.504-6.592-1.6-7.2-1.216-14.4-2.496-15.008-2.208-15.904-1.6-16.896-1.216-17.504-0.608h-28.096l-9.696 0.288-19.392 1.216-9.408 0.992-9.408 1.216-9.088 1.216-9.408 1.6-9.088 1.888-9.088 2.208-8.8 2.208-8.704 2.496-8.8 2.496-8.704 3.104-16.8 6.208-8.384 3.808-8.384 3.712-8.096 3.808-8.096 4.384-7.808 4.384-15.616 9.408-7.808 4.992-7.488 5.312-15.008 11.2-7.488 5.888-7.2 6.208-7.2 6.304-6.912 6.496-7.2 6.912-6.592 6.912-13.184 14.4-6.304 7.2-5.888 7.2-11.2 15.008-5.312 7.488-4.992 7.808-4.992 7.488-4.704 8.096-4.416 7.808-8.192 16.192-3.808 8.096-3.712 8.512-3.392 8.096-3.104 8.704-2.816 8.384-2.816 8.704-2.496 8.8-2.208 8.704-2.208 8.992-1.888 9.088-1.6 9.088-1.6 9.408-0.896 9.408-1.312 9.408-0.608 9.408-0.608 9.696-0.288 9.696v19.392l0.288 9.696 0.608 9.696 0.608 9.408 1.312 9.408 0.896 9.408 1.6 8.992 1.6 9.408 1.888 8.8 2.208 8.992 2.208 8.8 2.496 9.088 2.816 8.384 2.816 8.704 3.104 8.384 3.392 8.384 3.712 8.384 3.808 8.096 8.192 16.192 4.416 8.096 4.704 7.808 4.992 7.808 4.992 7.488 5.312 7.808 11.2 15.008 5.888 7.2 6.304 7.2 13.184 14.4 6.592 6.912 7.2 6.912 7.2 6.592 7.2 6.208 7.2 6.304 7.488 5.888 15.008 11.2 7.488 5.312 15.616 10.016 7.808 4.704 16.192 8.8 8.096 4.096 8.096 3.808 16.8 6.816 8.384 3.104 8.8 3.104 8.384 2.496 9.088 2.496 8.8 2.496 18.208 3.808 18.208 3.2 9.408 1.312 9.696 0.896 19.104 1.216 19.392 0.608 19.392-0.608 19.104-1.184 9.408-0.896 9.408-1.312 18.112-3.2 8.992-1.888 9.088-1.888 8.704-2.496 17.6-4.992 8.384-3.104 8.704-3.104 8.096-3.392 8.384-3.392 8.096-3.808 8.096-4.096 8.096-4.416 7.808-4.416 8.096-4.704 7.488-4.992 7.808-4.992 7.488-5.312 7.488-5.6 7.2-5.6 7.488-5.888 7.2-6.304 6.912-6.208 7.2-6.592 6.912-6.912 6.496-6.912 6.592-6.912 6.592-7.2 6.208-7.2 5.888-7.2 11.2-15.008 5.312-7.488 4.992-7.808 9.408-15.616 4.704-8.096 4-7.808 4.096-8.384 3.712-8.096 3.712-8.384 3.392-8.384 3.104-8.384 5.6-17.408 2.496-8.8 2.208-8.8 2.208-9.088 1.888-9.088 1.6-9.088 1.216-9.408 1.312-9.408 1.792-18.816 0.608-9.696 0.288-9.696v-9.696l-1.888-41.216 8.096-4.992 8.096-4.704 8.096-5.312 7.808-5.312 22.496-16.8 7.2-6.304 7.2-6.208 7.2-6.304 6.592-6.592 6.912-6.496 6.592-7.2 6.208-6.912 6.304-7.488 6.592-8.096z" />
<glyph unicode="&#xe90c;" glyph-name="BOC" d="M1020 470.592c-6.592 180.992-118.208 304.288-118.208 304.288-172.608 202.816-393.888 183.904-393.888 183.904-236.384 7.584-381.792-172.608-381.792-172.608-99.392-119.392-110.688-229.408-110.688-229.408-44.096-184.8 47.808-344.096 47.808-344.096 68.512-125.088 140.704-183.008 257.888-237.888 117.184-55.104 295.488-47.488 406.208 8.384 110.688 56 178.208 117.6 240.096 234.112 61.888 116.8 52.608 253.312 52.608 253.312v0 0 0zM460 50.592c0 0-185.696 10.4-287.904 190.592 0 0-88.192 127.008-51.584 285.408 36.608 158.304 122.016 221.792 138.912 237.888s126.208 81.888 200.704 80.608v-188.704h-78.816c0 0-106.912-6.592-110.688-126.112v-174.4c0 0 2.816-107.2 113.504-119.488h76l-0.096-185.792zM396.192 347.296c0 0-18.688-4.704-21.504 17.088v166.816c0 0 2.816 18.016 16.896 18.016h231.712c0 0 19.712 3.904 21.6-18.016v-162.112c0 0 4.704-25.6-14.112-21.792h-234.592zM847.392 225.088c-75.104-115.712-217.6-168.8-284.192-174.496v185.792h88.192c0 0 93.792 18.912 99.392 117.6v198.112c0 0-15.104 99.488-119.104 104.288h-68.512v188.608c0 0 117.216-9.408 212-97.6 94.688-88.096 119.104-176.288 129.504-223.712 10.208-47.488 17.696-183.008-57.312-298.592v0 0 0z" />
<glyph unicode="&#xe90d;" glyph-name="cancel-circle" d="M512 960c-282.784 0-512-229.216-512-512s229.216-512 512-512 512 229.216 512 512-229.216 512-512 512zM512 32c-229.76 0-416 186.24-416 416s186.24 416 416 416 416-186.24 416-416-186.24-416-416-416zM672 704l-160-160-160 160-96-96 160-160-160-160 96-96 160 160 160-160 96 96-160 160 160 160z" />
<glyph unicode="&#xe90e;" glyph-name="CCB" d="M952.192 408.704h-181.216c0 0-12.992 0-18.4-2.208-3.296-1.088-14.112-10.016-14.112-10.016l-223.616-227.712c-4.288-3.296-9.792-3.296-14.112 0l-237.6 242.208c-3.296 3.296-3.296 10.016 0 13.312l238.688 242.112c3.296 4.384 9.792 4.384 12.992 0l209.408-213.408c0 0 8.704-10.016 18.4-13.312 9.792-2.208 23.904 10.016 23.904 10.016l96.608 100.608-282.112 285.184c-59.712 60.8-124.8 55.296-150.816 52-226.816-38.688-390.592-236.608-390.592-472.096 0-265.408 215.904-477.696 468.704-477.696 248.512 0 456.8 203.392 468.704 460 0 3.296 1.088 5.504-5.408 10.016-6.496 4.384-19.488 0.992-19.488 0.992v0 0zM656 843.296l247.392-249.888 68.384 67.392c0 0 6.496 11.104 8.704 20.992 1.088 5.504-9.792 14.4-9.792 14.4l-150.912 154.816c-142.112 144.896-300.512 75.2-300.512 75.2s66.208-1.088 136.704-82.912v0 0z" />
<glyph unicode="&#xe90f;" glyph-name="CEB" d="M114.688 948.608h510.592c0 0 96.288 0 114.496-27.296h-94.496v-29.088l145.408-1.792c0 0 23.616-16.288 23.616-29.088l-168.992-1.792v-27.2h187.2c0 0 21.792-10.912 16.384-34.496h-583.296v-30.912l592.288 1.792c0 0 3.712-23.584 3.712-30.912h-596v-30.816l597.792 1.792c0 0 3.712-18.208-5.408-30.912l-592.288-5.504v-29.088l583.296 3.712c0 0 0-23.616-14.592-30.912l-568.704-3.712v-27.2l550.592 3.712c0 0-1.888-29.088-21.792-34.496l-528.704-1.792v-29.088l485.088 3.616c0 0-10.912-36.384-85.408-32.704l-90.784 1.792v-27.2l147.104-1.792c0 0 61.792 0 70.912-25.408l-218.016-5.504v-27.296h256.192c0 0 23.616-18.208 23.616-29.088l-588.8-3.616v-32.704l601.408 5.408c0 0 23.616-16.288 23.616-32.704l-624.992-3.616v-27.296h634.112c0 0 7.2-9.088 3.712-25.504l-637.792-5.408v-27.2h637.792c0 0 5.408-16.288 0-29.088l-637.792-3.712v-29.088h632.384c0 0 5.408-18.208-9.088-32.704h-623.392v-29.088l610.496 1.792c0 0-1.792-29.088-14.496-30.912h-216.288v-30.912l187.2 1.792c0 0-12.704-29.088-25.408-32.704l-161.792-1.696v-30.912l109.088 1.792c0 0-16.384-34.496-159.904-29.088l-479.808 1.792v994.016z" />
<glyph unicode="&#xe910;" glyph-name="check" d="M883.2 631.456v0l-426.656-426.656c-6.4-8.544-17.056-12.8-29.856-12.8s-23.456 4.256-29.856 12.8v0l-256 256c-8.544 6.4-12.8 17.056-12.8 29.856 0 23.456 19.2 42.656 42.656 42.656 12.8 0 23.456-4.256 29.856-12.8v0l226.144-226.144 396.8 396.8c8.544 8.544 19.2 12.8 29.856 12.8 23.456 0 42.656-19.2 42.656-42.656 0-12.8-4.256-23.456-12.8-29.856z" />
<glyph unicode="&#xe911;" glyph-name="checkmark" d="M864 832l-480-480-224 224-160-160 384-384 640 640z" />
<glyph unicode="&#xe912;" glyph-name="checkmark2" d="M397.44 42.304l-397.856 391.616 197.376 194.272 200.48-197.344 429.632 422.848 197.376-194.272-627.008-617.12zM107.904 433.888l289.536-284.96 518.656 510.496-89.024 87.648-429.632-422.848-200.48 197.344-89.024-87.648z" />
<glyph unicode="&#xe913;" glyph-name="CIB" d="M1023.904 454.816c0 131.296-177.888 237.696-397.312 237.696-175.616 0-324.704-68.288-376.992-162.816v0.096c-4.8-8.8-7.584-18.304-7.584-28.288 0-23.616 14.912-44.512 38.112-58.304l201.408-116.192c10.4-5.696 22.816-9.088 36.192-9.088s25.888 3.392 36.288 8.992l191.104 110.4c12.896 7.392 21.088 19.104 21.088 32.096 0 12.608-7.808 23.904-19.904 31.392l-71.008 41.088-157.6-90.912-119.104 68.896c46.016 41.504 131.712 69.312 230.016 69.312 146.784 0 265.792-62.304 265.792-139.296-3.104-119.104-177.792-211.2-390.016-205.696-212.288 5.6-381.792 106.784-378.592 225.792h-0.096c1.504 157.088 207.392 282.496 459.904 280 22.496-0.288 44.512-1.504 66.112-3.584-51.808 19.104-116.512 30.4-186.912 30.4-56.192 0-108.8-7.296-154.112-19.904v0c-182.816-50.112-310.688-166.496-310.688-302.112 0-181.6 229.184-328.8 512-328.8 282.816 0.096 512 147.296 511.904 328.8v0z" />
<glyph unicode="&#xe914;" glyph-name="CITIC" d="M576.704 633.888c0 0-0.288 171.712 173.6 223.904v43.2c-71.296 37.6-152.384 59.008-238.592 59.008-83.488 0-162.304-20.096-232-55.712v-46.496c173.888-52.096 173.6-223.904 173.6-223.904v-693.888c19.2-2.208 38.688-3.392 58.4-3.392 22.016 0 43.712 1.6 64.992 4.192v693.088zM279.712 775.904v-783.616c32.288-16.512 66.496-29.696 102.304-39.008v680.704c0 92.192-84.192 133.888-102.304 141.888zM208.512 407.392c-5.6 4.512-13.184 8.608-23.104 9.504-33.088 3.008-62.208-24.096-61.216-57.216 0 0-47.808 18.016-48.096 82.688v0c0 0.096 0 0.192 0 0.288s0 0.192 0 0.288v0c0.288 64.704 48.096 82.688 48.096 82.688-0.992-33.088 28.096-60.192 61.184-57.184 9.888 0.896 17.408 4.992 23.104 9.504v382.4c-126.4-93.088-208.512-243.008-208.512-412.096s82.112-319.008 208.512-412.096v371.2zM647.904 633.888v-678.784c35.808 9.888 70.112 23.488 102.304 40.512v780.288c-18.112-8-102.304-49.696-102.304-142.016zM990.784 416.896c-33.088 3.008-62.208-24.096-61.216-57.216 0 0-47.808 18.016-48.096 82.688v0c0 0.096 0 0.192 0 0.288s0 0.192 0 0.288v0c0.288 64.704 48.096 82.688 48.096 82.688-0.992-33.088 28.096-60.192 61.216-57.184 15.808 1.408 25.888 10.912 31.104 17.312-10.912 150.816-87.008 283.392-200.384 369.792v-814.304c110.784 84.384 186.016 212.896 199.616 359.392-5.408 6.208-15.392 14.784-30.304 16.192z" />
<glyph unicode="&#xe915;" glyph-name="clock" d="M512 960c-282.77 0-512-229.23-512-512s229.23-512 512-512c282.77 0 512 229.23 512 512-0.337 282.634-229.365 511.663-511.967 512zM512 0c-247.424 0-448 200.576-448 448s200.576 448 448 448c247.424 0 448-200.576 448-448-0.282-247.31-200.69-447.718-447.972-448zM544 461.248v345.488c0 17.673-14.327 32-32 32s-32-14.327-32-32v-358.736c0.002-8.836 3.585-16.834 9.376-22.624l197.216-197.248c5.749-5.558 13.59-8.983 22.231-8.983 17.673 0 32 14.327 32 32 0 8.641-3.425 16.482-8.991 22.24z" />
<glyph unicode="&#xe916;" glyph-name="clock1" d="M512 960c-282.752-0.023-511.959-229.245-511.959-512 0-282.77 229.23-512 512-512 116.813 0 224.488 39.119 310.642 104.971 4.62 3.593 8.357 10.599 8.357 18.478 0 13.465-10.916 24.381-24.381 24.381-5.551 0-10.669-1.855-14.767-4.979-76.717-58.656-174.062-94.012-279.664-94.012-255.697 0-462.981 207.284-462.981 462.981s207.284 462.981 462.981 462.981c255.697 0 462.981-207.284 462.981-462.981 0-97.664-30.24-188.264-81.867-262.95-1.589-2.273-3.139-6.986-3.139-12.061 0-13.465 10.916-24.381 24.381-24.381 8.237 0 15.52 4.084 19.934 10.338 56.026 80.967 89.466 181.165 89.466 289.172 0 282.776-229.213 512.017-511.978 512.061zM512 326.093c13.465 0 24.381 10.916 24.381 24.381v1.27l79.176-90.486c4.482-4.976 10.947-8.090 18.139-8.090 13.465 0 24.381 10.916 24.381 24.381 0 6.051-2.204 11.587-5.853 15.849l-115.843 132.391v290.401c0 13.465-10.916 24.381-24.381 24.381s-24.381-10.916-24.381-24.381v-234.65l-6.031 6.907c-4.499 5.256-11.141 8.566-18.556 8.566-13.465 0-24.381-10.916-24.381-24.381 0-6.273 2.369-11.993 6.261-16.314l42.712-48.813v-57.016c0-0.005 0-0.010 0-0.015 0-13.464 10.913-24.379 24.376-24.381z" />
<glyph unicode="&#xe917;" glyph-name="close" d="M566.594 447.467l288.992 288.994c12.998 12.993 11.492 35.558-3.361 50.407-14.846 14.846-37.405 16.353-50.406 3.358l-288.991-288.994-288.99 288.994c-12.998 12.995-35.559 11.489-50.407-3.358-14.851-14.849-16.359-37.414-3.36-50.407l288.992-288.994-288.987-288.99c-12.995-12.99-11.496-35.56 3.355-50.407 14.842-14.846 37.416-16.349 50.407-3.36l288.99 288.992 288.993-288.992c12.988-12.989 35.564-11.486 50.406 3.36 14.852 14.847 16.35 37.416 3.355 50.408l-288.988 288.99z" />
<glyph unicode="&#xe918;" glyph-name="CMB" d="M469.696 240.896l138.912 350.592 144.8-350.592h-283.712zM178.912 240.896l139.008 350.592 144.8-350.592h-283.808zM900.704 320.896h108.288l-5.888-20h-92.992l-9.408 20zM879.488 370.304h138.912l-3.488-21.216h-126.016l-9.408 21.216zM858.304 419.712h166.016l-2.304-21.216h-154.304l-9.408 21.216zM838.304 469.088h186.016v-21.088h-177.792l-8.192 21.088zM817.088 518.592h202.496l2.304-21.184h-196.608l-8.192 21.184zM795.904 568h214.304l4.8-21.184h-209.696l-9.408 21.184zM512.192 959.808h21.088l22.4-2.4 21.088-1.184 20-3.488 21.216-3.488 20-4.704 40-11.808 9.504-3.616 9.408-3.488 18.784-8.288 18.912-8.288 35.2-18.784 17.696-10.592 16.704-11.584 16.384-11.808 15.296-11.712 15.296-12.992 15.296-14.112 14.208-14.112 14.112-14.112 12.992-15.296 5.888-8.288 5.888-8.192 12.896-16.512 10.688-16.512 10.592-16.416 10.592-17.6 8.192-18.816 9.504-17.6 6.912-19.008 7.008-20 7.104-18.816h-219.008l-135.392 316.512-141.312-356.512-148.416 352.992-261.312-674.208 118.912-148.192h605.216l110.688 161.216-10.592 24.704h71.808l-7.104-18.784-8.192-17.6-8.288-17.6-8.192-16.512-10.592-17.6-9.408-16.384-11.808-15.296-10.592-15.296-11.808-15.616-12.992-15.296-12.896-12.992-14.112-14.112-28.384-26.016-15.104-11.616-15.296-11.808-15.296-10.592-16.384-10.592-16.512-9.408-17.696-9.408-17.6-8.288-17.696-7.008-18.784-7.104-17.696-7.008-18.912-5.888-20-4.704-18.912-4.704-20-3.616-9.408-1.216-30.688-3.52-20-1.216h-47.008l-25.888 2.304-25.888 3.616-25.888 4.704-24.704 5.888-23.616 5.888-23.616 8.288-23.616 9.408-22.304 10.592-22.4 10.592-10.592 7.008-10.592 5.888-21.184 12.992-20 14.112-20 15.296-9.408 8.192-8.288 8.288-9.408 8.192-25.888 25.888-16.512 18.784-7.008 9.408-7.104 10.592-15.296 20-5.888 9.408-7.104 10.592-5.888 10.592-5.888 11.808-11.712 21.216-10.592 23.488-8.192 22.304-8.192 24.704-7.104 23.488-3.488 12.992-2.4 11.808-2.304 12.896-2.304 12.992-3.712 24.704-1.184 27.104-1.088 12.896v12.992l1.088 25.888 1.184 25.888 3.584 25.888 4.704 25.888 5.888 24.704 7.104 23.616 8.192 23.488 8.192 23.616 10.592 22.304 11.712 22.4 11.808 21.184 12.992 21.184 15.296 20 14.208 20 8.288 9.408 8.288 8.288 8.192 9.408 9.408 8.192 17.6 17.6 17.6 16.512 10.592 7.008 9.408 7.008 20 15.296 10.592 5.888 10.592 7.008 10.592 5.888 10.592 5.792 22.4 11.808 22.304 10.592 23.616 9.408 47.2 14.208 12.896 3.488 11.808 2.4 12.992 2.304 12.992 2.4 25.888 3.488 25.888 1.184 12.896 1.184h12.896v-0.096z" />
<glyph unicode="&#xe919;" d="M516.864 347.168l94.304-50.144-94.304-50.048v-60.128l235.648 118.56-235.648 100.16v-58.4zM516.864 806.208v48.416h3.264c169.088 5.056 505.472-58.4 503.84-255.424h-156.064c-22.72 148.608-188.512 212.064-351.040 207.008zM422.624 297.024l87.744 53.44 6.496-3.296v58.4l-22.752 10.016s-341.344-13.376-312.096 230.336c35.808 98.528 185.312 156.96 334.848 160.288v48.416c-185.28-4.96-443.68-56.704-492.48-228.704-1.632-6.656-3.232-11.648-3.232-16.704v-23.328c9.696-98.528 151.136-212 383.552-212l-125.12-76.864 222.624-116.832 14.624 6.624v60.128l-3.264-1.696-90.976 51.744z" />
<glyph unicode="&#xe91a;" d="M602.976 597.536l-87.744-51.744-6.528 1.632v-58.432l21.152-8.32s341.312 11.68 313.664-230.4c-37.376-98.496-185.248-156.96-334.816-160.256v-48.448c185.344 6.656 443.712 56.736 492.48 228.704 1.632 4.992 3.296 10.016 3.296 16.736v21.664c-9.76 100.192-152.8 212.064-383.584 213.728l123.552 75.104-221.024 118.528-14.656-8.416v-58.368l3.264 1.664 91.008-53.44zM508.704 547.424l-94.304 50.112 94.304 51.776v58.368l-235.648-116.832 235.648-101.856v58.432zM508.704 90.048v-48.448h-3.264c-168.96-3.328-505.44 58.432-505.44 255.424h157.664c22.784-146.912 186.912-210.336 351.040-206.976z" />
<glyph unicode="&#xe91b;" glyph-name="CNY" d="M512 960c-282.784 0-512-229.216-512-512s229.216-512 512-512c282.784 0 512 229.216 512 512s-229.216 512-512 512zM512-3.84c-249.536 0-451.84 202.304-451.84 451.84s202.304 451.84 451.84 451.84c249.536 0 451.84-202.304 451.84-451.84s-202.304-451.84-451.84-451.84zM625.28 704l-91.36-187.040c-5.824-11.232-11.872-25.056-17.088-39.296l-2.272-2.624q-9.6 24.16-17.12 40.16l-91.2 188.8h-76.64l130.4-242.56h-106.56v-53.6h126.56v-74.56h-126.56v-53.92h126.56v-107.2h66.88v107.2h122.72v53.92h-122.72v74.56h122.72v53.6h-104.48l132 242.56z" />
<glyph unicode="&#xe91c;" glyph-name="cwzx" d="M513.264 960c-282.77 0-512-229.23-512-512s229.23-512 512-512c0.467-0.002 1.020-0.002 1.573-0.002 120.935 0 232.189 41.451 320.33 110.92 5.127 3.892 9.109 11.302 9.109 19.642 0 14.162-11.481 25.643-25.643 25.643-5.822 0-11.191-1.94-15.495-5.209-77.497-62.176-177.104-99.815-285.503-99.815-1.536 0-3.071 0.008-4.604 0.023-253.762 0.653-459.413 206.709-459.413 460.797 0 254.493 206.307 460.8 460.8 460.8s460.799-206.306 460.8-460.798c-0.505-90.039-26.229-173.965-70.455-245.204-1.14-1.63-2.504-6.054-2.504-10.796 0-13.364 10.834-24.198 24.198-24.198 8.622 0 16.191 4.51 20.477 11.299 48.386 75.57 77.092 167.636 77.092 266.407 0 1.777-0.009 3.551-0.028 5.323 2.546 278.77-228.43 509.17-510.734 509.17v0zM781.84 469.728l-246.8 246.176c-5.44 5.854-13.181 9.505-21.776 9.505s-16.336-3.651-21.759-9.487l-246.801-246.194c-5.866-5.412-9.528-13.139-9.528-21.72s3.662-16.308 9.508-21.702l246.804-246.21c5.44-5.854 13.181-9.505 21.776-9.505s16.336 3.651 21.759 9.487l246.817 246.194c5.866 5.412 9.528 13.139 9.528 21.72s-3.662 16.308-9.508 21.702l-0.020 0.018zM518.72 236.208c-1.257-1.653-3.225-2.709-5.44-2.709s-4.183 1.056-5.428 2.693l-206.892 206.369c-1.659 1.251-2.72 3.217-2.72 5.432s1.061 4.181 2.703 5.42l206.897 206.412c1.257 1.653 3.225 2.709 5.44 2.709s4.183-1.056 5.428-2.693l206.876-206.417c1.659-1.251 2.72-3.217 2.72-5.432s-1.061-4.181-2.703-5.42l-206.881-206.364z" />
<glyph unicode="&#xe91d;" glyph-name="CZB" d="M1024.096 372.992l-88-91.488-227.008 216.608 85.408 88.8 72.992-69.696 14.592 15.2-291.904 278.688-14.592-15.2 75.488-72.096-85.408-88.8-240.704 229.696 88.096 91.392 93.088-88.8 89.312 92.704 424.8-405.408-89.312-92.704 93.088-88.896zM458.208 523.488l-240.512 229.696 92.704 96.288 240.608-229.6-92.8-96.384zM350.912 412l-240.608 229.6 92.704 96.416 240.608-229.6-92.704-96.416zM246.016 303.104l-75.584 72.096-14.592-15.2 291.904-278.592 14.592 15.104-72.992 69.696 90.304 93.792 227.008-216.608-89.696-93.216-93.088 88.8-99.104-102.784-424.704 405.408 99.008 102.784-93.088 88.896 89.696 93.184 240.608-229.6-90.208-93.792zM587.008 371.488l227.008-216.608-92.8-96.288-227.008 216.608 92.8 96.288zM694.4 483.008l226.912-216.608-92.704-96.288-227.008 216.608 92.8 96.288z" />
<glyph unicode="&#xe91e;" glyph-name="day" d="M817.024 596.16c5.321 6.805 8.532 15.485 8.532 24.914 0 13.524-6.606 25.505-16.767 32.893l-317.701 233.761c-7.027 5.154-15.846 8.247-25.388 8.247-13.754 0-26.008-6.428-33.919-16.444-4.298-5.639-7.164-12.44-8.050-19.848l374.381-277.171c7.688 2.742 14.106 7.463 18.843 13.556zM8.512 330.16c-5.305-6.807-8.505-15.48-8.505-24.901 0-13.522 6.594-25.504 16.741-32.907l317.652-233.681c7.011-5.162 15.818-8.261 25.349-8.261 13.699 0 25.902 6.402 33.782 16.378 4.493 5.748 7.43 12.765 8.184 20.423l-377.283 275.315c-6.377-2.897-11.712-7.093-15.854-12.283zM1001.888 121.6l-361.76 266.128 115.456 150c4.963 6.293 8.536 13.912 10.124 22.235l-343.308 254.437c-8.355-3.821-15.33-9.371-20.71-16.232l-115.578-150.168-13.088 9.6c-9.185 6.796-20.736 10.879-33.241 10.879-17.972 0-33.975-8.432-44.267-21.556l-23.596-30.522c-6.93-8.914-11.11-20.264-11.11-32.591 0-17.749 8.666-33.474 21.997-43.174l13.081-9.706-119.488-155.2c-4.131-5.251-7.301-11.474-9.118-18.249l348.878-254.615c5.525 3.503 10.236 7.689 14.189 12.52l119.571 155.304 361.744-266.016c9.214-6.868 20.822-10.996 33.395-10.996 17.886 0 33.821 8.354 44.115 21.374l23.514 30.79c7.063 8.912 11.332 20.318 11.332 32.722 0 17.672-8.664 33.321-21.976 42.931z" />
<glyph unicode="&#xe91f;" glyph-name="eye-close" d="M1017.6 640.624c4.001 6.552 6.371 14.479 6.371 22.96 0 12.616-5.243 24.007-13.668 32.114-5.952 5.087-13.719 8.175-22.207 8.175-12.163 0-22.846-6.339-28.924-15.894-1.907-2.107-205.187-259.867-446.931-259.867-234.496 0-446.928 259.744-448.752 261.712-6.535 8.031-16.418 13.12-27.49 13.12-9.175 0-17.534-3.494-23.818-9.225-7.529-7.578-12.199-18.056-12.199-29.625 0-9.605 3.219-18.458 8.637-25.539 35.548-43.446 73.946-82.118 115.741-116.844l-92.007-105.406c-6.281-7.034-10.12-16.365-10.12-26.593 0-11.159 4.569-21.25 11.939-28.506 4.138-7.141 11.738-11.864 20.44-11.864 0.545 0 1.086 0.019 1.621 0.055 10.118 0.181 19.219 4.693 25.496 11.768l100.832 112.196c48.026-36.379 103.013-67.504 161.936-90.832l-33.68-141.344c-1.064-3.422-1.678-7.355-1.678-11.432 0-17.477 11.267-32.322 26.934-37.669l11.272-0.083c17.352 0.266 31.7 12.8 34.766 29.298l38.434 139.918c27.409-5.989 58.991-9.559 91.357-9.839 32.788 0.28 64.37 3.849 94.848 10.391l35.331-138.28c3.631-16.422 17.671-28.663 34.711-29.516 0.7-0.106 1.405-0.164 2.124-0.164 2.649 0 5.112 0.795 7.164 2.159 15.932 5.381 27.228 20.243 27.228 37.743 0 4.075-0.613 8.007-1.751 11.709l-38.325 137.446c63.687 24.967 118.712 56.093 168.523 93.751l97.141-111.463c6.225-7.218 15.382-11.76 25.6-11.76s19.375 4.542 25.563 11.716c7.018 7.528 11.305 17.605 11.305 28.684 0 10.058-3.532 19.29-9.424 26.524l-93.332 104.211c44.422 34.744 83.449 72.853 117.967 114.812l1.025 1.284z" />
<glyph unicode="&#xe920;" glyph-name="eye-open" d="M512 107.744c-353.472 0-512 377.776-512 377.776s158.528 377.744 512 377.744 512-377.744 512-377.744-158.544-377.776-512-377.776zM512 695.344c-0.516 0.005-1.125 0.007-1.736 0.007-116.245 0-210.598-93.729-211.608-209.735 1.802-116.547 96.625-210.256 213.335-210.256s211.534 93.709 213.334 209.991c-1.009 116.271-95.362 210-211.606 210-0.605 0-1.209-0.003-1.812-0.008zM512 548.464c0.691-34.813 29.075-62.77 63.988-62.77 25.376 0 47.303 14.769 57.653 36.18 3.918-10.573 6.17-23.201 6.358-36.328 0.045-1.347 0.069-2.824 0.069-4.307 0-71.877-58.267-130.144-130.144-130.144s-130.144 58.267-130.144 130.144c0 71.877 58.267 130.144 130.144 130.144 14.087 0 27.651-2.238 40.356-6.378-22.949-9.641-38.059-31.3-38.28-56.512z" />
<glyph unicode="&#xe921;" glyph-name="finance" d="M512 960c-282.784 0-512-229.216-512-512s229.216-512 512-512c282.784 0 512 229.216 512 512s-229.216 512-512 512zM512 903.104c251.36 0 455.104-203.744 455.104-455.104s-203.744-455.104-455.104-455.104c-251.36 0-455.104 203.744-455.104 455.104s203.744 455.104 455.104 455.104zM512 206.624l241.376 241.376-241.376 241.376-241.376-241.376zM351.104 448l160.896 160.928 160.928-160.928-160.928-160.928z" />
<glyph unicode="&#xe922;" glyph-name="g" horiz-adv-x="701" d="M701.245 467.925h-296.198v-84.788h185.238v-200.628c-45.617-20.679-98.915-32.73-155.028-32.73-3.878 0-7.743 0.058-11.594 0.172q-141.303-0.013-224.492 77.56t-83.188 216.929q0 135.437 90.499 218.289t230.048 82.852c4.001 0.114 8.711 0.18 13.435 0.18 84.344 0 163.835-20.776 233.635-57.491l-2.752 104.744c-64.716 24.407-139.523 38.536-217.63 38.536-5.886 0-11.753-0.080-17.6-0.24l0.335 0.019v128.67h-84.66v-134.525h0.992c-91.633-11.077-172.856-48.856-237.448-105.215-76.416-65.976-124.817-163.639-124.817-272.606 0-3.318 0.045-6.626 0.134-9.923q-0.106-169.442 113.302-271.22 97.362-87.38 247.837-99.554v-130.958h84.596v129.15c93.44 3.417 180.767 26.23 259.165 64.502z" />
<glyph unicode="&#xe923;" glyph-name="GDB" d="M512.96 551.36c-18.432 38.752-36.928 77.504-53.536 116.224-31.392 73.76-57.184 147.552-81.216 223.232v0c-83.040-241.728-213.952-464.96-378.208-653.152v0c118.048 27.68 239.84 46.112 361.6 53.536 55.36 83.040 107.072 169.696 151.36 260.16zM512.96 294.816c-49.824 0-101.44-1.824-151.264-5.536-68.32-99.648-144-195.552-227.040-284.096v0c121.76 23.968 249.088 35.040 378.208 35.040s256.448-11.072 378.208-35.040v0c-84.768 88.576-160.448 184.48-226.848 286.016-51.616 3.616-101.44 3.616-151.264 3.616zM0 237.664l134.656-232.48c84.832 88.576 160.512 184.48 226.944 286.016-121.76-9.248-243.552-25.856-361.6-53.536zM645.792 890.816v0c-22.144-75.68-49.824-149.44-81.216-223.232-16.608-38.752-35.040-77.504-53.536-116.224 44.288-90.368 94.112-177.12 151.264-260.16 121.76-7.36 243.552-25.856 361.6-53.536v0c-164.16 188.192-293.28 411.424-378.112 653.152zM512.96 551.36c18.432 38.752 36.928 77.504 53.536 116.224 31.296 73.76 57.184 147.552 81.12 223.232h-269.408c22.144-75.68 49.824-149.44 81.216-223.232 16.608-38.752 35.040-77.504 53.536-116.224zM891.168 5.184l134.656 232.48c-118.048 27.68-239.84 46.112-361.6 53.536 66.432-101.536 142.112-197.44 226.944-286.016z" />
<glyph unicode="&#xe924;" glyph-name="GOP" d="M512 960c-282.784 0-512-229.216-512-512s229.216-512 512-512c282.784 0 512 229.216 512 512s-229.216 512-512 512zM512-3.84c-249.536 0-451.84 202.304-451.84 451.84s202.304 451.84 451.84 451.84c249.536 0 451.84-202.304 451.84-451.84s-202.304-451.84-451.84-451.84zM510.24 412.32h103.2v-112c-25.344-11.488-54.976-18.176-86.144-18.176-2.176 0-4.352 0.032-6.496 0.096-2.464-0.16-5.728-0.256-9.024-0.256-44.416 0-85.024 16.448-116 43.616-28.512 28.256-46.304 67.68-46.304 111.296 0 3.232 0.096 6.432 0.288 9.632-0.096 1.408-0.128 3.552-0.128 5.696 0 45.472 19.36 86.4 50.272 115.040 32.128 28.768 74.624 46.304 121.248 46.304 2.4 0 4.8-0.032 7.2-0.128 1.92 0.064 4.608 0.128 7.296 0.128 46.688 0 90.72-11.456 129.408-31.712l-1.536 58.176c-35.712 13.344-76.96 21.088-120 21.088-3.36 0-6.72-0.032-10.080-0.128h-0.48v71.68h-47.040v-74.24c-50.4-7.52-94.912-28.512-130.912-59.168-42.4-36.608-69.312-90.912-69.312-151.456 0-1.824 0.032-3.648 0.064-5.44-0.128-2.208-0.192-5.088-0.192-8 0-56.512 24.32-107.36 63.072-142.624 36.896-32.16 84.448-52.64 136.704-55.488l0.576-72.672h47.040v71.68c51.936 1.888 100.448 14.56 144.032 35.808l-2.112 188.032h-164.64z" />
<glyph unicode="&#xe925;" glyph-name="hand" horiz-adv-x="768" d="M681.248 375.6h-6.048c-0.037 0-0.082 0-0.126 0-9.17 0-18.018-1.38-26.348-3.944-10.834 35.539-43.49 60.665-82.015 60.665-0.132 0-0.264 0-0.396-0.001h-6.108c-0.012 0-0.025 0-0.039 0-9.021 0-17.729-1.339-25.937-3.829-10.308 36.378-43.374 62.294-82.493 62.294-0.19 0-0.379-0.001-0.569-0.002h-6.051c-0.048 0-0.105 0-0.162 0-7.793 0-15.351-1.004-22.552-2.89l0.618 142.793c-0.523 47.141-38.86 85.155-86.075 85.155-0.249 0-0.498-0.001-0.747-0.003h-6.090c-0.211 0.002-0.459 0.003-0.709 0.003-47.209 0-85.538-38.018-86.043-85.107v-394.896l-35.584 34.56c-15.809 15.201-37.328 24.562-61.034 24.562-23.657 0-45.137-9.323-60.965-24.496l-4.369-4.226c-15.88-15.281-25.744-36.716-25.744-60.455 0-0.037 0-0.074 0-0.111-0.002-0.183-0.002-0.407-0.002-0.631 0-22.87 9.305-43.567 24.335-58.512l168.004-184.404c13.926-16.043 34.35-26.129 57.129-26.129 0.098 0 0.196 0 0.294 0.001h386.769c0.094 0 0.206-0.001 0.317-0.001 38.606 0 70.391 29.203 74.47 66.724 0.67 2.724 1.037 5.47 1.037 8.301 0 0.011 0 0.022 0 0.033v279.374c-0.496 47.144-38.829 85.171-86.044 85.171-0.255 0-0.509-0.001-0.763-0.003zM704 16.192c-0.368-1.867-0.583-4.018-0.592-6.217-0.364-5.595-4.986-9.99-10.635-9.99-0.199 0-0.396 0.005-0.593 0.016l-386.773-0.001c-3.812 0.005-7.211 1.774-9.421 4.536l-170.019 186.52c-3.87 3.671-6.279 8.85-6.279 14.592s2.408 10.921 6.27 14.584l4.441 4.296c4.282 4.026 10.064 6.5 16.424 6.5s12.142-2.474 16.436-6.512l89.892-87.268c5.755-5.591 13.619-9.038 22.288-9.038 17.673 0 32 14.327 32 32 0 0.005 0 0.010 0 0.015v470.463c0.479 11.789 10.152 21.164 22.015 21.164 0.259 0 0.517-0.004 0.774-0.013l6.091 0.001c0.225 0.008 0.489 0.013 0.754 0.013 11.866 0 21.543-9.374 22.029-21.121l0.001-216.956c0.020-17.658 14.339-31.964 32-31.964 15.892 0 29.079 11.585 31.575 26.771 2.148 10.525 11.174 18.192 21.99 18.192 0.187 0 0.373-0.002 0.559-0.007l5.972 0.001c0.22 0.008 0.478 0.012 0.737 0.012 11.863 0 21.536-9.376 22.014-21.121l0.001-50.379c0.011-17.665 14.334-31.98 32-31.98 15.892 0 29.079 11.585 31.575 26.771 2.163 10.563 11.224 18.254 22.081 18.254 0.166 0 0.331-0.002 0.497-0.005h6.103c0.23 0.009 0.5 0.013 0.771 0.013 11.855 0 21.525-9.357 22.027-21.088l0.002-48.685c0.011-17.665 14.334-31.98 32-31.98 15.892 0 29.079 11.585 31.575 26.771 2.162 10.563 11.224 18.256 22.082 18.256 0.188 0 0.376-0.002 0.563-0.007l6.1 0.001c0.196 0.006 0.426 0.010 0.657 0.010 11.868 0 21.544-9.383 22.014-21.135zM171.088 663.872c0 17.673-14.327 32-32 32h-107.088c-17.673 0-32-14.327-32-32s14.327-32 32-32h107.088c17.673 0 32 14.327 32 32zM334.32 792c17.673 0 32 14.327 32 32v104c0 17.673-14.327 32-32 32s-32-14.327-32-32v-104c0-17.673 14.327-32 32-32zM192.784 746.496c5.732-5.475 13.516-8.844 22.087-8.844 17.673 0 32 14.327 32 32 0 8.913-3.644 16.975-9.523 22.777l-75.747 73.507c-5.802 5.86-13.848 9.488-22.742 9.488-17.673 0-32-14.327-32-32 0-9.24 3.916-17.565 10.179-23.407zM494.848 663.872c0-17.673 14.327-32 32-32h107.088c17.673 0 32 14.327 32 32s-14.327 32-32 32h-107.088c-17.673 0-32-14.327-32-32zM450.88 737.472c0.018 0 0.039 0 0.060 0 8.648 0 16.491 3.442 22.235 9.031l75.737 73.593c5.453 5.728 8.808 13.496 8.808 22.049 0 17.673-14.327 32-32 32-8.242 0-15.756-3.116-21.428-8.234l-75.684-73.479c-6.002-5.823-9.727-13.965-9.727-22.976 0-17.673 14.327-32 32-32 0.005 0 0.010 0 0.015 0z" />
<glyph unicode="&#xe926;" glyph-name="home" d="M512 863.2l-469.344-469.344 31.2-31.2 96.8 96.8v-438.144h682.656v438.176l96.864-96.864 31.136 31.136-469.344 469.376zM597.344 64h-170.656v298.656h170.656v-298.656zM810.656 64h-170.656v341.344h-256v-341.344h-170.656v438.144l298.656 298.656 298.656-298.656v-438.144z" />
<glyph unicode="&#xe927;" glyph-name="homepage" d="M1016.256 440.544l-504.256 471.456-504.224-470.080c-5.059-4.497-8.231-11.022-8.231-18.288 0-13.493 10.939-24.432 24.432-24.432 6.681 0 12.736 2.682 17.146 7.027l470.877 438.925 470.88-440.272c4.396-4.278 10.407-6.917 17.034-6.917 13.493 0 24.432 10.939 24.432 24.432 0 7.184-3.101 13.644-8.037 18.114l-0.021 0.019zM1016.288 440.528l-153.872-9.68c-13.491 0-24.43-10.928-24.448-24.414v-374.402h-195.6v260.432h-260.8v-260.496h-195.504v374.4c0 13.502-10.946 24.448-24.448 24.448s-24.448-10.946-24.448-24.448v-423.232h293.344v260.496h162.976v-260.496h293.344v423.296c-0.009 13.487-10.944 24.416-24.432 24.416v0zM691.2 780.896h146.672v-130.24c0-13.502 10.946-24.448 24.448-24.448s24.448 10.946 24.448 24.448v179.088h-195.568c-13.489 0-24.424-10.935-24.424-24.424s10.935-24.424 24.424-24.424v0z" />
<glyph unicode="&#xe928;" glyph-name="HXB" d="M364.416 815.712c50.080 42.080 110.112 76.032 184.192 96.096 46.112 14.016 92.128 18.080 136.192 18.080 1.984-1.984 14.016-40.096 28.032-48.096 14.016-6.016 70.112 9.984 96.096-26.080 12.032-24-6.016-34.080 9.984-48.096 102.112-60.032 120.192 14.016 160.192-54.016 17.984-58.080-70.112-46.016-92.128-110.112-6.016 12.032-30.016 24-38.016 30.016-72.096 44.032-156.128 62.112-242.272 38.016-168.192-48-268.224-218.176-224.192-386.368s216.288-266.368 384.48-220.224c50.080 14.016 110.112 46.016 146.176 78.112 30.016 22.016 56.096 60.032 82.080 72.096 0 0-17.984-22.016-22.016-38.016 0 0 8-1.984 24 12.032 16 16 26.080 44.032 26.080 44.032-1.984-9.984 6.016-36.032-24-72.096-17.984-24-36.032-42.080-34.080-42.080 6.016 1.984 16 9.984 30.016 17.984 12.032 8 28.032 38.016 28.032 38.016 0-14.016-20.032-70.112-44.032-100.128-38.016-52.032-84.128-86.112-84.128-86.112-24-17.984-48.096-34.080-94.112-48.096-258.368-64.096-520.672 88.096-590.688 342.4-16 60.032-16 128.192-12.032 192.192 0 0-46.016-28.032-102.112-28.032-58.080 0.096-96.096 46.112-96.096 100.224 0 50.080 58.080 116.128 58.080 112.096 0-1.984-4.032-56.096 50.080-58.080 108.128 9.984 160.192 94.112 242.272 164.224l14.016 9.984zM596.704 525.376h232.288c26.080 0 48.096-22.016 48.096-48.096v-146.176c0-26.080-22.016-48.096-48.096-48.096h-232.288c-26.080 0-48.096 22.016-48.096 48.096v146.272c0 28.032 22.016 48 48.096 48v0 0z" />
<glyph unicode="&#xe929;" glyph-name="ICBC" d="M103.2 447.008l3.488-41.792 3.488-38.4 10.496-41.888 13.888-34.912 17.504-38.304 20.992-31.488 10.496-17.408 14.016-14.016 24.416-31.392 62.816-48.8 34.912-20.992 34.912-17.504 38.4-14.016 38.4-10.4 20.896-3.488 20.896-3.616h83.712l38.304 7.008 41.888 10.4 35.008 14.016 38.304 17.504 31.392 20.992 17.408 10.4 14.112 13.888 31.392 24.384 24.384 31.392 24.512 31.392 20.896 31.488 17.408 38.304 14.112 34.912 10.496 41.888 3.392 17.504 3.616 20.896v83.904l-7.008 41.888-10.496 38.4-14.112 38.4-17.408 34.912-20.896 34.912-10.592 17.408-14.016 14.112-24.384 27.808-31.392 27.904-31.392 24.416-31.392 20.896-38.304 17.504-35.008 14.016-41.888 10.496-17.408 3.488h-20.896l-20.992 3.488h-20.896l-83.712-7.008-38.4-10.496-38.4-14.016-34.912-17.504-52.384-31.296-14.016-14.016-31.392-27.904-24.416-27.808-24.416-31.488-20.992-34.912-17.504-34.912-13.888-38.4-10.496-38.4-3.488-20.992v-20.896l-3.488-20.992 0.096-20.896zM2.016 447.008l3.488 52.384 3.488 27.904 3.488 24.384 14.016 48.896 7.008 24.384 10.496 20.992 10.496 24.384 10.496 20.992 24.512 41.792 13.888 20.992 17.504 20.896 31.392 34.784 17.504 17.504 17.504 14.016 20.896 17.408 41.792 28 20.992 10.4 44.992 20.992 45.408 17.504 24.512 6.912 24.384 7.008 24.384 3.488 27.904 3.488 52.288 3.392 52.384-3.392 48.8-7.008 73.312-20.992 24.384-10.4 20.896-10.496 20.896-10.4 45.312-24.416 17.408-14.016 20.896-17.408 34.912-31.488 17.408-17.408 17.504-17.408 14.112-20.896 13.888-20.992 13.888-20.896 10.4-20.896 24.512-45.408 17.408-45.408 3.488-24.384 6.912-24.512 3.488-24.384 3.488-27.904 3.488-52.416-3.488-52.288-3.488-24.384-3.488-24.512-10.496-48.896-10.496-24.384-6.912-24.512-10.496-20.896-14.016-20.896-24.384-45.408-13.888-17.408-14.112-20.992-34.912-34.912-16.896-17.504-17.504-17.504-20.896-13.888-17.408-13.888-20.896-14.016-24.384-10.4-41.888-24.512-48.896-17.504-24.384-6.912-24.512-3.616-48.8-7.008-52.384-3.392-52.288 3.392-27.904 3.488-24.384 3.488-48.896 10.496-24.512 10.496-20.992 7.008-24.384 10.304-20.896 14.112-41.888 24.288-41.792 27.808-52.416 52.512-13.888 17.408-17.504 20.992-13.888 17.408-14.016 20.992-10.496 24.384-20.896 41.792-17.504 49.088-7.008 24.512-7.008 24.384-3.488 24.512-3.488 24.384-3.392 52.192zM801.088 412.096v-226.816h-251.2v73.216h170.912v83.808h-170.912v226.816h170.912v76.896h-170.912v73.184h251.2v-226.816h-170.912v-76.8h170.912v-3.488zM225.408 412.096v-226.816h251.2v73.216h-171.008v83.808h171.104v226.816h-171.104v76.896h171.008v73.184h-251.2v-226.816h171.008v-76.8h-171.008v-3.488z" />
<glyph unicode="&#xe92a;" glyph-name="increase" d="M0.864 60.064h152.72v242.384l-152.72-118.144v-124.24zM730.976 840l124.336-114.528-310.608-250.768-210.848 168.4-333.856-258.144v-111.584l333.856 258.208 210.848-168.352 375.152 302.736 104.144-95.984v270.016h-293.024zM257.44 382.768v-322.704h152.736v320.8l-76.32 60.928-76.416-59.024zM770.656 60.064h152.784v519.072l-152.784-123.296v-395.776zM514.016 297.968v-237.904h152.784v311.936l-122.096-98.512-30.688 24.48z" />
<glyph unicode="&#xe92b;" glyph-name="info" d="M448 656c0 26.4 21.6 48 48 48h32c26.4 0 48-21.6 48-48v-32c0-26.4-21.6-48-48-48h-32c-26.4 0-48 21.6-48 48v32zM640 192h-256v64h64v192h-64v64h192v-256h64zM512 960c-282.784 0-512-229.216-512-512s229.216-512 512-512 512 229.216 512 512-229.216 512-512 512zM512 32c-229.76 0-416 186.24-416 416s186.24 416 416 416 416-186.24 416-416-186.24-416-416-416z" />
<glyph unicode="&#xe92c;" glyph-name="jydt" d="M946.864 177.6c-4.488-7.123-12.311-11.786-21.224-11.786-13.808 0-25.002 11.194-25.002 25.002 0 4.896 1.407 9.463 3.839 13.319 43.698 69.222 69.665 153.575 69.665 243.993 0 255.226-206.902 462.128-462.128 462.128s-462.128-206.902-462.128-462.128c0-255.226 206.902-462.128 462.128-462.128 109.144 0 209.451 37.837 288.52 101.11 3.372 2.872 8.946 5.047 15.027 5.047 13.785 0 24.96-11.175 24.96-24.96 0-8.043-3.804-15.197-9.712-19.762-86.419-69.079-197.22-110.825-317.771-110.825-282.204 0-510.976 228.772-510.976 510.976s228.772 510.976 510.976 510.976c282.204 0 510.976-228.772 510.976-510.976 0-100.012-28.733-193.313-78.394-272.099zM876.544 633.824c0.005 0.193 0.009 0.421 0.009 0.649 0 12.968-9.998 23.6-22.706 24.61l-181.99 14.15c-0.546 0.044-1.183 0.069-1.825 0.069-6.16 0-11.783-2.301-16.056-6.091-5.148-4.616-8.387-11.319-8.387-18.779 0-6.277 2.294-12.019 6.089-16.432 4.114-4.78 10.046-7.952 16.724-8.442l133.184-10.725-256.688-248.8-170.672 117.568c-1.024 3.2 2.368-2.656 0 0-4.477 5.038-10.973 8.197-18.207 8.197-6.359 0-12.148-2.441-16.481-6.436l-208.463-178.385c-4.885-4.589-7.929-11.090-7.929-18.302 0-6.405 2.4-12.25 6.35-16.683 4.457-5.009 10.953-8.165 18.187-8.165 6.274 0 11.993 2.374 16.309 6.273l190.779 166.893 178.032-125.024c4.126-3.325 9.432-5.337 15.208-5.337 7.829 0 14.795 3.697 19.247 9.441 2.809 3.64-0.567-4.136 0.041 0.056l261.248 257.072-8.784-125.616c-0.031-0.465-0.048-1.007-0.048-1.554 0-6.575 2.537-12.558 6.687-17.021 4.45-4.793 10.806-7.793 17.862-7.793 0.010 0 0.019 0 0.029 0 13.093 0.094 23.757 10.368 24.476 23.296l11.843 176.304c0.022 0.394 0.035 0.855 0.035 1.318 0 5.112-1.53 9.866-4.157 13.831l0.058-0.093z" />
<glyph unicode="&#xe92d;" glyph-name="lock" horiz-adv-x="768" d="M736 547.52h-15.168c0 32.96 0 79.632 0 80.272-3.521 183.32-152.958 330.579-336.79 330.579-184.265 0-333.974-147.955-336.807-331.545l-0.003-79.306h-15.232c-17.673 0-32-14.327-32-32v-547.52c0-17.673 14.327-32 32-32h704c17.673 0 32 14.327 32 32v547.52c0 17.673-14.327 32-32 32zM111.168 626.304c2.605 148.684 123.748 268.215 272.809 268.215 148.735 0 269.673-119.009 272.787-266.997 0.005-2.386 0.005-47.73 0.005-79.986h-545.6zM704 0h-640v483.52h640zM314.208 107.36c0-17.673 14.327-32 32-32h75.6c17.673 0 32 14.327 32 32v103.392c25.481 20.594 41.64 51.846 41.64 86.873 0 61.547-49.893 111.44-111.44 111.44s-111.44-49.893-111.44-111.44c0-35.026 16.159-66.278 41.429-86.708zM384 344.176c0.159 0.002 0.346 0.003 0.534 0.003 25.9 0 46.896-20.996 46.896-46.896 0-17.857-9.981-33.384-24.669-41.304-10.283-5.655-16.967-16.164-16.969-28.235v-88.384h-11.6v88.384c-0.002 12.071-6.686 22.58-16.555 28.029-15.102 8.127-25.083 23.653-25.083 41.511 0 25.9 20.996 46.896 46.896 46.896 0.194 0 0.387-0.001 0.58-0.004z" />
<glyph unicode="&#xe92e;" glyph-name="notification" d="M512 864c-111.104 0-215.584-43.264-294.144-121.856s-121.856-183.040-121.856-294.144c0-111.104 43.264-215.584 121.856-294.144s183.040-121.856 294.144-121.856c111.104 0 215.584 43.264 294.144 121.856s121.856 183.040 121.856 294.144c0 111.104-43.264 215.584-121.856 294.144s-183.040 121.856-294.144 121.856zM512 960v0c282.784 0 512-229.216 512-512s-229.216-512-512-512c-282.784 0-512 229.216-512 512s229.216 512 512 512zM448 256h128v-128h-128zM448 768h128v-384h-128z" />
<glyph unicode="&#xe92f;" glyph-name="person" d="M920.096 39.52c0-22.624-18.336-40.448-40.992-40.96-34.208-0.768-42.144 41.472-42.144 41.472-19.424 158.688-152.064 282.144-314.848 287.328-3.488-0.128-6.976-0.512-10.496-0.512s-6.976 0.384-10.464 0.512c-162.752-5.216-295.36-128.64-314.784-287.328 0 0-4.48-41.472-41.952-41.472-22.624 0-40.96 18.336-40.96 40.96 0 0 0.736 14.368 2.624 19.072 20.576 143.392 114.88 262.848 243.616 318.304-75.648 51.744-125.344 138.656-125.344 237.216 0 158.656 128.608 287.264 287.232 287.264s287.264-128.64 287.264-287.264c0-98.528-49.696-185.408-125.28-237.184 129.952-55.936 224.96-177.12 244.32-322.336 1.056-3.616 1.792-7.328 1.792-11.296l0.416-3.808zM716.704 614.016c0 113.344-91.84 205.184-205.184 205.184s-205.184-91.84-205.184-205.184 91.872-205.216 205.184-205.216c113.344 0.032 205.184 91.904 205.184 205.216v0z" />
<glyph unicode="&#xe930;" glyph-name="plus" d="M470.272 912.896c37.184-0.032 74.368 0.032 111.584-0.032 0.032-130.304 0-260.544 0-390.848 130.304-0.064 260.608 0.032 390.912-0.064 0-37.184 0-74.368 0-111.552-130.304-0.096-260.608 0-390.88-0.064-0.096-130.304 0.032-260.576-0.064-390.88-37.184 0-74.368 0-111.552 0-0.096 130.304 0 260.576-0.032 390.88-130.304 0.096-260.576-0.032-390.88 0.064-0.032 37.184-0.032 74.368-0.032 111.552 130.336 0.096 260.608-0.032 390.912 0.064 0 130.304-0.032 260.576 0.032 390.88z" />
<glyph unicode="&#xe931;" glyph-name="price" d="M512 960c-282.77 0-512-229.23-512-512s229.23-512 512-512c282.77 0 512 229.23 512 512s-229.23 512-512 512zM690.112 507.088c16.189-0.387 29.165-13.602 29.165-29.848s-12.976-29.461-29.129-29.847l-149.348-0.001v-119.392h149.232c16.485 0 29.848-13.363 29.848-29.848s-13.363-29.848-29.848-29.848h-149.232v-89.6q0-0.688 0-1.376c-0.421-16.162-13.622-29.103-29.846-29.103-16.489 0-29.856 13.367-29.856 29.856 0 0.219 0.002 0.437 0.007 0.655l-0.001 89.568h-149.152c-16.485 0-29.848 13.363-29.848 29.848s13.363 29.848 29.848 29.848h149.232v119.392h-149.232c-16.189 0.387-29.165 13.602-29.165 29.848s12.976 29.461 29.129 29.847l149.252 0.001v19.68l-170.768 170.832c-4.927 5.084-7.963 12.025-7.963 19.675 0 15.623 12.665 28.288 28.288 28.288 7.65 0 14.591-3.037 19.683-7.97l159.993-159.993 161.76 161.76c5.27 5.27 12.55 8.529 20.592 8.529 16.083 0 29.121-13.038 29.121-29.121 0-8.042-3.26-15.322-8.529-20.592l-172.544-172.576v-18.512z" />
<glyph unicode="&#xe932;" glyph-name="PSBC" d="M94.304 391.296l-4.896-28.096h148.288l6.592 28.096h-150.016zM471.616 363.2l4.992 28.096h-168.096l-6.592-28.096h169.696zM565.504 504.896l-23.104-113.6-6.592-28.096-23.008-113.792h-234.016l-4.896-26.304h273.504l36.288 168.192 23.008 113.6h328l-24.704-113.6h-262.016l-59.392-281.792h-339.488l-4.896-26.496h380.608l36.288 166.4 23.008 113.792h220.896l-23.008-113.792h-156.704l-34.496-166.4-24.704-113.6h-510.912l59.296 280.096h-214.208l24.704 113.792 4.896 28.096 24.704 113.6h212.704l59.392 280h234.016l29.6 141.6h433.408l-24.8-113.6h-369.088l-4.992-27.904-23.008-113.792h-234.016l-6.592-26.304h275.2l4.992 26.304 24.704 113.696h327.904l-24.704-113.792h-262.016l-29.696-140h-339.392l-6.592-26.304h233.888z" />
<glyph unicode="&#xe933;" glyph-name="qrcode" d="M320 896h-256v-256h256v256zM384 960v0-384h-384v384h384zM128 832h128v-128h-128zM960 896h-256v-256h256v256zM1024 960v0-384h-384v384h384zM768 832h128v-128h-128zM320 256h-256v-256h256v256zM384 320v0-384h-384v384h384zM128 192h128v-128h-128zM448 960h64v-64h-64zM512 896h64v-64h-64zM448 832h64v-64h-64zM512 768h64v-64h-64zM448 704h64v-64h-64zM512 640h64v-64h-64zM448 576h64v-64h-64zM448 448h64v-64h-64zM512 384h64v-64h-64zM448 320h64v-64h-64zM512 256h64v-64h-64zM448 192h64v-64h-64zM512 128h64v-64h-64zM448 64h64v-64h-64zM512 0h64v-64h-64zM960 448h64v-64h-64zM64 448h64v-64h-64zM128 512h64v-64h-64zM0 512h64v-64h-64zM256 512h64v-64h-64zM320 448h64v-64h-64zM384 512h64v-64h-64zM576 448h64v-64h-64zM640 512h64v-64h-64zM704 448h64v-64h-64zM768 512h64v-64h-64zM832 448h64v-64h-64zM896 512h64v-64h-64zM960 320h64v-64h-64zM576 320h64v-64h-64zM640 384h64v-64h-64zM704 320h64v-64h-64zM832 320h64v-64h-64zM896 384h64v-64h-64zM960 192h64v-64h-64zM576 192h64v-64h-64zM640 256h64v-64h-64zM768 256h64v-64h-64zM832 192h64v-64h-64zM896 256h64v-64h-64zM960 64h64v-64h-64zM640 128h64v-64h-64zM704 64h64v-64h-64zM768 128h64v-64h-64zM832 64h64v-64h-64zM640 0h64v-64h-64zM768 0h64v-64h-64zM896 0h64v-64h-64z" />
<glyph unicode="&#xe934;" glyph-name="recharge-step1" d="M182.016 658.816h540v-60.256h-540v60.256zM182.016 478.112h210.016v-60.224h-210.016v60.256zM574.496 41.408l-205.216 241.472 33.024 34.496 172.192-202.048 384.448 399.2 33.024-34.528zM812 146.816l-1.6-112.256c0-27.104-2.432-38.4-28.384-38.4h-660.032c-25.952 0-30.016 3.008-30.016 30.112v843.36c0 27.104 4.064 30.112 30.016 30.112h630.016c25.952 0 60-3.008 60-30.112v-361.408h60v361.408c0 54.208-56.896 90.368-108.8 90.368h-636.8c-52.416-1.344-94.432-44.16-94.432-96.8 0-0.64 0-1.248 0.032-1.888v-826.784c0-0.544 0-1.152 0-1.76 0-52.64 41.984-95.456 94.304-96.768h636.928c51.904 0 108.8 36.16 108.8 90.336v120.48h-60z" />
<glyph unicode="&#xe935;" glyph-name="recharge-step2" d="M508.8-64c-282.496 0.352-511.36 229.44-511.36 512 0 282.784 229.216 512 512 512 0.224 0 0.448 0 0.672 0 0.16 0 0.384 0 0.608 0 133.024 0 254.080-51.36 344.352-135.36 4-3.872 6.688-9.664 6.688-16.128 0-12.544-10.176-22.72-22.72-22.72-5.76 0-11.040 2.144-15.072 5.696-82.528 75.744-193.056 122.208-314.464 122.208-257.184 0-465.696-208.512-465.696-465.696s208.512-465.696 465.696-465.696c257.184 0 465.696 208.48 465.696 465.696 0 0.896 0 1.984 0 3.072 0 38.176-4.672 75.264-13.472 110.72-0.032-1.056-0.416 1.312-0.416 3.808 0 12.8 10.368 23.168 23.168 23.168 11.168 0 20.48-7.872 22.688-18.4 9.024-35.264 14.176-75.584 14.176-117.088 0-1.856 0-3.712-0.032-5.536-1.44-282.112-230.112-510.592-512.448-511.712h-0.096zM529.312 258.88l-207.712 208.384c-5.12 5.088-8.288 12.16-8.288 19.936 0 15.552 12.608 28.192 28.192 28.192 7.776 0 14.816-3.136 19.904-8.224l167.872-168.544 447.232 448.96c5.088 5.056 12.096 8.192 19.872 8.192 15.552 0 28.16-12.608 28.16-28.16 0-7.808-3.168-14.848-8.288-19.936l-486.976-488.832z" />
<glyph unicode="&#xe936;" glyph-name="recharge-step3" d="M20.48 427.52v0c14.496 0 32.096 6.080 32.096 20.48 0 0 0 0 0 0.032 0 253.76 205.728 459.488 459.488 459.488 175.936 0 328.768-98.88 407.232-246.688 4.352-8.512 13.184-14.368 23.424-14.368 14.496 0 26.24 11.744 26.24 26.24 0 4.64-1.216 8.992-4.576 15.424-86.016 161.824-256.352 272-452.384 272-282.784 0-512-229.216-512-512 0-0.032 0-0.096 0.032 0-0.224-1.12-0.352-2.304-0.352-3.488 0-9.632 7.808-17.44 17.44-17.44 1.184 0 2.368 0.128 3.36 0.32zM512-64h0.096c279.872 1.024 507.008 225.76 511.904 505.184l-0.032 6.72c0.224 1.12 0.352 2.304 0.352 3.488 0 9.632-7.808 17.44-17.44 17.44-1.216 0-2.4-0.128-3.424-0.352-14.496 0-32.096-5.984-32.096-20.48v-6.496c-3.456-250.752-207.808-452.992-459.392-452.992-157.92 0-297.216 79.68-380.992 202.688-4.736 6.752-12.608 11.168-21.504 11.168-14.496 0-26.272-11.744-26.272-26.24 0-5.344 1.6-10.336 5.44-16.16 92.064-135.2 247.264-223.968 423.168-223.968 0.064 0 0.128 0 0.16 0zM601.6 399.136c-7.584 0-14.4 3.232-19.168 8.384l-159.584 172.832-152.512-149.6c-5.12-2.4-11.104-3.776-17.408-3.776-2.464 0-4.896 0.224-7.264 0.64l-225.152-0.032c-0.896-0.16-1.888-0.256-2.944-0.256-9.856 0-17.856 8-17.856 17.856 0 1.216 0.128 2.368 0.352 3.52-0.224 0.864-0.352 2.016-0.352 3.168 0 9.44 7.648 17.088 17.056 17.088 1.312 0 2.592-0.16 3.84-0.448l225.152 0.032 159.52 168.32c4.896 4.608 11.52 7.456 18.816 7.456 0.064 0 0.16 0 0.224 0 7.36-0.16 13.952-3.392 18.592-8.416l177.888-192.64c4.32-4.672 6.944-10.912 6.944-17.792 0-14.464-11.712-26.208-26.144-26.272v0zM580.16 255.616c0 0 0 0 0 0-7.328 0-13.952 3.008-18.72 7.872l-188.928 192c-4.416 4.672-7.104 11.008-7.104 17.952 0 14.496 11.744 26.24 26.272 26.24 7.104 0 13.568-2.816 18.304-7.424l170.528-173.344 136.288 129.056c11.808 8.096 25.344 15.008 39.744 20.096l246.976 0.384c1.12 0.256 2.432 0.416 3.744 0.416 9.408 0 17.056-7.648 17.056-17.056 0-1.152-0.128-2.304-0.352-3.392-0.096-13.952-11.52-25.28-25.568-25.28-0.224 0-0.448 0-0.704 0l5.888 4.352h-245.856l-159.36-164.096c-4.704-4.704-11.168-7.648-18.304-7.808h-0.032z" />
<glyph unicode="&#xe937;" glyph-name="record" horiz-adv-x="897" d="M710.4 585.872h-519.744c-0.181 0.005-0.394 0.008-0.608 0.008-12.742 0-23.072-10.33-23.072-23.072s10.33-23.072 23.072-23.072c0.214 0 0.427 0.003 0.639 0.009l519.713-0.001c0.181-0.005 0.394-0.008 0.608-0.008 12.742 0 23.072 10.33 23.072 23.072s-10.33 23.072-23.072 23.072c-0.214 0-0.427-0.003-0.639-0.009zM190.656 360.368h368.496c13.131 1.266 23.315 12.244 23.315 25.6s-10.184 24.334-23.21 25.592l-368.601 0.008c-13.131-1.266-23.315-12.244-23.315-25.6s10.184-24.334 23.21-25.592zM625.264 232.24h-434.608c-13.131-1.266-23.315-12.244-23.315-25.6s10.184-24.334 23.21-25.592l434.713-0.008c13.131 1.266 23.315 12.244 23.315 25.6s-10.184 24.334-23.21 25.592zM779.024 832.896h-95.072c-8.528 31.569-33.7 55.632-65.288 62.426-11.073 37.641-44.979 64.714-85.208 64.714-0.878 0-1.753-0.013-2.624-0.038l-164.896 0.003c-0.612 0.015-1.334 0.024-2.057 0.024-40.331 0-74.347-27.038-84.911-63.977-32.316-7.58-57.504-31.606-66.025-62.541l-95.071-0.61c-65.095-0.009-117.863-52.777-117.872-117.871v-661.153c0.009-65.095 52.777-117.863 117.871-117.872h661.153c65.018 0.199 117.672 52.853 117.872 117.853v661.171c-0.009 65.095-52.777 117.863-117.871 117.872zM299.824 850.832c12.955 0.152 23.416 10.613 23.568 23.554 0.403 21.928 18.262 39.537 40.234 39.537 0.813 0 1.62-0.024 2.421-0.072l164.914 0.005c0.807 0.058 1.748 0.091 2.696 0.091 21.723 0 39.387-17.379 39.847-38.992 0.199-12.819 10.602-23.099 23.406-23.099 0.057 0 0.114 0 0.171 0.001 0.919 0.078 2 0.122 3.090 0.122 21.462 0 38.923-17.137 39.444-38.473-0.555-21.194-17.83-38.124-39.058-38.124-1.227 0-2.44 0.057-3.638 0.167l-297.094-0.011c-1.161-0.124-2.508-0.194-3.872-0.194-20.974 0-38.049 16.69-38.67 37.513 0.555 21.203 17.829 38.133 39.058 38.133 1.227 0 2.44-0.057 3.638-0.167zM849.744 53.872c-0.082-39.025-31.695-70.638-70.712-70.72h-661.16c-39.025 0.082-70.638 31.695-70.72 70.712v661.16c0.082 39.025 31.695 70.638 70.712 70.72h96.104c11.758-35.982 45.021-61.518 84.249-61.518 0.56 0 1.118 0.005 1.675 0.016l297.18-0.001c0.57-0.013 1.242-0.021 1.916-0.021 39.179 0 72.39 25.552 83.877 60.901l96.175 0.624c39.025-0.082 70.638-31.695 70.72-70.712z" />
<glyph unicode="&#xe938;" glyph-name="sfrz" d="M585.136 527.792h295.152v-51.072h-295.152v51.072zM674.976 152.416l-2.576 2.56h-580c-0.186-0.003-0.406-0.005-0.626-0.005-22.339 0-40.448 18.109-40.448 40.448 0 0.142 0.001 0.285 0.002 0.427v536.234c-0.005 0.237-0.007 0.516-0.007 0.797 0 23.001 18.211 41.748 41.001 42.609l826.446 0.002c0.186 0.003 0.406 0.005 0.626 0.005 22.339 0 40.448-18.109 40.448-40.448 0-0.154-0.001-0.307-0.003-0.46v-321.705l2.56-2.56c14.019-8.29 25.924-18.482 35.821-30.402l10.435-13.022v377.952c-0.344 43.733-35.831 79.063-79.592 79.152h-849.512c-43.748-0.116-79.208-35.436-79.552-79.119v-561.809c0.344-43.716 35.804-79.036 79.541-79.152h628.811l-7.696 10.208c-8.724 11.129-17.21 23.635-24.829 36.708zM585.136 415.44h87.248v-51.072h-87.248v51.072zM585.136 637.6h295.152v-51.072h-295.152v51.072zM854.608 407.776c-0.653 0.009-1.425 0.014-2.198 0.014-92.333 0-167.184-74.851-167.184-167.184 0-0.483 0.002-0.966 0.006-1.448 1.087-92.858 76.374-167.848 169.317-168.454 0.546-0.005 1.123-0.008 1.7-0.008 93.084 0 168.544 75.46 168.544 168.544s-75.46 168.544-168.544 168.544c-0.577 0-1.154-0.003-1.73-0.009zM852.048 137.12c-4.545-3.595-10.359-5.766-16.68-5.766s-12.135 2.172-16.737 5.81l-71.799 71.445c-3.584 4.066-5.772 9.437-5.772 15.32s2.188 11.254 5.794 15.345c4.524 3.567 10.338 5.737 16.658 5.737s12.134-2.17 16.737-5.805l56.407-56.133 110.4 107.2c4.545 3.595 10.359 5.766 16.68 5.766s12.135-2.172 16.737-5.81c3.528-4.023 5.716-9.394 5.716-15.277s-2.188-11.254-5.794-15.345zM105.936 270.8h54.4c0 90.195 73.117 163.312 163.312 163.312s163.312-73.117 163.312-163.312h54.4c0 0.019 0 0.041 0 0.064 0 87.337-51.412 162.667-125.623 197.375 26.552 25.589 44.015 61.75 44.015 101.99 0 75.164-60.932 136.096-136.096 136.096s-136.096-60.932-136.096-136.096c0-40.239 17.464-76.4 45.225-101.316-75.43-35.383-126.849-110.72-126.849-198.066 0-0.016 0-0.032 0-0.049zM323.68 651.856c45.066 0 81.6-36.534 81.6-81.6s-36.534-81.6-81.6-81.6c-45.066 0-81.6 36.534-81.6 81.6s36.534 81.6 81.6 81.6z" />
<glyph unicode="&#xe939;" glyph-name="shezhi" d="M1005.2 552.336l-121.6 28.608c-0.48 1.264-0.976 2.512-1.472 3.76l80.192 125.888-168.528 161.808-16.192-10.24-102.4-64.512q-4.48 1.984-9.008 3.84l-26.144 123.2-3.968 19.312h-235.392l-4.592-18.528-29.552-119.376-127.664 77.232-165.904-164.272 11.088-16.656 65.744-99.056c-0.576-1.232-1.104-2.48-1.6-3.728l-148.208-34.912v-230.912l141.168-28.48c0.464-1.2 0.96-2.384 1.44-3.568l-81.664-130.272 166.928-162.752 125.104 80.112 0.56-0.224 35.712-144.208h235.344l4.096 19.312 25.088 118.208 3.040 1.184 133.344-79.456 166.96 162.8-81.328 120.672 148.208 29.872v230.912zM782.944 64.704l-122.032 72.704-11.344-4.8c-8-3.376-16.256-6.4-24.544-9.216l-13.232-4.416-2.896-13.648-23.824-112.24h-157.712l-32.56 131.52-11.792 4.576c-7.36 2.864-14.64 5.984-21.824 9.328l-12.176 5.696-114.832-73.568-110.976 108.256 74.384 118.704-5.28 11.856c-3.664 8.24-7.008 16.656-10 25.168l-4.592 13.088-128.944 26v152.384l134.688 31.68 4.8 11.632c3.424 8.4 7.216 16.672 11.328 24.768l6.4 12.672-7.856 11.84-62.4 93.904 110.4 109.312 117.104-70.848 11.424 4.8q9.92 4.144 20.128 7.696l12.48 4.336 3.2 12.8 28.368 114.544h157.728l27.536-129.712 12.544-4.688c10.192-3.808 20.208-8 29.984-12.8l12.176-5.872 108.752 68.56 112.192-107.664-72.592-113.872 5.232-11.92c3.6-8.192 6.88-16.576 9.808-25.040l4.384-12.688 128.592-30.272v-152.384l-135.056-27.232-4.976-12q-4.448-10.72-9.6-21.216l-6.4-12.8 8-11.792 66.752-99.024zM524.192 651.424c-114.397-0.072-207.105-92.826-207.105-207.232 0-114.451 92.781-207.232 207.232-207.232 30.385 0 59.243 6.539 85.242 18.288 6.589 3.617 11.881 11.757 11.881 21.133 0 13.467-10.917 24.384-24.384 24.384-3.088 0-6.042-0.574-8.761-1.621-18.675-8.496-40.691-13.481-63.872-13.481-87.394 0-158.24 70.846-158.24 158.24s70.846 158.24 158.24 158.24c87.394 0 158.24-70.846 158.24-158.24 0-11.984-1.332-23.658-3.857-34.88-0.23-0.655-0.476-2.621-0.476-4.644 0-13.467 10.917-24.384 24.384-24.384 11.799 0 21.64 8.38 23.897 19.512 3.076 13.486 4.824 28.793 4.824 44.509 0 114.491-92.767 207.315-207.237 207.408z" />
<glyph unicode="&#xe93a;" glyph-name="SPDB" d="M666.688 551.84l3.968 3.968c65.856 53.888 145.696 47.904 171.712 45.888-10.016 29.984-57.856 133.728-199.584 133.728-79.84 0-131.712-41.952-161.696-77.824-35.968-41.952-43.872-91.776-45.888-117.824-11.968-121.76-77.824-181.632-83.872-187.616-73.856-59.872-147.712-51.872-175.648-45.888 11.968-31.904 63.904-137.76 203.616-133.728 55.904 2.016 105.76 23.904 145.696 63.904 45.888 45.888 55.904 117.824 57.856 139.712 12.032 99.776 61.888 155.712 83.872 175.648zM1018.016 751.424c0 23.904-17.952 37.888-17.952 37.888l-109.824 83.872c0 0-21.984 17.952-21.984-10.016 0-95.84 0-337.344 0-337.344s0-3.968 0-8c0-25.952-5.984-101.824-71.84-157.728-79.84-67.776-163.712-61.824-193.6-57.76 16-31.904 75.872-133.728 209.6-133.728 123.776 0 207.584 109.824 207.584 211.616-2.016-2.112-2.016 193.504-2.016 371.2zM221.568 543.84c79.84 67.872 165.632 61.888 195.616 55.904-16 31.904-75.872 133.728-209.6 133.728-123.712 1.952-207.584-107.776-207.584-209.6v-377.248c0-23.904 17.952-37.888 17.952-37.888l109.824-83.872c0 0 21.984-17.952 21.984 10.016v341.312c0 0 0 3.968 0 8 0 25.952 5.984 101.728 71.84 159.648z" />
<glyph unicode="&#xe93b;" glyph-name="success" d="M479.84 288.832c-7.182 0.713-13.706 3.001-19.395 6.512l-159.805 128.176c-7.837 5.909-12.851 15.201-12.851 25.664 0 17.701 14.35 32.051 32.051 32.051 7.238 0 13.916-2.399 19.281-6.446l137.519-108.997 204.8 234.144c5.867 6.856 14.529 11.173 24.199 11.173 17.558 0 31.792-14.234 31.792-31.792 0-8.102-3.030-15.495-8.019-21.11l-223.972-256.56c-5.292-7.798-14.115-12.854-24.119-12.854-0.521 0-1.039 0.014-1.553 0.041zM950.4 609.6v0c0.034 0 0.075 0 0.116 0 17.461 0 31.616 14.155 31.616 31.616 0 4.825-1.081 9.397-3.014 13.489-21.63 51.499-49.611 96.001-83.63 135.113-5.38 6.056-13.946 10.232-23.488 10.232s-18.108-4.176-23.971-10.8l-0.029-0.034c-5.222-5.97-8.406-13.837-8.406-22.448s3.185-16.478 8.44-22.488c27.976-33.453 52.529-71.401 72.151-112.171 6.094-14.643 17.096-22.511 29.934-22.511 0.099 0 0.197 0 0.295 0.001zM960 449.232c-0.574-246.99-200.93-446.992-447.999-446.992-247.424 0-448 200.576-448 448 0 247.367 200.485 447.908 447.83 448 0.994 0.008 2.159 0.013 3.325 0.013 89.563 0 172.685-27.581 241.334-74.713 3.816-2.669 10.326-4.824 17.339-4.824 8.822 0 16.848 3.41 22.831 8.983l-0.020-0.019c4.983 5.641 8.025 13.099 8.025 21.267 0 11.162-5.681 20.997-14.308 26.772-79.087 52.704-176.157 84.057-280.549 84.057-261.567 0-477.16-196.837-506.733-450.466-2.304-19.708-3.49-39.773-3.49-60.115 0-282.885 229.323-512.208 512.208-512.208s512.208 229.323 512.208 512.208c0 0.002 0 0.003 0 0.005-0.6 25.415-2.905 49.778-6.812 73.602-2.309 11.626-15.005 22.586-30.26 22.586-0.467 0-0.932-0.010-1.394-0.031l0.066 0.002c-0.332 0.013-0.723 0.020-1.115 0.020-17.205 0-31.152-13.947-31.152-31.152 0-1.434 0.097-2.846 0.285-4.229 4.209-15.103 6.639-32.631 6.639-50.727 0-3.543-0.093-7.064-0.277-10.561z" />
<glyph unicode="&#xe93c;" glyph-name="technology" d="M992 864h-960c-17.673 0-32-14.327-32-32v-767.904c0-17.673 14.327-32 32-32h960c17.673 0 32 14.327 32 32v767.904c0 17.673-14.327 32-32 32zM64 800h896v-165.216h-896zM960 96.096h-896v474.688h896zM196.672 717.296c0-16.171-13.109-29.28-29.28-29.28s-29.28 13.109-29.28 29.28c0 16.171 13.109 29.28 29.28 29.28s29.28-13.109 29.28-29.28zM310.64 717.296c0-16.171-13.109-29.28-29.28-29.28s-29.28 13.109-29.28 29.28c0 16.171 13.109 29.28 29.28 29.28s29.28-13.109 29.28-29.28zM424.592 717.296c0-16.171-13.109-29.28-29.28-29.28s-29.28 13.109-29.28 29.28c0 16.171 13.109 29.28 29.28 29.28s29.28-13.109 29.28-29.28z" />
<glyph unicode="&#xe93d;" glyph-name="tuichu" d="M1024 460.928c0 0.003 0 0.007 0 0.011 0 6.987-2.865 13.304-7.484 17.842l-182.644 182.676c-4.514 4.368-10.673 7.061-17.461 7.061-13.873 0-25.12-11.247-25.12-25.12 0-6.788 2.692-12.947 7.067-17.468l139.881-139.881h-558.4c-13.873 0-25.12-11.247-25.12-25.12s11.247-25.12 25.12-25.12h558.4l-139.84-139.888c-4.549-4.547-7.362-10.829-7.362-17.768 0-13.875 11.248-25.122 25.122-25.122 6.935 0 13.214 2.81 17.76 7.354l182.64 182.704c4.595 4.542 7.44 10.844 7.44 17.811 0 0.010 0 0.020 0 0.030zM694.4 218.208c-13.865 0-25.104-11.239-25.104-25.104 0-0.006 0-0.011 0-0.017v-73.919c-2.034-29.627-26.566-52.889-56.531-52.889-1.119 0-2.231 0.032-3.334 0.096l-499.496-0.007c-0.946-0.056-2.052-0.088-3.165-0.088-29.965 0-54.496 23.262-56.521 52.713l-0.010 657.92c2.034 29.626 26.566 52.888 56.531 52.888 1.114 0 2.22-0.032 3.317-0.096l499.512 0.007c0.951 0.057 2.062 0.089 3.181 0.089 29.965 0 54.497-23.262 56.521-52.713l0.010-83.376c-0.005-0.189-0.008-0.411-0.008-0.634 0-13.873 11.247-25.12 25.12-25.12s25.12 11.247 25.12 25.12c0 0.223-0.003 0.445-0.009 0.667l0.001 83.167c-2.032 57.386-49.042 103.136-106.737 103.136-1.125 0-2.246-0.017-3.362-0.052l-499.501 0.004c-0.953 0.031-2.074 0.048-3.199 0.048-57.695 0-104.706-45.75-106.732-102.951l-0.005-657.929c1.988-57.422 49.016-103.216 106.74-103.216 1.124 0 2.244 0.017 3.359 0.052l499.501-0.004c0.953-0.031 2.074-0.048 3.199-0.048 57.695 0 104.706 45.75 106.732 102.951l0.005 74.105c0 0.024 0 0.052 0 0.080 0 13.873-11.247 25.12-25.12 25.12-0.006 0-0.011 0-0.017 0z" />
<glyph unicode="&#xe93e;" d="M512 960c-282.77 0-512-229.23-512-512s229.23-512 512-512c282.77 0 512 229.23 512 512s-229.23 512-512 512zM512 896c247.424 0 448-200.576 448-448s-200.576-448-448-448c-247.424 0-448 200.576-448 448s200.576 448 448 448z" />
<glyph unicode="&#xe93f;" d="M485.216 203.456h31.104v49.6c43.2 4.032 63.344 9.216 85.792 23.616 30.794 19.932 50.884 54.112 50.884 92.984 0 2.316-0.071 4.616-0.212 6.897 0.161 1.689 0.244 4.023 0.244 6.378 0 33.050-16.339 62.284-41.381 80.065-19.887 14.605-42.911 23.245-95.311 35.405v153.712c21.047-1.141 39.9-9.7 54.175-23.083 15.353-13.977 25.447-33.591 27.010-55.563l46.655 8.374c-3.543 28.265-16.533 52.985-35.657 71.371-23.079 22.437-45.527 31.717-92.167 36.837v28.8h-31.136v-28.224c-29.571-1.002-56.876-9.877-80.129-24.58-28.648-18.742-47.745-51.379-47.745-88.476 0-0.951 0.013-1.899 0.037-2.843-0.034-0.783-0.052-1.868-0.052-2.957 0-33.907 17.251-63.785 43.455-81.336 24.517-14.869 52.865-25.397 83.157-30.015l1.277-168.832c-0.463-0.008-1.008-0.013-1.555-0.013-25.672 0-48.928 10.344-65.828 27.092-15.545 16.121-21.881 32.825-24.761 66.233l-47.792-7.488c6.912-43.2 16.704-65.6 37.424-86.4 23.616-22.4 48.944-32.256 102.496-37.44v-50.112zM485.216 503.52c-16.065 2.866-30.36 7.262-43.852 13.156-22.856 8.762-39.652 31.711-39.652 58.583 0 0.497 0.006 0.992 0.017 1.486-0.002 0.077-0.003 0.256-0.003 0.434 0 22.604 10.519 42.751 26.929 55.813 15.87 11.404 35.34 18.421 56.41 19.115l0.167-148.588zM516.32 454.56c39.728-9.792 51.824-13.824 63.344-21.888 16.54-12.183 27.152-31.583 27.152-53.461 0-1.253-0.035-2.498-0.104-3.734 0.054-0.833 0.081-2.011 0.081-3.196 0-24.799-11.679-46.871-29.836-61.015-16.998-12.258-37.893-19.729-60.503-20.287l-0.134 163.581z" />
<glyph unicode="&#xe940;" glyph-name="wdzh" d="M514.176 432.976c0.726-0.585 1.606-1.011 2.569-1.209-2.073-0.007-4.185-0.167-6.361-0.167-0.099 0-0.217 0-0.335 0-98.969 0-179.2 80.231-179.2 179.2s80.231 179.2 179.2 179.2c98.969 0 179.2-80.231 179.2-179.2 0-60.565-30.045-114.112-76.044-146.55l-3.029 0.166v-2.208c0.832 0.56 1.696 1.072 2.512 1.6 129.776-32.176 221.904-151.328 221.904-266.464v-15.616h-639.28v15.632c0 95.504 88.176 203.104 165.568 228.528 2.882 1.262 6.24 1.997 9.77 1.997 7.242 0 13.761-3.092 18.311-8.028 1.297-2.49 2.049-5.416 2.049-8.517 0-5.82-2.647-11.021-6.802-14.467-57.935-36.825-127.551-100.585-136.303-176.713h16.816v-0.128l516.656 0.192c-8.256 115.76-118.032 211.392-263.088 211.392-0.006 0-0.013 0-0.020 0-0.496 0-0.982 0.047-1.452 0.136zM646.464 611.168c-0.336 74.812-61.060 135.328-135.919 135.328-75.067 0-135.92-60.853-135.92-135.92s60.853-135.919 135.919-135.92c0 0 0.001 0 0.001 0 75.067 0 135.92 60.853 135.92 135.92 0 0.208 0 0.416-0.001 0.624v-0.032zM946.704 177.488c-4.545-6.856-12.228-11.315-20.952-11.315-13.838 0-25.056 11.218-25.056 25.056 0 4.699 1.293 9.095 3.544 12.853l-0.063-0.114c43.852 69.466 69.875 153.992 69.875 244.596 0 255.73-207.31 463.040-463.040 463.040s-463.040-207.31-463.040-463.040c0-255.73 207.31-463.040 463.040-463.040 109.354 0 209.854 37.908 289.077 101.299 3.384 2.887 8.977 5.072 15.080 5.072 13.82 0 25.024-11.203 25.024-25.024 0-7.717-3.493-14.618-8.984-19.208l-0.792-0.64c-86.536-69.18-197.563-111.013-318.361-111.013-282.77 0-512 229.23-512 512s229.23 512 512 512c282.77 0 512-229.23 512-512 0-100.21-28.789-193.697-78.548-272.639z" />
<glyph unicode="&#xe941;" glyph-name="xiaoxi" d="M892.8 920h-892.8v-666.752c-0.002-0.272-0.003-0.594-0.003-0.917 0-72.689 58.605-131.69 131.142-132.331h136.925c14.447 0.365 26.019 12.163 26.019 26.664s-11.572 26.299-25.985 26.663l-136.898 0.001c-43.567 0.38-78.738 35.785-78.738 79.405 0 0.181 0.001 0.362 0.002 0.543v613.396h840.336c43.519-0.406 78.642-35.78 78.642-79.357 0-0.198-0.001-0.396-0.002-0.594v-613.394h-454.208l-6.592-4.416-224.72-150.88c-7.15-4.914-11.778-13.048-11.778-22.262 0-5.46 1.625-10.54 4.417-14.783 4.638-7.132 12.68-11.849 21.823-11.849 5.407 0 10.429 1.649 14.589 4.473l218.053 146.39h490.976v666.752c0.002 0.287 0.004 0.625 0.004 0.964 0 72.679-58.611 131.669-131.145 132.283zM262.56 626.672c-0.49 0.008-1.069 0.013-1.648 0.013-58.913 0-106.672-47.759-106.672-106.672s47.759-106.672 106.672-106.672c58.909 0 106.665 47.751 106.672 106.659 0.002 0.244 0.003 0.532 0.003 0.82 0 58.171-46.922 105.383-104.983 105.852zM262.56 466.672c-0.247-0.004-0.539-0.006-0.832-0.006-29.461 0-53.344 23.883-53.344 53.344s23.883 53.344 53.344 53.344c29.461 0 53.344-23.883 53.344-53.344 0-0.003 0-0.007 0-0.010 0.001-0.119 0.002-0.26 0.002-0.401 0-29.086-23.461-52.692-52.491-52.926zM630.16 520c-0.919 57.306-47.589 103.408-105.027 103.408-58.012 0-105.040-47.028-105.040-105.040s47.028-105.040 105.040-105.040c0.001 0 0.002 0 0.003 0 58.105 0.469 105.027 47.682 105.027 105.853 0 0.288-0.001 0.576-0.003 0.863zM472.624 520c0.459 28.648 23.791 51.696 52.506 51.696 29.002 0 52.512-23.51 52.512-52.512 0-28.999-23.507-52.508-52.505-52.512-29.060 0.226-52.53 23.835-52.53 52.926 0 0.141 0.001 0.282 0.002 0.423zM892.72 520c-0.919 57.306-47.589 103.408-105.027 103.408-58.012 0-105.040-47.028-105.040-105.040s47.028-105.040 105.040-105.040c0.001 0 0.002 0 0.003 0 58.105 0.469 105.027 47.682 105.027 105.853 0 0.288-0.001 0.576-0.003 0.863zM735.184 520c0.459 28.648 23.791 51.696 52.506 51.696 29.002 0 52.512-23.51 52.512-52.512 0-28.999-23.507-52.508-52.505-52.512-29.053 0.235-52.514 23.841-52.514 52.926 0 0.141 0.001 0.282 0.002 0.423z" />
<glyph unicode="&#xe942;" glyph-name="zfb" d="M173.568 289.184c0 0-8.896 108.288 109.76 115.68s264.032-72.672 264.032-72.672-84.544-124.576-225.472-132c-140.928-7.424-148.32 89.024-148.32 89.024zM673.44 367.776c48.96 62.304 72.672 195.808 72.672 195.808h-170.592v60.832h238.784v37.088h-238.784v103.84h-108.288v-103.84h-201.76v-37.088h201.76v-60.832h-178.016v-40.064l351.552 1.504c-16.32-57.856-51.904-129.056-51.904-129.056s-91.968 50.432-216.576 59.328c-186.88 13.344-235.84-83.072-238.816-135.008s0-170.56 186.912-183.904c186.88-13.376 299.616 157.216 299.616 157.216 17.28-9.28 282.976-136.288 338.336-162.72v-73.024c0-30.976-25.088-56.064-56.032-56.064h-782.336c-30.944 0-56.032 25.088-56.032 56.064v782.336c0 30.944 25.088 56.064 56.032 56.064h782.336c30.944 0 56.032-25.12 56.032-56.064v-569.312c-207.168 80.96-284.928 96.864-284.928 96.864z" />
<glyph unicode="&#xe943;" glyph-name="zfb2" d="M1019.36 234.336c-41.792 13.024-297.408 92.832-357.44 115.040 38.784 67.264 70.208 145.12 90.208 227.424l-223.936 6.080v77.76h276.128v47.648h-276.128v129.792h-106.24c-0.256 0-0.576 0.032-0.864 0.032-10.368 0-18.944-7.616-20.448-17.568l-0.032-112.256h-258.976v-47.648h258.976v-77.76h-212.32v-43.296h429.088c-16.928-58.624-37.888-109.344-63.648-157.12-94.72 36.704-149.024 59.296-267.712 70.592-225.12 21.6-277.056-104.224-285.12-181.184-12.192-117.184 89.76-213.024 242.528-213.024s254.080 71.648 350.848 190.976c124-60.256 422.976-191.936 422.976-191.936l2.112 176.416zM226.56 133.088c-161.408 0-186.976 103.744-178.336 147.104s55.168 99.392 144.896 99.392c103.104 0 195.456-26.784 306.336-81.76-77.888-103.232-173.536-164.736-272.896-164.736v0z" />
<glyph unicode="&#xe944;" glyph-name="zichan" d="M512 960c-282.752-0.022-511.96-229.244-511.96-512 0-282.77 229.23-512 512-512 117.184 0 225.173 39.368 311.464 105.6 4.13 3.212 7.541 9.608 7.541 16.8 0 12.294-9.966 22.26-22.26 22.26-5.102 0-9.802-1.716-13.556-4.603-77.512-59.476-175.947-95.334-282.756-95.334-257.913 0-466.992 209.079-466.992 466.992s209.079 466.992 466.992 466.992c257.913 0 466.992-209.079 466.992-466.992 0-89.821-25.359-173.72-69.307-244.927-0.892-1.291-2.106-5.298-2.106-9.588 0-12.295 9.967-22.261 22.261-22.261 8.004 0 15.022 4.225 18.945 10.566 46.946 75.954 74.732 167.924 74.732 266.383 0 282.788-229.21 512.042-511.982 512.112zM713.456 697.744c5.27 5.27 8.529 12.55 8.529 20.592 0 16.083-13.038 29.121-29.121 29.121-8.042 0-15.322-3.26-20.592-8.529l-161.76-161.76-160 160c-5.118 5.118-12.19 8.284-20 8.284-15.621 0-28.284-12.663-28.284-28.284 0-7.81 3.166-14.882 8.284-20l170.736-170.768v-19.68h-149.216c-16.189-0.387-29.165-13.602-29.165-29.848s12.976-29.461 29.129-29.847l149.268-0.001v-119.376h-149.232c-16.485 0-29.848-13.363-29.848-29.848s13.363-29.848 29.848-29.848h149.232v-89.6c-0.005-0.206-0.008-0.448-0.008-0.691 0-16.489 13.367-29.856 29.856-29.856s29.856 13.367 29.856 29.856c0 0.243-0.003 0.485-0.009 0.727l0.001 89.564h149.232c16.485 0 29.848 13.363 29.848 29.848s-13.363 29.848-29.848 29.848h-149.232v119.376h149.232c16.189 0.387 29.165 13.602 29.165 29.848s-12.976 29.461-29.129 29.847l-149.268 0.001v18.512z" />
</font>
</defs>
</svg>
