<?xml version="1.0" standalone="no"?>
<!DOCTYPE svg PUBLIC "-//W3C//DTD SVG 1.1//EN" "http://www.w3.org/Graphics/SVG/1.1/DTD/svg11.dtd" >
<svg xmlns="http://www.w3.org/2000/svg" xmlns:xlink="http://www.w3.org/1999/xlink" version="1.1">
<metadata>
Created by FontForge 20190801 at Mon Feb 12 01:07:29 2018
 By Jimmy Wärting
Copyright (c) 2018 by S-Core Co., Ltd.. All rights reserved.
</metadata>
<defs>
<font id="S-CoreDream-5Medium" horiz-adv-x="960" >
  <font-face 
    font-family="S-Core Dream 5 Medium"
    font-weight="500"
    font-stretch="normal"
    units-per-em="1000"
    panose-1="2 11 5 3 3 3 2 2 2 4"
    ascent="800"
    descent="-200"
    x-height="561"
    cap-height="785"
    bbox="-32 -267 1203 1024"
    underline-thickness="50"
    underline-position="-100"
    stemh="101"
    stemv="116"
    unicode-range="U+0020-FFE6"
  />
<missing-glyph horiz-adv-x="291" 
 />
    <glyph glyph-name=".notdef" horiz-adv-x="291" 
 />
    <glyph glyph-name="_1" unicode=" " horiz-adv-x="291" 
 />
    <glyph glyph-name="_2" unicode="!" horiz-adv-x="312" 
d="M212 785v-137l-11 -430h-90l-11 430v137h112zM213 118v-117h-114v117h114z" />
    <glyph glyph-name="_3" unicode="&#x22;" horiz-adv-x="458" 
d="M360 561h-101v224h101v-224zM198 561h-101v224h101v-224z" />
    <glyph glyph-name="_4" unicode="#" horiz-adv-x="733" 
d="M361 1l46 213h-159l-47 -213h-100l46 213h-113v89h131l40 180h-133v89h151l48 213h101l-47 -213h159l47 213h101l-47 -213h114v-89h-132l-41 -180h135v-89h-153l-46 -213h-101zM306 483l-40 -180h159l40 180h-159z" />
    <glyph glyph-name="_5" unicode="$" horiz-adv-x="633" 
d="M592 218c0 -125 -88 -216 -237 -228v-86h-81v87c-142 15 -224 104 -224 227v16h116v-19c0 -62 40 -109 108 -123v266c-8 2 -16 3 -24 5c-124 26 -200 95 -200 217c0 110 77 205 224 216v86h81v-88c136 -17 208 -108 208 -214v-12h-117v12c0 54 -32 95 -91 111v-242
c151 -28 237 -97 237 -231zM475 215c0 65 -36 109 -120 127v-252c76 11 120 59 120 125zM166 580c0 -64 35 -99 108 -116v230c-70 -10 -108 -54 -108 -114z" />
    <glyph glyph-name="_6" unicode="%" horiz-adv-x="887" 
d="M330 1h-95l322 784h94zM381 587c0 -142 -59 -212 -163 -212c-108 0 -163 73 -163 212c0 137 56 211 163 211c103 0 163 -71 163 -211zM286 587c0 96 -22 131 -68 131c-48 0 -69 -35 -69 -131c0 -98 20 -132 69 -132c47 0 68 34 68 132zM507 199c0 140 59 212 162 212
c104 0 162 -75 162 -212c0 -139 -58 -211 -162 -211c-103 0 -162 69 -162 211zM600 199c0 -102 23 -131 69 -131s69 32 69 131c0 95 -22 131 -69 131s-69 -33 -69 -131z" />
    <glyph glyph-name="_7" unicode="&#x26;" horiz-adv-x="719" 
d="M653 390c-4 -99 -24 -182 -60 -246l131 -143h-140l-58 64c-51 -49 -125 -77 -216 -77c-159 0 -260 90 -260 228c0 92 43 168 136 224c-52 52 -78 109 -78 174c0 115 84 184 205 184c120 0 205 -68 205 -180v-26h-113v23c0 54 -35 86 -92 86s-92 -32 -92 -86
c0 -42 14 -75 58 -123l234 -258c16 43 24 95 27 156h113zM311 85c60 0 112 17 145 57l-208 229c-60 -40 -86 -94 -86 -153c0 -88 67 -133 149 -133z" />
    <glyph glyph-name="_8" unicode="'" horiz-adv-x="261" 
d="M181 561h-101v224h101v-224z" />
    <glyph glyph-name="_9" unicode="(" horiz-adv-x="349" 
d="M80 389c0 426 81 507 248 507v-96c-94 0 -138 -52 -138 -411c0 -360 44 -411 138 -411v-97c-167 0 -248 81 -248 508z" />
    <glyph glyph-name="_10" unicode=")" horiz-adv-x="350" 
d="M270 389c0 -427 -82 -508 -250 -508v97c95 0 139 51 139 411c0 359 -44 411 -139 411v96c168 0 250 -81 250 -507z" />
    <glyph glyph-name="_11" unicode="*" horiz-adv-x="554" 
d="M35 447l51 88l151 -102l-11 183h101l-11 -183l151 102l51 -88l-164 -81l164 -81l-51 -87l-151 100l11 -181h-101l11 181l-151 -100l-51 87l163 81z" />
    <glyph glyph-name="_12" unicode="+" horiz-adv-x="586" 
d="M50 320v92h192v204h102v-204h192v-92h-192v-204h-102v204h-192z" />
    <glyph glyph-name="_13" unicode="," horiz-adv-x="308" 
d="M88 -128v55c44 2 65 26 65 74h-61v132h123v-142c0 -72 -46 -113 -127 -119z" />
    <glyph glyph-name="_14" unicode="-" horiz-adv-x="442" 
d="M50 317v97h342v-97h-342z" />
    <glyph glyph-name="_15" unicode="." horiz-adv-x="308" 
d="M216 134v-133h-124v133h124z" />
    <glyph glyph-name="_16" unicode="/" horiz-adv-x="475" 
d="M475 878l-366 -981h-110l367 981h109z" />
    <glyph glyph-name="_17" unicode="0" horiz-adv-x="616" 
d="M567 393c0 -179 -24 -273 -80 -335c-43 -46 -104 -70 -179 -70s-138 24 -180 70c-56 62 -80 156 -80 335s24 273 80 335c42 46 105 70 180 70s136 -24 179 -70c56 -62 80 -156 80 -335zM454 393c0 149 -12 221 -45 262c-25 30 -57 46 -101 46s-77 -16 -102 -46
c-33 -41 -46 -113 -46 -262s13 -221 46 -262c25 -30 58 -46 102 -46s76 16 101 46c33 41 45 113 45 262z" />
    <glyph glyph-name="_18" unicode="1" horiz-adv-x="616" 
d="M426 1h-113v665l-184 -82v110l201 91h96v-784z" />
    <glyph glyph-name="_19" unicode="2" horiz-adv-x="616" 
d="M546 563c-1 -76 -17 -120 -75 -186l-245 -279h331v-97h-481v88l304 347c39 44 54 80 54 126c0 81 -53 138 -128 138c-80 0 -128 -55 -128 -138v-21h-113v22c0 130 87 235 241 235s240 -105 240 -235z" />
    <glyph glyph-name="_20" unicode="3" horiz-adv-x="616" 
d="M445 227c0 89 -57 142 -137 142h-81v96h81c70 0 115 48 115 117c0 72 -49 118 -117 118c-71 0 -117 -46 -117 -118v-8h-113v17c0 118 85 207 230 207s229 -89 229 -207c0 -81 -46 -150 -119 -173c86 -25 142 -93 142 -198c0 -142 -105 -232 -252 -232s-254 90 -254 235
v12h114v-6c0 -92 59 -143 140 -143c79 0 139 50 139 141z" />
    <glyph glyph-name="_21" unicode="4" horiz-adv-x="616" 
d="M163 265h206v344zM572 265v-98h-90v-166h-113v166h-324v98l312 520h125v-520h90z" />
    <glyph glyph-name="_22" unicode="5" horiz-adv-x="616" 
d="M311 412c-49 0 -86 -24 -106 -63h-112l20 436h401v-98h-296l-12 -239c21 36 70 61 129 61c127 0 222 -88 222 -262c0 -164 -94 -259 -246 -259c-141 0 -235 84 -245 223h112c9 -83 59 -127 133 -127c83 0 133 58 133 165s-50 163 -133 163z" />
    <glyph glyph-name="_23" unicode="6" horiz-adv-x="616" 
d="M176 429c24 47 77 80 151 80c140 0 236 -99 236 -260c0 -162 -106 -261 -251 -261c-88 0 -156 37 -199 106c-41 51 -53 145 -53 255c0 328 75 449 255 449c126 0 213 -66 231 -196h-115c-11 63 -51 98 -117 98c-98 0 -134 -85 -138 -271zM175 249
c0 -103 53 -163 137 -163c85 0 139 60 139 163c0 101 -54 162 -139 162c-84 0 -137 -61 -137 -162z" />
    <glyph glyph-name="_24" unicode="7" horiz-adv-x="616" 
d="M68 687v98h480v-88l-263 -696h-119l267 686h-365z" />
    <glyph glyph-name="_25" unicode="8" horiz-adv-x="616" 
d="M308 369c-89 0 -152 -55 -152 -143s63 -142 152 -142c88 0 151 54 151 142s-63 143 -151 143zM308 -12c-156 0 -264 88 -264 232c0 100 55 168 142 197c-73 26 -119 95 -119 174c0 119 89 207 241 207c151 0 240 -88 240 -207c0 -79 -46 -148 -119 -174
c88 -29 143 -97 143 -197c0 -144 -109 -232 -264 -232zM308 464c76 0 127 47 127 119c0 71 -51 118 -127 118c-78 0 -129 -47 -129 -118c0 -72 51 -119 129 -119z" />
    <glyph glyph-name="_26" unicode="9" horiz-adv-x="616" 
d="M438 356c-23 -47 -76 -79 -150 -79c-140 0 -237 98 -237 260s108 261 251 261c89 0 158 -37 200 -107c41 -52 52 -145 52 -255c0 -330 -76 -448 -254 -448c-126 0 -214 66 -231 195h116c10 -63 50 -97 116 -97c97 0 134 84 137 270zM441 537c0 102 -55 163 -139 163
s-138 -61 -138 -163s54 -163 138 -163s139 61 139 163z" />
    <glyph glyph-name="_27" unicode=":" horiz-adv-x="308" 
d="M216 561v-133h-124v133h124zM216 134v-133h-124v133h124z" />
    <glyph glyph-name="_28" unicode=";" horiz-adv-x="308" 
d="M215 561v-133h-123v133h123zM88 -128v55c44 2 65 26 65 74h-61v132h123v-142c0 -72 -46 -113 -127 -119z" />
    <glyph glyph-name="_29" unicode="&#x3c;" horiz-adv-x="582" 
d="M57 321v90l468 208v-103l-351 -150l351 -151v-102z" />
    <glyph glyph-name="_30" unicode="=" horiz-adv-x="586" 
d="M50 222v91h486v-91h-486zM50 418v92h486v-92h-486z" />
    <glyph glyph-name="_31" unicode="&#x3e;" horiz-adv-x="582" 
d="M525 411v-90l-468 -208v102l350 151l-350 150v103z" />
    <glyph glyph-name="_32" unicode="?" horiz-adv-x="574" 
d="M514 577c0 -87 -33 -141 -99 -200c-63 -57 -81 -89 -81 -148v-25h-110v33c0 81 20 125 100 195c60 52 79 86 79 142c0 81 -49 126 -119 126s-119 -45 -119 -127h-110v4c0 128 83 221 229 221c147 0 230 -94 230 -221zM335 118v-117h-113v117h113z" />
    <glyph glyph-name="_33" unicode="@" horiz-adv-x="822" 
d="M69 293c0 368 98 505 341 505c244 0 341 -137 341 -505v-4c0 -180 -83 -279 -230 -279c-151 0 -225 102 -225 259c0 169 82 258 206 258c78 0 124 -30 144 -76c-16 194 -85 260 -236 260c-175 0 -241 -84 -241 -418c0 -338 70 -417 241 -417c46 0 95 12 129 31l30 -81
c-46 -23 -102 -37 -159 -37c-232 0 -341 123 -341 504zM653 269c0 111 -40 166 -126 166s-126 -55 -126 -166c0 -113 40 -168 126 -168s126 55 126 168z" />
    <glyph glyph-name="_34" unicode="A" horiz-adv-x="681" 
d="M670 1h-120l-55 174h-310l-55 -174h-120l261 784h137zM463 276l-123 394l-124 -394h247z" />
    <glyph glyph-name="_35" unicode="B" horiz-adv-x="660" 
d="M186 454h150c97 0 148 32 148 115s-51 115 -148 115h-150v-230zM379 1h-309v784h290c159 0 240 -72 240 -208c0 -89 -46 -147 -119 -168c90 -19 141 -91 141 -187c0 -144 -79 -221 -243 -221zM506 228c0 88 -46 126 -153 126h-167v-252h167c107 0 153 38 153 126z" />
    <glyph glyph-name="_36" unicode="C" horiz-adv-x="696" 
d="M166 393c0 -189 41 -304 189 -304c111 0 173 66 180 172h116c-9 -162 -115 -273 -296 -273c-248 0 -305 195 -305 405c0 209 58 405 305 405c181 0 287 -112 296 -274h-116c-7 106 -69 172 -180 172c-149 0 -189 -117 -189 -303z" />
    <glyph glyph-name="_37" unicode="D" horiz-adv-x="699" 
d="M533 393c0 118 -17 186 -52 234c-29 40 -75 57 -141 57h-154v-582h154c66 0 112 17 141 57c35 48 52 116 52 234zM649 393c0 -109 -10 -214 -69 -294c-47 -65 -122 -98 -229 -98h-281v784h281c107 0 182 -33 229 -98c59 -80 69 -185 69 -294z" />
    <glyph glyph-name="_38" unicode="E" horiz-adv-x="583" 
d="M70 1v784h464v-101h-348v-231h308v-101h-308v-250h354v-101h-470z" />
    <glyph glyph-name="_39" unicode="F" horiz-adv-x="559" 
d="M70 1v784h458v-101h-342v-242h308v-101h-308v-340h-116z" />
    <glyph glyph-name="_40" unicode="G" horiz-adv-x="714" 
d="M50 393c0 212 59 405 305 405c181 0 287 -112 296 -274h-116c-7 106 -69 172 -180 172c-151 0 -189 -117 -189 -303c0 -224 61 -304 189 -304c112 0 181 75 181 192v29h-176v100h290v-409h-85l-18 99c-28 -64 -101 -112 -200 -112c-236 0 -297 198 -297 405z" />
    <glyph glyph-name="_41" unicode="H" horiz-adv-x="683" 
d="M497 1v351h-311v-351h-116v784h116v-332h311v332h116v-784h-116z" />
    <glyph glyph-name="_42" unicode="I" horiz-adv-x="255" 
d="M186 785v-784h-116v784h116z" />
    <glyph glyph-name="_43" unicode="J" horiz-adv-x="583" 
d="M269 89c79 0 131 47 131 168v528h116v-544c0 -163 -93 -253 -249 -253c-154 0 -247 90 -247 253v7h117c2 -114 52 -159 132 -159z" />
    <glyph glyph-name="_44" unicode="K" horiz-adv-x="645" 
d="M615 785l-254 -383l289 -401h-132l-249 351h-83v-351h-116v784h116v-332h83l217 332h129z" />
    <glyph glyph-name="_45" unicode="L" horiz-adv-x="555" 
d="M70 1v784h116v-683h354v-101h-470z" />
    <glyph glyph-name="_46" unicode="M" horiz-adv-x="918" 
d="M515 1h-111l-219 548v-548h-115v784h128l261 -652l261 652h129v-784h-116v548z" />
    <glyph glyph-name="_47" unicode="N" horiz-adv-x="694" 
d="M624 1h-119l-320 577v-577h-116v784h119l320 -578v578h116v-784z" />
    <glyph glyph-name="_48" unicode="O" horiz-adv-x="709" 
d="M355 -12c-248 0 -305 195 -305 405c0 209 58 405 305 405c243 0 304 -195 304 -405c0 -211 -60 -405 -304 -405zM355 89c146 0 188 114 188 304c0 186 -41 303 -188 303c-149 0 -189 -117 -189 -303c0 -189 41 -304 189 -304z" />
    <glyph glyph-name="_49" unicode="P" horiz-adv-x="652" 
d="M186 396h174c97 0 146 53 146 144s-49 144 -146 144h-174v-288zM375 295h-189v-294h-116v784h305c156 0 247 -91 247 -245c0 -156 -91 -245 -247 -245z" />
    <glyph glyph-name="_50" unicode="Q" horiz-adv-x="714" 
d="M355 -12c-245 0 -305 190 -305 405c0 212 59 405 305 405c243 0 304 -194 304 -405c0 -101 -13 -196 -54 -270l95 -79l-66 -72l-89 76c-46 -38 -108 -60 -190 -60zM355 89c44 0 80 10 106 30l-104 89l65 73l95 -82c19 50 26 115 26 194c0 186 -41 303 -188 303
c-149 0 -189 -117 -189 -303c0 -189 41 -304 189 -304z" />
    <glyph glyph-name="_51" unicode="R" horiz-adv-x="674" 
d="M499 70l-5 94c-6 96 -41 133 -147 133h-161v-296h-116v784h305c163 0 247 -87 247 -236c0 -104 -45 -174 -135 -200c78 -14 114 -64 121 -167l7 -96c2 -35 7 -64 14 -85h-118c-6 18 -10 41 -12 69zM186 398h171c93 0 149 42 149 143s-56 143 -149 143h-171v-286z" />
    <glyph glyph-name="_52" unicode="S" horiz-adv-x="633" 
d="M592 218c0 -134 -101 -230 -271 -230c-169 0 -271 96 -271 230v16h117v-18c0 -76 58 -128 154 -128c97 0 154 52 154 128c0 64 -39 109 -124 127l-101 21c-124 26 -200 94 -200 216c0 119 89 218 256 218c169 0 257 -99 257 -218v-12h-117v12c0 69 -49 117 -140 117
c-90 0 -139 -48 -139 -117c0 -66 39 -100 120 -117l101 -21c131 -28 204 -102 204 -224z" />
    <glyph glyph-name="_53" unicode="T" horiz-adv-x="588" 
d="M15 684v101h558v-101h-221v-683h-116v683h-221z" />
    <glyph glyph-name="_54" unicode="U" horiz-adv-x="707" 
d="M354 89c121 0 172 76 172 218v478h116v-493c0 -184 -93 -304 -288 -304s-289 120 -289 304v493h116v-478c0 -142 51 -218 173 -218z" />
    <glyph glyph-name="_55" unicode="V" horiz-adv-x="681" 
d="M340 142l210 643h121l-262 -784h-137l-262 784h121z" />
    <glyph glyph-name="_56" unicode="W" horiz-adv-x="1051" 
d="M466 785h118l168 -630l163 630h120l-209 -784h-141l-160 597l-161 -597h-141l-208 784h120l163 -630z" />
    <glyph glyph-name="_57" unicode="X" horiz-adv-x="670" 
d="M653 1h-127l-192 319l-192 -319h-126l245 403l-229 381h126l176 -297l177 297h126l-231 -381z" />
    <glyph glyph-name="_58" unicode="Y" horiz-adv-x="669" 
d="M334 417l197 368h122l-260 -475v-309h-117v309l-260 475h121z" />
    <glyph glyph-name="_59" unicode="Z" horiz-adv-x="590" 
d="M40 92l365 592h-354v101h494v-91l-365 -592h370v-101h-510v91z" />
    <glyph glyph-name="_60" unicode="[" horiz-adv-x="361" 
d="M80 -103v981h241v-95h-131v-791h131v-95h-241z" />
    <glyph glyph-name="_61" unicode="\" 
d="M421 785l-78 -355h-118l-75 355h-120l81 -355h-91v-64h105l83 -365h141l80 365h102l79 -365h141l83 365h106v64h-91l81 355h-120l-75 -355h-118l-78 355h-118zM631 366h91l-45 -211zM517 430h-74l37 168zM238 366h91l-46 -211z" />
    <glyph glyph-name="_62" unicode="]" horiz-adv-x="361" 
d="M281 878v-981h-241v95h132v791h-132v95h241z" />
    <glyph glyph-name="_63" unicode="^" horiz-adv-x="472" 
d="M451 525h-109l-107 168l-106 -168h-109l167 260h97z" />
    <glyph glyph-name="_64" unicode="_" horiz-adv-x="560" 
d="M0 -187v71h560v-71h-560z" />
    <glyph glyph-name="_65" unicode="`" horiz-adv-x="390" 
d="M214 638l-136 181h125l109 -181h-98z" />
    <glyph glyph-name="_66" unicode="a" horiz-adv-x="578" 
d="M408 61c-18 -44 -75 -73 -158 -73c-130 0 -212 64 -212 178c0 113 82 178 212 178c77 0 138 -26 158 -72v91c0 76 -40 120 -121 120c-72 0 -109 -31 -117 -88h-111c8 111 85 179 228 179c156 0 232 -83 232 -211v-285c0 -28 5 -58 13 -77h-113c-7 15 -11 36 -11 60z
M278 77c86 0 131 30 131 89c0 58 -45 89 -131 89c-85 0 -130 -31 -130 -89c0 -59 45 -89 130 -89z" />
    <glyph glyph-name="_67" unicode="b" horiz-adv-x="597" 
d="M170 785v-311c22 61 80 100 160 100c138 0 224 -92 224 -293s-86 -293 -224 -293c-80 0 -138 39 -160 100v-87h-110v784h110zM170 281c0 -124 34 -201 137 -201s137 77 137 201c0 123 -34 201 -137 201s-137 -78 -137 -201z" />
    <glyph glyph-name="_68" unicode="c" horiz-adv-x="566" 
d="M42 281c0 187 82 293 248 293c138 0 225 -70 239 -197h-112c-7 66 -52 106 -127 106c-103 0 -137 -78 -137 -202s34 -202 137 -202c75 0 120 40 127 106h112c-14 -127 -101 -197 -239 -197c-166 0 -248 106 -248 293z" />
    <glyph glyph-name="_69" unicode="d" horiz-adv-x="597" 
d="M426 474v311h111v-784h-111v87c-21 -61 -80 -100 -160 -100c-138 0 -224 92 -224 293s86 293 224 293c80 0 139 -39 160 -100zM426 281c0 123 -34 201 -136 201c-104 0 -138 -78 -138 -201c0 -124 34 -201 138 -201c102 0 136 77 136 201z" />
    <glyph glyph-name="_70" unicode="e" horiz-adv-x="579" 
d="M536 247h-383c4 -105 45 -167 139 -167c70 0 112 34 120 89h113c-18 -113 -99 -181 -233 -181c-168 0 -250 106 -250 293c0 186 82 293 248 293c165 0 247 -107 247 -293c0 -12 0 -23 -1 -34zM290 482c-90 0 -128 -57 -136 -151h271c-8 94 -47 151 -135 151z" />
    <glyph glyph-name="_71" unicode="f" horiz-adv-x="383" 
d="M363 702h-53c-69 0 -89 -21 -89 -80v-61h142v-91h-142v-469h-110v469h-80v91h80v66c0 122 53 166 184 166c23 0 45 -1 68 -5v-86z" />
    <glyph glyph-name="_72" unicode="g" horiz-adv-x="597" 
d="M426 561h111v-581c0 -135 -69 -239 -237 -239c-134 0 -216 65 -231 172h113c8 -55 50 -84 118 -84c87 0 126 51 126 142v117c-21 -61 -80 -100 -160 -100c-138 0 -224 92 -224 293s86 293 224 293c80 0 139 -39 160 -100v87zM426 281c0 123 -33 201 -136 201
c-104 0 -138 -78 -138 -201c0 -124 34 -201 138 -201c103 0 136 77 136 201z" />
    <glyph glyph-name="_73" unicode="h" horiz-adv-x="591" 
d="M533 351v-350h-111v342c0 97 -39 140 -111 140c-80 0 -141 -63 -141 -179v-303h-109v784h109v-318c26 65 83 107 168 107c125 0 195 -80 195 -223z" />
    <glyph glyph-name="_74" unicode="i" horiz-adv-x="240" 
d="M175 1h-111v560h111v-560zM175 667h-111v118h111v-118z" />
    <glyph glyph-name="_75" unicode="j" horiz-adv-x="255" 
d="M190 561v-635c0 -112 -59 -169 -175 -169c-13 0 -35 1 -47 3v90h37c49 0 74 23 74 81v630h111zM190 667h-111v118h111v-118z" />
    <glyph glyph-name="_76" unicode="k" horiz-adv-x="534" 
d="M170 1h-110v784h110v-448h57l153 224h123l-186 -269l212 -291h-127l-177 248h-55v-248z" />
    <glyph glyph-name="_77" unicode="l" horiz-adv-x="240" 
d="M175 1h-110v784h110v-784z" />
    <glyph glyph-name="_78" unicode="m" horiz-adv-x="918" 
d="M516 304v-303h-111v362c0 81 -34 120 -101 120c-78 0 -134 -60 -134 -178v-304h-109v560h109v-92c25 64 77 105 160 105s144 -41 168 -112c31 76 91 112 176 112c120 0 187 -79 187 -215v-358h-111v362c0 81 -35 120 -101 120c-78 0 -133 -62 -133 -179z" />
    <glyph glyph-name="_79" unicode="n" horiz-adv-x="591" 
d="M533 351v-350h-111v342c0 97 -39 140 -111 140c-80 0 -141 -63 -141 -179v-303h-109v560h109v-94c26 65 83 107 168 107c125 0 195 -80 195 -223z" />
    <glyph glyph-name="_80" unicode="o" horiz-adv-x="579" 
d="M290 79c103 0 137 78 137 202s-34 202 -137 202s-137 -78 -137 -202s34 -202 137 -202zM290 574c165 0 247 -106 247 -293s-82 -293 -247 -293c-166 0 -248 106 -248 293s82 293 248 293z" />
    <glyph glyph-name="_81" unicode="p" horiz-adv-x="597" 
d="M170 561v-87c22 61 81 100 161 100c138 0 224 -92 224 -293s-86 -293 -224 -293c-80 0 -139 39 -161 100v-331h-109v804h109zM308 79c102 0 136 78 136 202s-34 202 -136 202c-104 0 -138 -78 -138 -202s34 -202 138 -202z" />
    <glyph glyph-name="_82" unicode="q" horiz-adv-x="597" 
d="M427 474v87h110v-804h-110v331c-22 -61 -81 -100 -160 -100c-138 0 -225 92 -225 293s87 293 225 293c79 0 138 -39 160 -100zM290 79c103 0 137 78 137 202s-34 202 -137 202s-137 -78 -137 -202s34 -202 137 -202z" />
    <glyph glyph-name="_83" unicode="r" horiz-adv-x="386" 
d="M322 482c-94 0 -152 -66 -152 -194v-287h-109v560h109v-94c24 71 69 107 155 107c17 0 36 -1 46 -4l-2 -90c-9 1 -27 2 -47 2z" />
    <glyph glyph-name="_84" unicode="s" horiz-adv-x="525" 
d="M256 574c131 0 209 -66 209 -164v-13h-110v14c0 41 -34 75 -99 75c-66 0 -100 -34 -100 -74c0 -61 50 -62 154 -84c121 -22 176 -74 176 -171c0 -96 -86 -169 -221 -169c-134 0 -222 71 -222 169v16h110v-16c0 -51 45 -81 112 -81c66 0 111 31 111 78
c0 65 -52 72 -153 93c-121 21 -176 70 -176 163c0 96 77 164 209 164z" />
    <glyph glyph-name="_85" unicode="t" horiz-adv-x="402" 
d="M216 470v-299c0 -70 26 -87 96 -87h56v-88c-18 -3 -51 -3 -75 -3c-131 0 -187 38 -187 158v319h-81v91h81v159h110v-159h152v-91h-152z" />
    <glyph glyph-name="_86" unicode="u" horiz-adv-x="591" 
d="M58 211v350h110v-342c0 -97 39 -140 111 -140c81 0 141 63 141 179v303h110v-560h-110v94c-26 -65 -83 -107 -168 -107c-124 0 -194 80 -194 223z" />
    <glyph glyph-name="_87" unicode="v" horiz-adv-x="569" 
d="M437 561h116l-205 -560h-128l-205 560h116l153 -439z" />
    <glyph glyph-name="_88" unicode="w" horiz-adv-x="894" 
d="M391 561h112l133 -431l129 431h114l-182 -560h-118l-132 435l-132 -435h-119l-181 560h114l128 -431z" />
    <glyph glyph-name="_89" unicode="x" horiz-adv-x="530" 
d="M520 1h-119l-137 210l-136 -210h-120l190 287l-179 273h122l123 -197l125 197h120l-178 -273z" />
    <glyph glyph-name="_90" unicode="y" horiz-adv-x="570" 
d="M199 -89l32 88l-215 562h115l156 -424l152 424h115l-255 -684c-37 -99 -87 -120 -170 -120c-15 0 -33 0 -46 1v90h37c36 0 61 12 79 63z" />
    <glyph glyph-name="_91" unicode="z" horiz-adv-x="498" 
d="M454 561v-82l-280 -387h288v-91h-425v82l280 387h-271v91h408z" />
    <glyph glyph-name="_92" unicode="{" horiz-adv-x="380" 
d="M40 339v96h21c47 0 68 30 68 77v194c0 120 59 172 176 172h35v-96h-23c-54 0 -78 -31 -78 -91v-191c0 -56 -23 -98 -77 -113c54 -15 77 -57 77 -113v-190c0 -58 25 -91 78 -91h23v-96h-35c-117 0 -176 51 -176 172v192c0 48 -22 78 -68 78h-21z" />
    <glyph glyph-name="_93" unicode="|" horiz-adv-x="310" 
d="M100 -103v981h110v-981h-110z" />
    <glyph glyph-name="_94" unicode="}" horiz-adv-x="380" 
d="M340 435v-96h-23c-46 0 -67 -30 -67 -78v-192c0 -121 -58 -172 -175 -172h-35v96h22c54 0 77 31 77 91v190c0 55 26 99 78 113c-53 15 -78 57 -78 113v191c0 58 -25 91 -77 91h-22v96h35c117 0 175 -52 175 -172v-194c0 -47 20 -77 67 -77h23z" />
    <glyph glyph-name="_95" unicode="~" horiz-adv-x="582" 
d="M384 281c-102 0 -119 78 -173 78c-31 0 -48 -21 -49 -71h-104c1 96 46 164 140 164c102 0 119 -78 173 -78c31 0 48 22 50 72h104c-1 -96 -47 -165 -141 -165z" />
    <glyph glyph-name="_101" unicode="&#x3000;" 
 />
    <glyph glyph-name="_101" unicode="&#x3164;" 
 />
    <glyph glyph-name="_106" unicode="&#x2026;" 
d="M831 492h-118v-134h118v134zM246 492h-118v-134h118v134zM538 492h-118v-134h118v134z" />
    <glyph glyph-name="_107" unicode="&#xa8;" horiz-adv-x="600" 
d="M243 787h-118v-135h118v135zM473 787h-118v-135h118v135z" />
    <glyph glyph-name="_108" unicode="&#x3003;" 
d="M371 663l-164 -472l68 -27l195 460zM653 659l-164 -472l68 -27l195 460z" />
    <glyph glyph-name="_112" unicode="&#xff3c;" 
d="M928 22l-831 805l-65 -67l832 -805z" />
    <glyph glyph-name="_114" unicode="&#x2018;" horiz-adv-x="294" 
d="M214 872c-84 -5 -128 -51 -128 -125v-141h123v134h-60c0 50 15 75 65 77v55z" />
    <glyph glyph-name="_115" unicode="&#x2019;" horiz-adv-x="294" 
d="M79 606c84 5 128 51 128 125v141h-123v-134h60c0 -50 -15 -75 -65 -77v-55z" />
    <glyph glyph-name="_116" unicode="&#x201c;" horiz-adv-x="475" 
d="M396 872c-84 -5 -128 -51 -128 -125v-141h123v134h-60c0 50 15 75 65 77v55zM212 872c-84 -5 -128 -51 -128 -125v-141h123v134h-60c0 50 15 75 65 77v55z" />
    <glyph glyph-name="_117" unicode="&#x201d;" horiz-adv-x="475" 
d="M79 606c84 5 128 51 128 125v141h-123v-134h60c0 -50 -15 -75 -65 -77v-55zM263 606c84 5 128 51 128 125v141h-123v-134h60c0 -50 -15 -75 -65 -77v-55z" />
    <glyph glyph-name="_130" unicode="&#xb1;" horiz-adv-x="586" 
d="M49 406h193v-198h102v198h193v90h-193v199h-102v-199h-193v-90zM49 49h488v91h-488v-91z" />
    <glyph glyph-name="_131" unicode="&#xd7;" horiz-adv-x="586" 
d="M448 139l68 66l-156 160l156 160l-68 67l-156 -159l-155 159l-68 -67l157 -160l-157 -160l68 -66l155 159z" />
    <glyph glyph-name="_132" unicode="&#xf7;" horiz-adv-x="586" 
d="M49 320h488v91h-488v-91zM350 619h-114v-127h114v127zM350 239h-114v-127h114v127z" />
    <glyph glyph-name="_133" unicode="&#x2260;" horiz-adv-x="586" 
d="M49 421h235l-63 -111h-172v-91h120l-76 -134h80l77 134h287v91h-236l63 111h173v91h-121l77 135h-80l-77 -135h-287v-91z" />
    <glyph glyph-name="_134" unicode="&#x2264;" horiz-adv-x="586" 
d="M48 50h489v90h-489v-90zM528 700l-471 -204v-91l471 -203v102l-347 147l347 146v103z" />
    <glyph glyph-name="_135" unicode="&#x2265;" horiz-adv-x="586" 
d="M537 140h-489v-90h489v90zM57 202l471 203v91l-471 204v-103l347 -146l-347 -147v-102z" />
    <glyph glyph-name="_136" unicode="&#x221e;" 
d="M422 372c-39 -65 -82 -87 -127 -87c-50 0 -89 31 -89 87c0 55 39 86 89 86c45 0 88 -22 127 -86zM536 372c39 64 82 86 128 86c49 0 89 -31 89 -86c0 -56 -40 -87 -89 -87c-46 0 -89 22 -128 87zM479 315c49 -78 118 -114 189 -114c112 0 183 66 183 171
c0 104 -71 170 -183 170c-71 0 -140 -36 -189 -114c-49 78 -118 114 -189 114c-112 0 -182 -66 -182 -170c0 -105 70 -171 182 -171c71 0 140 36 189 114z" />
    <glyph glyph-name="_137" unicode="&#x2234;" 
d="M793 232h-118v-134h118v134zM283 232h-118v-134h118v134zM538 702h-118v-134h118v134z" />
    <glyph glyph-name="_138" unicode="&#xb0;" horiz-adv-x="400" 
d="M352 643c0 88 -58 153 -153 153c-94 0 -152 -65 -152 -153c0 -89 58 -153 152 -153c95 0 153 64 153 153zM271 643c0 -48 -30 -78 -72 -78c-41 0 -71 30 -71 78c0 47 30 77 71 77c42 0 72 -30 72 -77z" />
    <glyph glyph-name="_139" unicode="&#x2032;" horiz-adv-x="218" 
d="M115 535l77 252h-111l-55 -252h89z" />
    <glyph glyph-name="_140" unicode="&#x2033;" horiz-adv-x="385" 
d="M115 535l77 252h-111l-55 -252h89zM282 535l77 252h-110l-55 -252h88z" />
    <glyph glyph-name="_141" unicode="&#x2103;" 
d="M332 653c0 80 -59 143 -147 143s-147 -63 -147 -143c0 -81 59 -143 147 -143s147 62 147 143zM252 653c0 -42 -28 -68 -67 -68s-67 26 -67 68c0 41 28 67 67 67s67 -26 67 -67zM639 -14c175 0 279 110 288 275h-116c-7 -107 -65 -174 -172 -174c-47 0 -83 13 -110 39
c-49 48 -69 138 -69 267c0 125 18 216 67 265c27 27 64 41 112 41c107 0 165 -68 172 -175h116c-9 164 -113 276 -288 276c-83 0 -145 -24 -191 -67c-75 -70 -105 -191 -105 -340c0 -156 31 -281 113 -349c45 -37 105 -58 183 -58z" />
    <glyph glyph-name="_142" unicode="&#x212b;" 
d="M563 740c40 25 64 67 64 118c0 80 -60 141 -148 141c-87 0 -147 -61 -147 -141c0 -51 25 -94 65 -118l-250 -740h121l55 173h313l55 -173h121zM354 273l126 396l124 -396h-250zM546 858c0 -40 -27 -65 -67 -65c-38 0 -66 25 -66 65s28 65 66 65c40 0 67 -25 67 -65z" />
    <glyph glyph-name="_143" unicode="&#xffe0;" 
d="M235 280c0 -171 69 -277 211 -292v-88h73v88c120 11 193 80 205 196h-111c-7 -57 -40 -94 -94 -105v401c54 -11 87 -49 94 -104h111c-12 115 -85 185 -205 196v90h-73v-90c-142 -16 -211 -121 -211 -292zM345 280c0 110 27 182 101 199v-398c-74 17 -101 88 -101 199z
" />
    <glyph glyph-name="_144" unicode="&#xffe1;" 
d="M233 401v-83h72c1 -10 2 -20 2 -31c0 -76 -26 -147 -71 -198v-89h490v98h-381c48 48 73 111 73 193c0 9 -1 18 -1 27h183v83h-197c-14 48 -30 93 -30 172c0 76 37 126 115 126c75 0 115 -51 115 -126v-19h114v20c0 124 -77 226 -229 226s-230 -102 -230 -226
c0 -73 16 -124 32 -173h-57z" />
    <glyph glyph-name="_145" unicode="&#xffe5;" 
d="M258 414v-65h161l2 -8v-54h-163v-65h163v-222h117v222h162v65h-162v54l2 8h160v65h-125l225 373h-125l-196 -343l-196 343h-124l224 -373h-125z" />
    <glyph glyph-name="_146" unicode="&#x2642;" 
d="M204 508l66 -48l166 232v-284c-117 -19 -201 -118 -201 -241c0 -134 108 -241 245 -241c136 0 245 107 245 241c0 123 -84 222 -201 241v284l166 -233l66 49l-276 372zM329 167c0 91 63 162 151 162s151 -71 151 -162c0 -89 -63 -159 -151 -159s-151 70 -151 159z" />
    <glyph glyph-name="_147" unicode="&#x2640;" 
d="M201 556c0 -143 102 -257 234 -276v-113h-131v-79h131v-145h89v145h132v79h-132v113c128 18 235 133 235 276c0 155 -123 278 -279 278c-155 0 -279 -123 -279 -278zM295 556c0 109 79 196 185 196s185 -87 185 -196c0 -108 -79 -196 -185 -196s-185 88 -185 196z" />
    <glyph glyph-name="_148" unicode="&#x2220;" 
d="M798 674l-69 61l-628 -617v-57h757v88h-594z" />
    <glyph glyph-name="_149" unicode="&#x22a5;" 
d="M531 148v612h-102v-612h-327v-88h755v88h-326z" />
    <glyph glyph-name="_150" unicode="&#x2312;" 
d="M27 667l50 -70c102 104 238 169 403 169c166 0 300 -65 404 -168l50 69c-113 116 -266 192 -454 192c-187 0 -341 -75 -453 -192z" />
    <glyph glyph-name="_151" unicode="&#x2202;" 
d="M384 603c16 64 60 101 123 101c81 0 121 -59 121 -200c0 -23 -1 -48 -3 -75c-21 49 -77 81 -153 81c-147 0 -253 -107 -253 -283c0 -153 92 -241 227 -241c209 0 294 160 294 501c0 222 -76 313 -227 313c-125 0 -214 -70 -245 -197h116zM457 82c-79 0 -126 51 -126 141
c0 105 52 191 155 191c78 0 124 -53 124 -144c0 -114 -61 -188 -153 -188z" />
    <glyph glyph-name="_152" unicode="&#x2207;" 
d="M547 0l265 787h-665l266 -787h134zM480 117l-181 570h361z" />
    <glyph glyph-name="_153" unicode="&#x2261;" horiz-adv-x="586" 
d="M49 501h488v91h-488v-91zM49 140h488v91h-488v-91zM49 320h488v91h-488v-91z" />
    <glyph glyph-name="_154" unicode="&#x2252;" horiz-adv-x="586" 
d="M49 411h488v91h-488v-91zM49 229h488v91h-488v-91zM470 150h-119v-133h119v133zM236 713h-119v-132h119v132z" />
    <glyph glyph-name="_155" unicode="&#xa7;" 
d="M474 731c55 0 99 -37 99 -89v-7h111v9c0 104 -82 176 -210 176c-129 0 -211 -72 -211 -177c0 -69 23 -116 81 -150c-60 -33 -91 -88 -91 -153c0 -127 76 -172 219 -209c78 -20 113 -49 113 -102c0 -55 -40 -89 -100 -89c-57 0 -100 36 -100 89v7h-111v-9
c0 -104 83 -175 211 -175s210 71 210 176c0 68 -24 114 -82 149c62 32 93 87 93 152c0 126 -81 177 -227 211c-75 17 -105 50 -105 102c0 55 39 89 100 89zM363 347c0 45 21 85 70 106c122 -25 162 -55 162 -130c0 -45 -21 -85 -70 -107c-122 30 -162 51 -162 131z" />
    <glyph glyph-name="_156" unicode="&#x203b;" 
d="M852 703l-60 61l-312 -312l-311 312l-61 -61l312 -312l-312 -311l61 -61l311 312l312 -312l60 61l-311 311zM564 696c0 48 -37 85 -85 85c-47 0 -85 -37 -85 -85c0 -47 38 -85 85 -85c48 0 85 38 85 85zM564 90c0 47 -37 85 -85 85c-47 0 -85 -38 -85 -85
c0 -48 38 -85 85 -85c48 0 85 37 85 85zM866 391c0 48 -38 85 -85 85c-48 0 -85 -37 -85 -85c0 -47 37 -85 85 -85c47 0 85 38 85 85zM263 391c0 48 -38 85 -85 85s-85 -37 -85 -85c0 -47 38 -85 85 -85s85 38 85 85z" />
    <glyph glyph-name="_157" unicode="&#x2606;" 
d="M360 537h-323l-8 -29l263 -193l-131 -340l24 -18l295 223l293 -223l23 19l-129 339l263 193l-7 29h-324l-104 320h-31zM411 468l69 234l70 -230l232 7l-203 -134l109 -250l-208 169l-209 -165l106 243l-204 133z" />
    <glyph glyph-name="_158" unicode="&#x2605;" 
d="M360 537h-324l-6 -21l262 -201l-129 -345l18 -13l299 223l298 -223l16 14l-127 344l262 201l-6 21h-324l-108 320h-22z" />
    <glyph glyph-name="_159" unicode="&#x25cb;" 
d="M920 389c0 244 -196 441 -440 441c-246 0 -441 -196 -441 -441s193 -440 441 -440c246 0 440 195 440 440zM125 389c0 200 154 361 355 361c202 0 356 -161 356 -361c0 -199 -154 -361 -356 -361c-201 0 -355 162 -355 361z" />
    <glyph glyph-name="_160" unicode="&#x25cf;" 
d="M920 389c0 244 -196 441 -440 441c-246 0 -441 -196 -441 -441s193 -440 441 -440c246 0 440 195 440 440z" />
    <glyph glyph-name="_161" unicode="&#x25ce;" 
d="M185 389c0 -167 131 -295 295 -295s294 128 294 295s-130 296 -294 296s-295 -129 -295 -296zM702 389c0 -135 -92 -230 -222 -230s-222 95 -222 230s92 230 222 230s222 -95 222 -230zM116 389c0 206 157 372 364 372s365 -166 365 -372s-158 -372 -365 -372
s-364 166 -364 372zM920 389c0 245 -194 441 -440 441c-247 0 -441 -195 -441 -441c0 -245 191 -440 441 -440c247 0 440 195 440 440z" />
    <glyph glyph-name="_162" unicode="&#x25c7;" 
d="M480 870l-460 -481l460 -480l460 480zM480 757l350 -368l-350 -367l-352 367z" />
    <glyph glyph-name="_163" unicode="&#x25c6;" 
d="M480 870l-460 -481l460 -480l460 480z" />
    <glyph glyph-name="_164" unicode="&#x25a1;" 
d="M859 16v752h-759v-752h759zM186 95v594h587v-594h-587z" />
    <glyph glyph-name="_165" unicode="&#x25a0;" 
d="M859 16v752h-759v-752h759z" />
    <glyph glyph-name="_166" unicode="&#x25b3;" 
d="M480 806l-454 -786h907zM480 650l315 -554h-631z" />
    <glyph glyph-name="_167" unicode="&#x25b2;" 
d="M480 806l-454 -786h907z" />
    <glyph glyph-name="_168" unicode="&#x25bd;" 
d="M933 766h-907l454 -786zM164 690h631l-315 -554z" />
    <glyph glyph-name="_169" unicode="&#x25bc;" 
d="M933 766h-907l454 -786z" />
    <glyph glyph-name="_170" unicode="&#x2192;" 
d="M36 324h661v-118l226 167l-226 165v-118h-661v-96z" />
    <glyph glyph-name="_171" unicode="&#x2190;" 
d="M923 420h-662v118l-225 -165l225 -167v118h662v96z" />
    <glyph glyph-name="_172" unicode="&#x2191;" 
d="M527 -44v662h118l-165 225l-167 -225h118v-662h96z" />
    <glyph glyph-name="_173" unicode="&#x2193;" 
d="M431 843v-661h-118l167 -226l165 226h-118v661h-96z" />
    <glyph glyph-name="_174" unicode="&#x2194;" 
d="M261 324h437v-118l225 167l-225 165v-118h-437v118l-225 -165l225 -167v118z" />
    <glyph glyph-name="_178" unicode="&#x221a;" 
d="M614 750h302v93h-391l-238 -828l-130 281h-123l203 -420h121z" />
    <glyph glyph-name="_179" unicode="&#x223d;" 
d="M515 341c51 75 100 117 149 117s89 -31 89 -86c0 -56 -40 -87 -89 -87c-19 0 -36 3 -54 12l-38 -72c30 -16 63 -24 96 -24c112 0 183 66 183 171c0 104 -71 170 -183 170c-86 0 -162 -51 -223 -142c-48 -71 -104 -115 -150 -115c-50 0 -89 31 -89 87c0 55 39 86 89 86
c16 0 32 -3 48 -9l31 75c-27 12 -55 18 -84 18c-112 0 -182 -66 -182 -170c0 -105 70 -171 182 -171c86 0 162 48 225 140z" />
    <glyph glyph-name="_180" unicode="&#x221d;" 
d="M422 372c-39 -65 -82 -87 -127 -87c-50 0 -89 31 -89 87c0 55 39 86 89 86c45 0 88 -22 127 -86zM725 305c-16 -13 -38 -20 -61 -20c-46 0 -89 22 -128 87c39 64 82 86 128 86c20 0 39 -6 54 -15l45 79c-26 13 -58 21 -95 21c-71 0 -140 -37 -189 -115
c-49 78 -118 114 -189 114c-112 0 -182 -66 -182 -170c0 -105 70 -171 182 -171c71 0 140 36 189 114c49 -78 118 -114 189 -114c44 0 81 10 110 29z" />
    <glyph glyph-name="_181" unicode="&#x2235;" 
d="M793 702h-118v-134h118v134zM283 702h-118v-134h118v134zM538 232h-118v-134h118v134z" />
    <glyph glyph-name="_182" unicode="&#x222b;" 
d="M280 -32v-86c22 -3 46 -4 69 -4c133 0 186 44 186 166v659c0 61 21 82 90 82h54v86c-23 4 -46 5 -69 5c-133 0 -186 -45 -186 -167v-659c0 -62 -21 -82 -90 -82h-54z" />
    <glyph glyph-name="_183" unicode="&#x222c;" 
d="M120 -32v-86c22 -3 46 -4 69 -4c133 0 186 44 186 166v659c0 61 21 82 90 82h54v86c-23 4 -46 5 -69 5c-133 0 -186 -45 -186 -167v-659c0 -62 -21 -82 -90 -82h-54zM440 -32v-86c22 -3 46 -4 69 -4c133 0 186 44 186 166v659c0 61 21 82 90 82h54v86c-23 4 -46 5 -69 5
c-133 0 -186 -45 -186 -167v-659c0 -62 -21 -82 -90 -82h-54z" />
    <glyph glyph-name="_184" unicode="&#x2208;" 
d="M842 341v96h-636c17 110 105 178 287 178h349v97h-351c-232 0 -395 -99 -395 -324c0 -226 163 -324 395 -324h351v96h-349c-184 0 -271 69 -287 181h636z" />
    <glyph glyph-name="_185" unicode="&#x220b;" 
d="M753 341c-16 -112 -104 -181 -288 -181h-349v-96h351c232 0 395 98 395 324c0 225 -163 324 -395 324h-351v-97h349c182 0 271 -68 287 -178h-636v-96h637z" />
    <glyph glyph-name="_186" unicode="&#x2286;" 
d="M118 90v-92h728v92h-728zM198 503c0 120 80 177 256 177h385v95h-387c-216 0 -359 -81 -359 -272s143 -273 359 -273h387v95h-385c-176 0 -256 57 -256 178z" />
    <glyph glyph-name="_187" unicode="&#x2287;" 
d="M113 90v-92h728v92h-728zM761 503c0 -121 -80 -178 -256 -178h-385v-95h387c216 0 359 82 359 273s-143 272 -359 272h-387v-95h385c176 0 256 -57 256 -177z" />
    <glyph glyph-name="_188" unicode="&#x2282;" 
d="M202 388c0 136 82 227 292 227h348v97h-350c-232 0 -395 -99 -395 -324s163 -324 395 -324h350v96h-348c-210 0 -292 92 -292 228z" />
    <glyph glyph-name="_189" unicode="&#x2283;" 
d="M757 388c0 -136 -82 -228 -292 -228h-349v-96h351c232 0 395 99 395 324s-163 324 -395 324h-351v-97h349c210 0 292 -91 292 -227z" />
    <glyph glyph-name="_190" unicode="&#x222a;" 
d="M479 82c-130 0 -217 95 -217 310v349h-107v-351c0 -232 99 -395 324 -395s324 163 324 395v351h-106v-349c0 -215 -87 -310 -218 -310z" />
    <glyph glyph-name="_191" unicode="&#x2229;" 
d="M479 675c131 0 218 -95 218 -310v-349h106v351c0 232 -99 395 -324 395s-324 -163 -324 -395v-351h107v349c0 215 87 310 217 310z" />
    <glyph glyph-name="_192" unicode="&#x2227;" 
d="M101 42l92 -45l286 605l288 -605l91 45l-358 732h-41z" />
    <glyph glyph-name="_193" unicode="&#x2228;" 
d="M459 -11h41l358 732l-91 45l-288 -605l-285 605l-93 -45z" />
    <glyph glyph-name="_194" unicode="&#xffe2;" 
d="M131 432h587v-247h109v342h-696v-95z" />
    <glyph glyph-name="_195" unicode="&#x21d2;" 
d="M40 303v-79h577l-108 -87l53 -63l357 296l-358 286l-52 -62l106 -83h-575v-80h678l79 -61l-82 -67h-675z" />
    <glyph glyph-name="_196" unicode="&#x21d4;" 
d="M658 224l-98 -88l53 -61l327 295l-328 285l-52 -60l96 -84h-354l97 84l-52 60l-328 -285l327 -295l53 61l-99 88h358zM748 431l72 -61l-74 -67h-533l-74 67l71 61h538z" />
    <glyph glyph-name="_197" unicode="&#x2200;" 
d="M547 0l265 787h-121l-55 -174h-312l-56 174h-121l266 -787h134zM354 513h251l-125 -396z" />
    <glyph glyph-name="_198" unicode="&#x2203;" 
d="M706 787h-473v-100h356v-253h-310v-101h310v-233h-350v-101h467v788z" />
    <glyph glyph-name="_199" unicode="&#xb4;" horiz-adv-x="391" 
d="M313 821h-125l-110 -182h98z" />
    <glyph glyph-name="_201" unicode="&#x2c7;" horiz-adv-x="408" 
d="M251 639l134 182h-98l-83 -102l-83 102h-98l133 -182h95z" />
    <glyph glyph-name="_202" unicode="&#x2d8;" horiz-adv-x="406" 
d="M203 643c100 0 167 61 172 168h-95c-3 -60 -31 -87 -77 -87s-74 27 -77 87h-96c6 -107 73 -168 173 -168z" />
    <glyph glyph-name="_203" unicode="&#x2dd;" horiz-adv-x="413" 
d="M400 821h-113l-118 -183h89zM221 821h-113l-96 -183h90z" />
    <glyph glyph-name="_204" unicode="&#x2da;" horiz-adv-x="391" 
d="M317 729c0 75 -52 117 -121 117c-70 0 -122 -42 -122 -117c0 -74 52 -117 122 -117c69 0 121 43 121 117zM243 729c0 -32 -18 -52 -47 -52c-30 0 -49 20 -49 52c0 33 19 53 49 53c29 0 47 -20 47 -53z" />
    <glyph glyph-name="_205" unicode="&#x2d9;" horiz-adv-x="374" 
d="M245 786h-117v-119h117v119z" />
    <glyph glyph-name="_206" unicode="&#xb8;" horiz-adv-x="394" 
d="M66 -229c31 -22 76 -38 124 -38c84 0 137 43 137 110c0 65 -46 93 -117 101l28 56h-82l-45 -93l18 -22c11 5 33 7 45 7c43 0 66 -16 66 -46c0 -26 -18 -41 -58 -41c-29 0 -59 9 -83 28z" />
    <glyph glyph-name="_207" unicode="&#x2db;" horiz-adv-x="394" 
d="M154 -1c-53 -28 -86 -78 -86 -127v-8c0 -70 53 -110 140 -110c47 0 90 13 118 42l-38 57c-19 -17 -44 -26 -72 -26c-42 0 -63 23 -63 52v5c0 36 28 80 91 115h-90z" />
    <glyph glyph-name="_208" unicode="&#xa1;" horiz-adv-x="312" 
d="M99 -91v-134h112v134l-10 429h-90zM99 442h113v120h-113v-120z" />
    <glyph glyph-name="_209" unicode="&#xbf;" horiz-adv-x="577" 
d="M60 -17c0 -128 82 -222 231 -222c148 0 230 94 230 222v4h-110c0 -79 -48 -130 -120 -130s-120 48 -120 128c0 56 19 91 79 144c80 69 101 112 101 192v35h-110v-27c0 -58 -17 -89 -83 -147c-68 -60 -98 -111 -98 -199zM240 442h112v120h-112v-120z" />
    <glyph glyph-name="_211" unicode="&#x222e;" 
d="M268 372c0 -97 65 -172 155 -194v-128c0 -62 -21 -82 -90 -82h-54v-87c22 -3 46 -4 69 -4c133 0 186 45 186 167v133c91 22 157 97 157 195s-66 173 -157 194v137c0 59 21 82 90 82h54v86c-23 4 -46 5 -69 5c-133 0 -186 -45 -186 -167v-143c-90 -22 -155 -97 -155 -194z
M604 372c0 -52 -27 -92 -70 -109v219c43 -18 70 -58 70 -110zM355 372c0 51 27 91 68 109v-218c-41 19 -68 59 -68 109z" />
    <glyph glyph-name="_212" unicode="&#x2211;" 
d="M221 20v-95h517v99h-386l173 310v32l-174 320h387v101h-517v-100l185 -336z" />
    <glyph glyph-name="_213" unicode="&#x220f;" 
d="M637 -75h116v862h-547v-862h117v761h314v-761z" />
    <glyph glyph-name="_214" unicode="&#xa4;" horiz-adv-x="705" 
d="M601 366c0 54 -17 101 -46 139l104 105l-72 72l-107 -108c-37 23 -81 36 -128 36s-91 -13 -129 -36l-106 108l-72 -72l104 -105c-28 -38 -45 -85 -45 -139s17 -102 45 -140l-104 -104l72 -72l106 106c38 -22 82 -34 129 -34s91 12 128 34l107 -106l72 72l-104 104
c29 38 46 86 46 140zM499 366c0 -96 -65 -155 -147 -155c-81 0 -147 59 -147 155s66 155 147 155c82 0 147 -59 147 -155z" />
    <glyph glyph-name="_215" unicode="&#x2109;" 
d="M403 -1h117v342h309v100h-309v245h344v101h-461v-788zM332 653c0 80 -59 143 -147 143s-147 -63 -147 -143c0 -81 59 -143 147 -143s147 62 147 143zM252 653c0 -42 -28 -68 -67 -68s-67 26 -67 68c0 41 28 67 67 67s67 -26 67 -67z" />
    <glyph glyph-name="_216" unicode="&#x2030;" horiz-adv-x="1259" 
d="M330 1c107 261 214 523 321 784h-94c-107 -261 -215 -523 -322 -784h95zM381 587c0 140 -60 211 -163 211c-107 0 -163 -74 -163 -211c0 -139 55 -212 163 -212c104 0 163 70 163 212zM286 587c0 -98 -21 -132 -68 -132c-49 0 -69 34 -69 132c0 96 21 131 69 131
c46 0 68 -35 68 -131zM507 199c0 -142 59 -211 162 -211c104 0 162 72 162 211c0 137 -58 212 -162 212c-103 0 -162 -72 -162 -212zM600 199c0 98 22 131 69 131s69 -36 69 -131c0 -99 -23 -131 -69 -131s-69 29 -69 131zM877 199c0 -140 59 -211 164 -211
c103 0 162 71 162 211c0 138 -59 212 -162 212c-105 0 -164 -73 -164 -212zM972 199c0 96 19 131 69 131c46 0 68 -33 68 -131c0 -102 -24 -131 -68 -131c-48 0 -69 32 -69 131z" />
    <glyph glyph-name="_217" unicode="&#x25c1;" 
d="M56 390l787 -453v907zM209 390l547 316v-632z" />
    <glyph glyph-name="_218" unicode="&#x25c0;" 
d="M56 390l787 -453v907z" />
    <glyph glyph-name="_219" unicode="&#x25b7;" 
d="M116 844v-907l787 453zM203 74v632l547 -316z" />
    <glyph glyph-name="_220" unicode="&#x25b6;" 
d="M116 844v-907l787 453z" />
    <glyph glyph-name="_221" unicode="&#x2664;" 
d="M56 384c0 -63 22 -107 58 -138s85 -43 138 -44c69 -1 137 29 172 77c-12 -99 -76 -205 -182 -227v-56h473v56c-108 25 -170 126 -182 228c39 -48 104 -79 174 -78c49 1 99 13 135 44c37 31 62 75 62 138c0 83 -57 160 -139 233c-81 71 -188 138 -285 195
c-99 -59 -206 -125 -286 -196c-83 -73 -138 -149 -138 -232zM460 424c-3 -41 -36 -85 -75 -113s-91 -43 -122 -42c-97 -1 -126 50 -126 126c0 57 43 118 115 183c70 63 154 117 228 160c73 -42 159 -100 226 -159c70 -61 118 -122 118 -184c0 -76 -37 -126 -128 -126
c-38 0 -87 16 -125 44c-39 29 -66 71 -70 111h-41zM598 51h-238v4c85 56 110 170 117 279h4c5 -107 33 -224 117 -279v-4z" />
    <glyph glyph-name="_222" unicode="&#x2660;" 
d="M56 383c0 -125 90 -187 196 -187c76 0 141 39 186 96c-18 -105 -88 -220 -196 -246v-50h473v50c-109 28 -181 141 -196 249c36 -57 109 -99 188 -99c99 0 197 63 197 187c0 164 -238 312 -424 428c-190 -119 -424 -262 -424 -428z" />
    <glyph glyph-name="_223" unicode="&#x2661;" 
d="M904 519c0 77 -23 130 -59 165s-85 50 -137 50s-100 -19 -140 -51s-72 -78 -88 -133c-17 55 -50 101 -90 133s-88 51 -137 51c-51 0 -100 -15 -136 -50c-37 -35 -61 -88 -61 -165c0 -104 51 -209 130 -303c78 -93 185 -176 294 -234c105 57 214 144 292 236
c79 92 132 197 132 301zM514 464c10 53 42 117 79 154c28 28 67 45 109 45c76 0 117 -52 117 -155c0 -77 -43 -163 -108 -245c-64 -80 -149 -150 -231 -195c-82 46 -168 116 -232 194c-67 80 -107 169 -107 246c0 103 47 155 118 155c40 0 75 -16 104 -46
c37 -38 71 -100 81 -153h70z" />
    <glyph glyph-name="_224" unicode="&#x2665;" 
d="M904 519c0 77 -23 130 -59 165s-85 50 -137 50c-53 0 -101 -19 -141 -51c-41 -32 -73 -78 -87 -133c-16 55 -48 100 -88 132c-41 33 -89 51 -139 52c-51 0 -100 -15 -136 -50c-37 -35 -61 -88 -61 -165c0 -104 51 -209 130 -303c78 -93 185 -176 294 -234
c105 57 214 144 292 236c79 92 132 197 132 301z" />
    <glyph glyph-name="_225" unicode="&#x2667;" 
d="M657 632c0 97 -78 178 -178 178c-102 0 -178 -80 -178 -178c0 -99 76 -178 178 -178s178 80 178 178zM715 52c-118 30 -192 127 -208 270h-56c-17 -139 -93 -243 -209 -270v-56h473v56zM588 632c0 -69 -45 -115 -109 -115c-65 0 -109 46 -109 115c0 67 44 114 109 114
c63 0 109 -47 109 -114zM598 51h-238v3c55 25 107 96 117 167h3c9 -72 59 -141 118 -167v-3zM409 332c0 97 -78 178 -178 178c-102 0 -178 -80 -178 -178c0 -99 76 -178 178 -178s178 80 178 178zM340 332c0 -69 -45 -115 -109 -115c-65 0 -109 46 -109 115
c0 67 44 114 109 114c63 0 109 -47 109 -114zM906 332c0 97 -78 178 -178 178c-102 0 -178 -80 -178 -178c0 -99 76 -178 178 -178s178 80 178 178zM837 332c0 -69 -45 -115 -109 -115c-65 0 -109 46 -109 115c0 67 44 114 109 114c63 0 109 -47 109 -114z" />
    <glyph glyph-name="_226" unicode="&#x2663;" 
d="M657 632c0 97 -80 178 -178 178c-101 0 -178 -81 -178 -178c0 -99 75 -178 178 -178c100 0 178 80 178 178zM715 46c-115 29 -207 139 -218 276h-36c-13 -134 -108 -250 -219 -276v-50h473v50zM409 331c0 98 -80 179 -178 179c-101 0 -178 -80 -178 -179
c0 -97 75 -177 178 -177c100 0 178 79 178 177zM906 331c0 98 -80 179 -178 179c-101 0 -178 -80 -178 -179c0 -97 75 -177 178 -177c100 0 178 79 178 177z" />
    <glyph glyph-name="_228" unicode="&#x25c8;" 
d="M480 870l-460 -481l460 -480l460 480zM480 757l350 -368l-350 -367l-352 367zM287 388l192 -199l191 199l-191 199z" />
    <glyph glyph-name="_229" unicode="&#x25a3;" 
d="M859 16v752h-759v-752h759zM186 95v594h587v-594h-587zM634 236v313h-309v-313h309z" />
    <glyph glyph-name="_230" unicode="&#x25d0;" 
d="M920 389c0 244 -196 441 -440 441c-246 0 -441 -196 -441 -441s193 -440 441 -440c246 0 440 195 440 440zM480 750c202 0 356 -161 356 -361c0 -199 -154 -361 -356 -361v722z" />
    <glyph glyph-name="_231" unicode="&#x25d1;" 
d="M920 389c0 244 -196 441 -441 441s-440 -196 -440 -441s193 -440 440 -440s441 195 441 440zM124 389c0 200 154 361 356 361v-722c-202 0 -356 162 -356 361z" />
    <glyph glyph-name="_232" unicode="&#x2592;" 
d="M449 73h58v60h-58v-60zM636 133v-60h56v60h-56zM600 73v60h-58v-60h58zM321 73v60h-56v-60h56zM228 73v60h-57v-60h57zM413 73v60h-57v-60h57zM728 133v-60h57v60h-57zM449 170h58v58h-58v-58zM636 228v-58h56v58h-56zM600 170v58h-58v-58h58zM321 170v58h-56v-58h56z
M228 170v58h-57v-58h57zM413 170v58h-57v-58h57zM728 228v-58h57v58h-57zM449 264h58v59h-58v-59zM636 323v-59h56v59h-56zM600 264v59h-58v-59h58zM321 264v59h-56v-59h56zM228 264v59h-57v-59h57zM413 264v59h-57v-59h57zM728 323v-59h57v59h-57zM449 358h58v62h-58v-62z
M636 420v-62h56v62h-56zM600 358v62h-58v-62h58zM321 358v62h-56v-62h56zM228 358v62h-57v-62h57zM413 358v62h-57v-62h57zM728 420v-62h57v62h-57zM449 456h58v59h-58v-59zM636 515v-59h56v59h-56zM600 456v59h-58v-59h58zM321 456v59h-56v-59h56zM228 456v59h-57v-59h57z
M413 456v59h-57v-59h57zM728 515v-59h57v59h-57zM449 550h58v59h-58v-59zM636 609v-59h56v59h-56zM600 550v59h-58v-59h58zM321 550v59h-56v-59h56zM228 550v59h-57v-59h57zM413 550v59h-57v-59h57zM728 609v-59h57v59h-57zM449 645h58v60h-58v-60zM636 705v-60h56v60h-56z
M600 645v60h-58v-60h58zM321 645v60h-56v-60h56zM228 645v60h-57v-60h57zM413 645v60h-57v-60h57zM728 705v-60h57v60h-57zM868 6v769h-776v-769h776zM144 47v682h670v-682h-670z" />
    <glyph glyph-name="_233" unicode="&#x25a4;" 
d="M868 6v769h-776v-769h776zM144 422h670v-67h-670v67zM144 213h670v-66h-670v66zM144 630h670v-66h-670v66zM144 316h670v-65h-670v65zM144 525h670v-65h-670v65zM144 47v62h670v-62h-670zM814 668h-670v61h670v-61z" />
    <glyph glyph-name="_234" unicode="&#x25a5;" 
d="M868 6v769h-776v-769h776zM241 727h65v-676h-65v676zM344 727h64v-676h-64v676zM548 727h65v-676h-65v676zM651 727h64v-676h-64v676zM446 727h64v-676h-64v676zM754 51v676h63v-676h-63zM140 727h63v-676h-63v676z" />
    <glyph glyph-name="_235" unicode="&#x25a8;" 
d="M868 6v769h-776v-769h776zM142 162l567 566h82l-649 -649v83zM164 49l651 652v-82l-570 -570h-81zM299 49l516 517v-87l-431 -430h-85zM142 301l428 427h86l-514 -513v86zM438 49l377 377v-86l-291 -291h-86zM144 439l290 289h86l-376 -376v87zM578 49l237 238v-86
l-152 -152h-85zM144 577l151 151h85l-236 -236v85zM717 49l98 99v-99h-98zM144 728h97l-97 -98v98z" />
    <glyph glyph-name="_236" unicode="&#x25a7;" 
d="M868 6v769h-776v-769h776zM817 79l-649 649h81l568 -566v-83zM714 49l-571 570v82l651 -652h-80zM574 49l-431 430v87l517 -517h-86zM817 215l-515 513h87l428 -427v-86zM435 49l-292 291v86l377 -377h-85zM815 352l-376 376h85l291 -289v-87zM295 49l-152 152v86
l238 -238h-86zM815 492l-237 236h86l151 -151v-85zM143 49v99l98 -99h-98zM815 630l-97 98h97v-98z" />
    <glyph glyph-name="_237" unicode="&#x25a6;" 
d="M868 6v769h-776v-769h776zM239 424h67v-69h-67v69zM548 424h67v-69h-67v69zM651 424h67v-69h-67v69zM342 424h67v-69h-67v69zM445 424h67v-69h-67v69zM548 215h67v-68h-67v68zM548 632h67v-68h-67v68zM239 215h67v-68h-67v68zM239 632h67v-68h-67v68zM651 215h67v-68h-67
v68zM651 632h67v-68h-67v68zM342 215h67v-68h-67v68zM342 632h67v-68h-67v68zM548 318h67v-67h-67v67zM548 527h67v-67h-67v67zM239 318h67v-67h-67v67zM239 527h67v-67h-67v67zM651 318h67v-67h-67v67zM651 527h67v-67h-67v67zM342 318h67v-67h-67v67zM342 527h67v-67h-67
v67zM445 215h67v-68h-67v68zM445 632h67v-68h-67v68zM139 424h64v-69h-64v69zM754 424h65v-69h-65v69zM445 318h67v-67h-67v67zM445 527h67v-67h-67v67zM139 215h64v-68h-64v68zM139 632h64v-68h-64v68zM754 215h65v-68h-65v68zM754 632h65v-68h-65v68zM139 527h64v-67h-64
v67zM139 318h64v-67h-64v67zM754 527h65v-67h-65v67zM754 318h65v-67h-65v67zM548 111h67v-63h-67v63zM239 111h67v-63h-67v63zM651 111h67v-63h-67v63zM342 111h67v-63h-67v63zM445 111h67v-63h-67v63zM548 730h67v-62h-67v62zM239 730h67v-62h-67v62zM651 730h67v-62h-67
v62zM342 730h67v-62h-67v62zM445 730h67v-62h-67v62zM754 48v63h65v-63h-65zM139 111h64v-63h-64v63zM139 730h64v-62h-64v62zM819 668h-65v62h65v-62z" />
    <glyph glyph-name="_238" unicode="&#x25a9;" 
d="M868 6v769h-776v-769h776zM164 459l44 44l43 -44l-43 -43zM233 391l43 43l43 -43l-43 -43zM752 502l43 -43l-44 -43l-42 43zM437 595l43 43l43 -43l-43 -43zM550 161l43 -43l-43 -43l-43 43zM505 663l43 43l43 -43l-43 -43zM163 321l43 43l43 -43l-43 -43zM753 364
l43 -43l-43 -43l-43 43zM369 663l43 43l43 -43l-43 -43zM437 187l43 43l43 -42l-43 -43zM641 391l43 43l42 -43l-43 -43zM410 160l43 -42l-43 -43l-43 42zM302 321l44 44l41 -42l-43 -43zM233 252l43 43l41 -42l-43 -43zM506 525l43 43l42 -41l-43 -43zM574 593l43 43
l42 -41l-43 -43zM163 182l43 43l42 -41l-43 -43zM275 570l44 -43l-41 -41l-44 43zM753 225l43 -43l-41 -41l-43 43zM342 636l43 -43l-41 -41l-43 44zM644 663l43 43l41 -42l-42 -42zM617 228l43 -43l-41 -41l-43 43zM684 295l43 -43l-41 -41l-43 43zM344 502l43 -43l-41 -41
l-43 43zM410 568l43 -43l-41 -41l-43 43zM369 254l44 44l40 -41l-43 -43zM548 298l42 -43l-41 -41l-42 43zM232 665l41 41l42 -43l-41 -41zM614 364l43 -42l-41 -41l-43 42zM206 639l43 -42l-41 -41l-43 42zM230 115l43 43l41 -40l-43 -43zM573 458l43 43l41 -40l-43 -43z
M300 185l43 43l40 -41l-43 -43zM641 526l43 43l41 -40l-43 -43zM687 158l42 -43l-40 -40l-43 42zM711 596l43 43l40 -41l-42 -42zM480 499l41 -42l-41 -41l-41 42zM413 432l42 -41l-41 -41l-42 41zM506 391l41 41l40 -41l-41 -41zM439 324l41 41l41 -40l-41 -41zM438 49
l42 42l42 -42h-84zM578 49l42 42l41 -42h-83zM299 49l42 42l41 -42h-83zM480 688l-40 40h80zM164 49l40 40l39 -40h-79zM717 49l39 39l40 -39h-79zM342 690l-38 38h76zM618 690l-38 38h76zM145 566l36 -37l-36 -36v73zM815 566v-73l-37 36zM145 426l36 -37l-36 -36v73z
M815 426v-73l-37 36zM205 691l-36 37h72zM791 728l-36 -37l-36 37h72zM145 287l35 -35l-35 -35v70zM815 287v-70l-35 35zM145 701l35 -35l-35 -35v70zM815 701v-70l-35 35zM145 148l33 -34l-33 -33v67zM815 148v-67l-33 33z" />
    <glyph glyph-name="_239" unicode="&#x2668;" 
d="M542 354c0 41 -15 88 -29 132s-28 89 -27 133c1 50 14 101 47 146c17 23 -12 42 -31 24c-27 -24 -54 -57 -73 -90c-18 -32 -29 -66 -30 -99c-1 -44 13 -91 28 -135c16 -44 30 -88 29 -131c-1 -53 -14 -108 -40 -148c-12 -21 15 -41 35 -23c52 46 91 122 91 191zM382 354
c0 33 -15 66 -30 99c-14 29 -25 69 -27 107c-2 54 8 106 39 150c21 29 -11 47 -35 24c-48 -47 -94 -114 -90 -195c2 -36 14 -75 28 -106c15 -34 28 -67 30 -100c3 -50 -15 -106 -39 -146c-13 -21 13 -37 37 -16c41 37 87 106 87 183zM240 317c-122 -11 -178 -67 -179 -138
c-2 -120 223 -177 420 -177s419 62 419 182c0 57 -58 115 -164 124c-15 1 -22 -23 -4 -27c48 -9 87 -38 87 -79c0 -70 -180 -106 -338 -106c-159 0 -339 31 -339 101c0 46 39 79 102 93c18 4 14 28 -4 27zM702 354c0 33 -15 66 -30 99c-14 29 -25 69 -27 107
c-2 54 8 106 39 150c21 29 -11 47 -35 24c-48 -47 -94 -114 -90 -195c2 -36 14 -75 28 -106c15 -34 28 -67 30 -100c3 -50 -15 -106 -39 -146c-13 -21 13 -37 37 -16c41 37 87 106 87 183z" />
    <glyph glyph-name="_240" unicode="&#x260f;" 
d="M251 706c-143 -2 -195 -125 -195 -217c0 -17 9 -28 24 -27l172 17c17 2 23 13 23 29v34c0 40 4 65 36 65h15v-107c-41 -15 -199 -176 -199 -306l8 -87c2 -20 10 -27 31 -27h633c17 0 27 11 29 32l7 87c0 135 -161 285 -199 301v107h15c30 0 37 -19 38 -52l1 -48
c0 -17 9 -27 26 -28l160 -17c19 0 27 5 27 26c-7 91 -50 216 -192 218h-460zM516 607v-101h-71v101h71zM735 518v42c0 49 -26 85 -74 85h-361c-53 0 -72 -41 -72 -89v-35l-119 -12c6 73 39 158 139 158h465c86 0 133 -83 138 -162zM337 292c0 -84 63 -143 146 -143
c80 0 144 62 144 143c0 78 -65 141 -144 141c-81 0 -146 -59 -146 -141zM179 191c2 108 121 246 194 289v127h24v-140h166v140h26v-127c72 -33 194 -178 196 -285l-8 -68h-593zM579 292c0 -56 -39 -100 -96 -100c-59 0 -98 44 -98 100s40 98 98 98c55 0 96 -45 96 -98z" />
    <glyph glyph-name="_241" unicode="&#x260e;" 
d="M877 462c17 -2 27 5 26 25c-2 40 -13 90 -37 130c-28 49 -75 88 -150 89h-470c-79 -1 -126 -38 -155 -87c-23 -40 -33 -90 -35 -132c-1 -20 8 -27 26 -25l167 17c15 2 22 12 21 26c-1 18 -1 47 3 66c5 24 13 41 33 41h35v-111c-33 -9 -77 -47 -124 -105
c-48 -60 -90 -136 -90 -202l8 -89c1 -16 10 -25 28 -25h636c14 0 26 7 28 24l8 95c0 63 -44 138 -92 198c-47 57 -95 98 -122 104v111h35c16 0 27 -17 31 -43c3 -20 4 -49 4 -67c0 -13 6 -21 22 -23zM539 612v-110h-116v110h116zM617 292c0 -75 -58 -135 -134 -135
c-78 0 -135 57 -135 135c0 76 58 134 135 134c74 0 134 -60 134 -134z" />
    <glyph glyph-name="_242" unicode="&#x261c;" 
d="M938 150v365h-133v-13h-44c-9 0 -14 -6 -14 -14v-38h-12c-44 0 -77 24 -121 63c-30 26 -84 34 -146 34h-19c-39 0 -82 -6 -86 -49h-286c-38 0 -55 -28 -55 -56c0 -29 18 -56 52 -56h209c-2 -3 -3 -7 -3 -12c0 -13 10 -43 25 -49c-6 -6 -9 -16 -9 -25c0 -19 11 -42 28 -49
c-3 -5 -4 -10 -4 -16c0 -20 18 -55 48 -58c8 -11 20 -19 36 -23c17 -4 36 -6 53 -6h25c9 0 20 -1 31 -1c62 0 93 10 142 43c35 24 60 36 92 34v-45c0 -9 5 -14 13 -14h45v-15h133zM373 436c11 18 18 35 19 49c2 26 8 31 45 31h31c42 0 86 -1 119 -21c25 -16 45 -35 67 -51
c22 -15 47 -26 84 -26h9v-164c-34 0 -56 -3 -93 -27c-17 -11 -39 -25 -62 -37c-21 -11 -49 -14 -69 -14c-15 0 -40 -2 -64 -2c-18 0 -36 2 -43 7c45 0 89 -2 89 63c0 31 -6 67 -13 92c17 -12 37 -22 56 -26c9 -2 15 6 15 14c0 6 -4 11 -10 15c-43 25 -73 60 -79 108
c-1 16 -5 24 -14 24c-6 0 -11 -3 -14 -12c-9 -27 -26 -41 -60 -41c-13 0 -16 3 -16 9c0 3 2 7 3 9zM359 466c-7 -13 -24 -39 -22 -49h-255c-18 0 -29 10 -29 24c0 18 13 25 30 25h276zM778 196v275h27v-275h-27zM461 304v-3c0 -13 -15 -19 -36 -22c-20 -3 -44 -4 -59 -4
c-23 0 -35 4 -35 23c0 13 7 17 26 17c20 0 56 2 83 4c13 1 21 -8 21 -15zM417 388c16 0 25 -8 25 -18c0 -15 -16 -20 -43 -22c-16 -1 -34 -2 -52 -2c-21 0 -32 6 -32 22c0 10 3 18 22 18c24 0 55 1 80 2zM473 236v-5c0 -14 -13 -19 -41 -21c-15 -1 -36 -2 -47 -2
c-19 0 -31 4 -31 24c0 8 4 14 14 14h19c21 0 42 1 63 4c14 0 22 -6 23 -14z" />
    <glyph glyph-name="_243" unicode="&#x261e;" 
d="M155 150v15h45c8 0 13 5 13 14v45c32 2 57 -10 92 -34c49 -33 80 -43 142 -43c11 0 22 1 31 1h25c17 0 36 2 53 6c16 4 28 12 36 23c30 3 48 38 48 58c0 6 -1 11 -4 16c17 7 28 30 28 49c0 9 -3 19 -9 25c15 6 25 36 25 49c0 5 -1 9 -3 12h209c34 0 52 27 52 56
c0 28 -17 56 -55 56h-286c-4 43 -47 49 -86 49h-19c-62 0 -116 -8 -146 -34c-44 -39 -77 -63 -121 -63h-12v38c0 8 -5 14 -14 14h-44v13h-133v-365h133zM587 436c1 -2 3 -6 3 -9c0 -6 -3 -9 -16 -9c-34 0 -51 14 -60 41c-3 9 -8 12 -14 12c-9 0 -13 -8 -14 -24
c-6 -48 -36 -83 -79 -108c-6 -4 -10 -9 -10 -15c0 -8 6 -16 15 -14c19 4 39 14 56 26c-7 -25 -13 -61 -13 -92c0 -65 44 -63 89 -63c-7 -5 -25 -7 -43 -7c-24 0 -49 2 -64 2c-20 0 -48 3 -69 14c-23 12 -45 26 -62 37c-37 24 -59 27 -93 27v164h9c37 0 62 11 84 26
c22 16 42 35 67 51c33 20 77 21 119 21h31c37 0 43 -5 45 -31c1 -14 8 -31 19 -49zM877 466c17 0 30 -7 30 -25c0 -14 -11 -24 -29 -24h-255c2 10 -15 36 -22 49h276zM155 196v275h27v-275h-27zM499 304c0 7 8 16 21 15c27 -2 63 -4 83 -4c19 0 26 -4 26 -17
c0 -19 -12 -23 -35 -23c-15 0 -39 1 -59 4c-21 3 -36 9 -36 22v3zM543 388c25 -1 56 -2 80 -2c19 0 22 -8 22 -18c0 -16 -11 -22 -32 -22c-18 0 -36 1 -52 2c-27 2 -43 7 -43 22c0 10 9 18 25 18zM487 236c1 8 9 14 23 14c21 -3 42 -4 63 -4h19c10 0 14 -6 14 -14
c0 -20 -12 -24 -31 -24c-11 0 -32 1 -47 2c-28 2 -41 7 -41 21v5z" />
    <glyph glyph-name="_244" unicode="&#xb6;" 
d="M460 787c-142 0 -229 -88 -229 -239v-7c0 -152 103 -241 243 -241h30v-448h77v860h51v-860h77v935h-249z" />
    <glyph glyph-name="_245" unicode="&#x2020;" 
d="M722 652h-191v189h-102v-189h-191v-91h191v-709h102v709h191v91z" />
    <glyph glyph-name="_246" unicode="&#x2021;" 
d="M238 41h191v-189h102v189h191v90h-191v430h191v91h-191v189h-102v-189h-191v-91h191v-430h-191v-90z" />
    <glyph glyph-name="_247" unicode="&#x2195;" 
d="M313 181l167 -225l166 225h-118v437h118l-166 225l-167 -225h119v-437h-119z" />
    <glyph glyph-name="_248" unicode="&#x2197;" 
d="M218 25l467 467l83 -83l42 277l-276 -43l83 -83l-467 -467z" />
    <glyph glyph-name="_249" unicode="&#x2199;" 
d="M742 686l-467 -467l-84 83l-41 -277l276 43l-83 83l467 467z" />
    <glyph glyph-name="_250" unicode="&#x2196;" 
d="M810 93l-467 467l83 83l-276 43l41 -277l84 83l467 -467z" />
    <glyph glyph-name="_251" unicode="&#x2198;" 
d="M150 618l467 -467l-83 -83l276 -43l-42 277l-83 -83l-467 467z" />
    <glyph glyph-name="_252" unicode="&#x266d;" 
d="M379 841h-60v-869c192 -2 366 130 366 298c0 101 -59 170 -146 170c-75 0 -131 -42 -160 -99v500zM379 189c0 104 63 187 134 187c51 0 79 -35 79 -120c0 -109 -102 -219 -213 -227v160z" />
    <glyph glyph-name="_253" unicode="&#x2669;" 
d="M530 134c-16 6 -39 10 -64 10c-94 0 -198 -71 -198 -156c0 -55 44 -86 100 -86c126 0 222 80 222 194v745h-60v-707z" />
    <glyph glyph-name="_254" unicode="&#x266a;" 
d="M462 134c-16 6 -38 10 -63 10c-94 0 -199 -71 -199 -156c0 -55 45 -86 101 -86c126 0 222 80 222 194v493c109 -36 201 -122 201 -242c0 -76 -27 -155 -68 -225h29c46 69 95 158 95 263c0 107 -63 180 -143 241c-77 59 -132 111 -131 215h-44v-707z" />
    <glyph glyph-name="_255" unicode="&#x266c;" 
d="M807 660l-475 -108v90l475 107v-89zM867 863l-595 -132v-596c-15 6 -37 9 -61 9c-96 0 -198 -72 -198 -155c0 -55 43 -85 99 -85c125 0 220 79 220 192v357l475 109v-315c-15 6 -37 9 -61 9c-96 0 -198 -72 -198 -155c0 -55 43 -86 99 -86c125 0 220 80 220 193v655z" />
    <glyph glyph-name="_256" unicode="&#x327f;" 
d="M906 453c-23 216 -203 370 -427 370c-241 0 -432 -172 -429 -459h214v64h-129c11 180 137 326 344 326c188 0 326 -127 348 -301h79zM53 324c22 -215 203 -369 427 -369c240 0 432 171 429 458h-215v-64h129c-10 -180 -137 -325 -343 -325c-189 0 -327 127 -348 300h-79z
M694 661h-103l-142 -223h-44v223h-94v-542h94v237h44l163 -237h106l-194 278z" />
    <glyph glyph-name="_257" unicode="&#x321c;" 
d="M37 384c0 -154 52 -299 141 -423h73c-83 127 -132 279 -132 423c0 143 49 296 132 423h-73c-89 -124 -141 -270 -141 -423zM922 384c0 153 -51 299 -140 423h-73c82 -127 131 -280 131 -423c0 -144 -49 -296 -131 -423h73c89 124 140 269 140 423zM428 615
c-8 -103 -98 -162 -210 -178v-79c111 14 212 61 261 132c48 -71 149 -118 261 -132v79c-113 16 -203 75 -211 178h205v79h-509v-79h203zM429 214v-173h99v173h240v79h-577v-79h238z" />
    <glyph glyph-name="_258" unicode="&#x2116;" horiz-adv-x="982" 
d="M412 1h101v784h-111v-531l-231 531h-101v-784h111v531zM939 367c0 146 -50 229 -182 229c-133 0 -183 -83 -183 -229c0 -145 50 -228 183 -228c132 0 182 83 182 228zM838 367c0 -98 -20 -142 -81 -142c-62 0 -83 44 -83 142s21 142 83 142c61 0 81 -44 81 -142zM579 1
h355v85h-355v-85z" />
    <glyph glyph-name="_259" unicode="&#x33c7;" 
d="M242 -14c137 0 203 108 210 275h-111c-5 -108 -35 -174 -99 -174c-86 0 -104 125 -104 306c0 192 23 306 104 306c65 0 94 -66 99 -175h111c-8 167 -72 276 -210 276c-176 0 -215 -189 -215 -407c0 -221 39 -407 215 -407zM841 281c0 185 -57 294 -182 294
s-182 -109 -182 -294c0 -187 57 -295 182 -295s182 108 182 295zM733 281c0 -134 -19 -204 -74 -204c-56 0 -75 70 -75 204c0 132 19 203 75 203c55 0 74 -71 74 -203zM947 134h-105v-134h105v134z" />
    <glyph glyph-name="_260" unicode="&#x2122;" horiz-adv-x="737" 
d="M11 720h99v-309h80v309h99v67h-278v-67zM531 411l86 203v-203h76v376h-70l-118 -280l-118 280h-70v-376h76v203l86 -203h52z" />
    <glyph glyph-name="_261" unicode="&#x33c2;" 
d="M689 321c0 120 13 163 41 163c17 0 24 -20 24 -101v-384h88v380c0 141 -32 196 -97 196c-35 0 -65 -25 -77 -74c-10 48 -40 74 -76 74c-24 0 -48 -15 -61 -49v36h-84v-563h88v323c0 119 13 162 41 162c17 0 24 -20 24 -101v-384h89v322zM238 -1h87c-6 20 -10 50 -10 78
v297c0 125 -48 201 -143 201c-89 0 -136 -70 -142 -179h87c4 60 20 89 55 89c40 0 59 -36 59 -110v-80c-16 32 -45 48 -85 48c-81 0 -131 -66 -131 -179s50 -178 131 -178c43 0 70 22 86 54c0 -17 2 -29 6 -41zM166 71c-46 0 -66 33 -66 93s20 94 66 94c45 0 65 -34 65 -94
c0 -59 -20 -93 -65 -93zM425 134h-86v-135h86v135zM952 134h-86v-135h86v135z" />
    <glyph glyph-name="_262" unicode="&#x33d8;" 
d="M114 43c15 -36 44 -57 79 -57c91 0 137 95 137 295c0 199 -46 294 -137 294c-35 0 -64 -23 -79 -57v44h-85v-806h85v287zM114 281c0 132 10 203 64 203c49 0 64 -71 64 -203c0 -134 -15 -204 -64 -204c-54 0 -64 70 -64 204zM689 321c0 120 13 163 41 163
c17 0 24 -20 24 -101v-383h88v379c0 141 -32 196 -97 196c-35 0 -65 -25 -77 -74c-10 48 -40 74 -76 74c-24 0 -48 -15 -61 -49v36h-84v-562h88v322c0 119 13 162 41 162c17 0 24 -20 24 -101v-383h89v321zM952 134h-86v-134h86v134zM425 134h-86v-134h86v134z" />
    <glyph glyph-name="_263" unicode="&#x2121;" 
d="M761 284c0 210 -77 291 -212 291c-136 0 -212 -82 -212 -294c0 -213 76 -295 212 -295c115 0 184 57 204 183h-111c-11 -66 -44 -94 -93 -94c-66 0 -98 46 -102 173h314v36zM549 486c64 0 97 -45 101 -158h-201c2 113 37 158 100 158zM8 686h156v-686h117v686h156v101
h-429v-101zM921 0v787h-111v-787h111z" />
    <glyph glyph-name="_265" unicode="&#xff02;" 
d="M611 561v224h-101v-224h101zM449 561v224h-101v-224h101z" />
    <glyph glyph-name="_266" unicode="&#xff03;" 
d="M474 1h101l46 213h153v89h-135l41 180h132v89h-114l47 213h-101l-47 -213h-159l47 213h-101l-48 -213h-151v-89h133l-40 -180h-131v-89h113l-46 -213h100l47 213h159zM419 483h159l-40 -180h-159z" />
    <glyph glyph-name="_267" unicode="&#xff04;" 
d="M751 218c0 134 -86 203 -237 231v242c59 -16 91 -57 91 -111v-12h117v12c0 106 -72 197 -208 214v88h-81v-86c-147 -11 -224 -106 -224 -216c0 -122 76 -191 200 -217c8 -2 16 -3 24 -5v-266c-68 14 -108 61 -108 123v19h-116v-16c0 -123 82 -212 224 -227v-87h81v86
c149 12 237 103 237 228zM634 215c0 -66 -44 -114 -120 -125v252c84 -18 120 -62 120 -127zM325 580c0 60 38 104 108 114v-230c-73 17 -108 52 -108 116z" />
    <glyph glyph-name="_268" unicode="&#xff05;" 
d="M367 1l321 784h-94l-322 -784h95zM418 587c0 140 -60 211 -163 211c-107 0 -163 -74 -163 -211c0 -139 55 -212 163 -212c104 0 163 70 163 212zM323 587c0 -98 -21 -132 -68 -132c-49 0 -69 34 -69 132c0 96 21 131 69 131c46 0 68 -35 68 -131zM544 199
c0 -142 59 -211 162 -211c104 0 162 72 162 211c0 137 -58 212 -162 212c-103 0 -162 -72 -162 -212zM637 199c0 98 22 131 69 131s69 -36 69 -131c0 -99 -23 -131 -69 -131s-69 29 -69 131z" />
    <glyph glyph-name="_269" unicode="&#xff06;" 
d="M766 390h-113c-3 -61 -11 -113 -27 -156l-234 258c-44 48 -58 81 -58 123c0 54 35 86 92 86s92 -32 92 -86v-23h113v26c0 112 -85 180 -205 180c-121 0 -205 -69 -205 -184c0 -65 26 -122 78 -174c-93 -56 -136 -132 -136 -224c0 -138 101 -228 260 -228
c91 0 165 28 216 77l58 -64h140l-131 143c36 64 56 147 60 246zM424 85c-82 0 -149 45 -149 133c0 59 26 113 86 153l208 -229c-33 -40 -85 -57 -145 -57z" />
    <glyph glyph-name="_270" unicode="&#xff07;" 
d="M530 561v224h-101v-224h101z" />
    <glyph glyph-name="_273" unicode="&#xff0a;" 
d="M238 447l163 -81l-163 -81l51 -87l151 100l-11 -181h101l-11 181l151 -100l51 87l-164 81l164 81l-51 88l-151 -102l11 183h-101l11 -183l-151 102z" />
    <glyph glyph-name="_274" unicode="&#xff0b;" 
d="M237 320h192v-204h102v204h192v92h-192v204h-102v-204h-192v-92z" />
    <glyph glyph-name="_276" unicode="&#xff0d;" 
d="M309 317h342v97h-342v-97z" />
    <glyph glyph-name="_278" unicode="&#xff0f;" 
d="M50 15l74 -67l785 824l-74 68z" />
    <glyph glyph-name="_279" unicode="&#xff10;" 
d="M739 393c0 179 -24 273 -80 335c-43 46 -104 70 -179 70s-138 -24 -180 -70c-56 -62 -80 -156 -80 -335s24 -273 80 -335c42 -46 105 -70 180 -70s136 24 179 70c56 62 80 156 80 335zM626 393c0 -149 -12 -221 -45 -262c-25 -30 -57 -46 -101 -46s-77 16 -102 46
c-33 41 -46 113 -46 262s13 221 46 262c25 30 58 46 102 46s76 -16 101 -46c33 -41 45 -113 45 -262z" />
    <glyph glyph-name="_280" unicode="&#xff11;" 
d="M578 1v784h-96l-201 -91v-110l184 82v-665h113z" />
    <glyph glyph-name="_281" unicode="&#xff12;" 
d="M715 563c0 130 -86 235 -240 235s-241 -105 -241 -235v-22h113v21c0 83 48 138 128 138c75 0 128 -57 128 -138c0 -46 -15 -82 -54 -126l-304 -347v-88h481v97h-331l245 279c58 66 74 110 75 186z" />
    <glyph glyph-name="_282" unicode="&#xff13;" 
d="M620 227c0 -91 -60 -141 -139 -141c-81 0 -140 51 -140 143v6h-114v-12c0 -145 107 -235 254 -235s252 90 252 232c0 105 -56 173 -142 198c73 23 119 92 119 173c0 118 -84 207 -229 207s-230 -89 -230 -207v-17h113v8c0 72 46 118 117 118c68 0 117 -46 117 -118
c0 -69 -45 -117 -115 -117h-81v-96h81c80 0 137 -53 137 -142z" />
    <glyph glyph-name="_283" unicode="&#xff14;" 
d="M324 265l206 344v-344h-206zM733 265h-90v520h-125l-312 -520v-98h324v-166h113v166h90v98z" />
    <glyph glyph-name="_284" unicode="&#xff15;" 
d="M479 412c83 0 133 -56 133 -163s-50 -165 -133 -165c-74 0 -124 44 -133 127h-112c10 -139 104 -223 245 -223c152 0 246 95 246 259c0 174 -95 262 -222 262c-59 0 -108 -25 -129 -61l12 239h296v98h-401l-20 -436h112c20 39 57 63 106 63z" />
    <glyph glyph-name="_285" unicode="&#xff16;" 
d="M344 429c4 186 40 271 138 271c66 0 106 -35 117 -98h115c-18 130 -105 196 -231 196c-180 0 -255 -121 -255 -449c0 -110 12 -204 53 -255c43 -69 111 -106 199 -106c145 0 251 99 251 261c0 161 -96 260 -236 260c-74 0 -127 -33 -151 -80zM343 249
c0 101 53 162 137 162c85 0 139 -61 139 -162c0 -103 -54 -163 -139 -163c-84 0 -137 60 -137 163z" />
    <glyph glyph-name="_286" unicode="&#xff17;" 
d="M240 687h365l-267 -686h119l263 696v88h-480v-98z" />
    <glyph glyph-name="_287" unicode="&#xff18;" 
d="M480 369c88 0 151 -55 151 -143s-63 -142 -151 -142c-89 0 -152 54 -152 142s63 143 152 143zM480 -12c155 0 264 88 264 232c0 100 -55 168 -143 197c73 26 119 95 119 174c0 119 -89 207 -240 207c-152 0 -241 -88 -241 -207c0 -79 46 -148 119 -174
c-87 -29 -142 -97 -142 -197c0 -144 108 -232 264 -232zM480 464c-78 0 -129 47 -129 119c0 71 51 118 129 118c76 0 127 -47 127 -118c0 -72 -51 -119 -127 -119z" />
    <glyph glyph-name="_288" unicode="&#xff19;" 
d="M615 356c-3 -186 -40 -270 -137 -270c-66 0 -106 34 -116 97h-116c17 -129 105 -195 231 -195c178 0 254 118 254 448c0 110 -11 203 -52 255c-42 70 -111 107 -200 107c-143 0 -251 -99 -251 -261s97 -260 237 -260c74 0 127 32 150 79zM618 537
c0 -102 -55 -163 -139 -163s-138 61 -138 163s54 163 138 163s139 -61 139 -163z" />
    <glyph glyph-name="_295" unicode="&#xff20;" 
d="M139 293c0 -381 109 -504 341 -504c57 0 113 14 159 37l-30 81c-34 -19 -83 -31 -129 -31c-171 0 -241 79 -241 417c0 334 66 418 241 418c151 0 220 -66 236 -260c-20 46 -66 76 -144 76c-124 0 -206 -89 -206 -258c0 -157 74 -259 225 -259c147 0 230 99 230 279v4
c0 368 -97 505 -341 505c-243 0 -341 -137 -341 -505zM723 269c0 -113 -40 -168 -126 -168s-126 55 -126 168c0 111 40 166 126 166s126 -55 126 -166z" />
    <glyph glyph-name="_296" unicode="&#xff21;" 
d="M810 1l-262 784h-137l-261 -784h120l55 174h310l55 -174h120zM603 276h-247l124 394z" />
    <glyph glyph-name="_297" unicode="&#xff22;" 
d="M330 454v230h150c97 0 148 -32 148 -115s-51 -115 -148 -115h-150zM523 1c164 0 243 77 243 221c0 96 -51 168 -141 187c73 21 119 79 119 168c0 136 -81 208 -240 208h-290v-784h309zM650 228c0 -88 -46 -126 -153 -126h-167v252h167c107 0 153 -38 153 -126z" />
    <glyph glyph-name="_298" unicode="&#xff23;" 
d="M295 393c0 186 40 303 189 303c111 0 173 -66 180 -172h116c-9 162 -115 274 -296 274c-247 0 -305 -196 -305 -405c0 -210 57 -405 305 -405c181 0 287 111 296 273h-116c-7 -106 -69 -172 -180 -172c-148 0 -189 115 -189 304z" />
    <glyph glyph-name="_299" unicode="&#xff24;" 
d="M663 393c0 -118 -17 -186 -52 -234c-29 -40 -75 -57 -141 -57h-154v582h154c66 0 112 -17 141 -57c35 -48 52 -116 52 -234zM779 393c0 109 -10 214 -69 294c-47 65 -122 98 -229 98h-281v-784h281c107 0 182 33 229 98c59 80 69 185 69 294z" />
    <glyph glyph-name="_300" unicode="&#xff25;" 
d="M245 1h470v101h-354v250h308v101h-308v231h348v101h-464v-784z" />
    <glyph glyph-name="_301" unicode="&#xff26;" 
d="M261 1h116v340h308v101h-308v242h342v101h-458v-784z" />
    <glyph glyph-name="_302" unicode="&#xff27;" 
d="M179 393c0 -207 61 -405 297 -405c99 0 172 48 200 112l18 -99h85v409h-290v-100h176v-29c0 -117 -69 -192 -181 -192c-128 0 -189 80 -189 304c0 186 38 303 189 303c111 0 173 -66 180 -172h116c-9 162 -115 274 -296 274c-246 0 -305 -193 -305 -405z" />
    <glyph glyph-name="_303" unicode="&#xff28;" 
d="M635 1h116v784h-116v-332h-311v332h-116v-784h116v351h311v-351z" />
    <glyph glyph-name="_304" unicode="&#xff29;" 
d="M538 785h-116v-784h116v784z" />
    <glyph glyph-name="_305" unicode="&#xff2a;" 
d="M451 89c-80 0 -130 45 -132 159h-117v-7c0 -163 93 -253 247 -253c156 0 249 90 249 253v544h-116v-528c0 -121 -52 -168 -131 -168z" />
    <glyph glyph-name="_306" unicode="&#xff2b;" 
d="M765 785h-129l-217 -332h-83v332h-116v-784h116v351h83l249 -351h132l-289 401z" />
    <glyph glyph-name="_307" unicode="&#xff2c;" 
d="M265 1h470v101h-354v683h-116v-784z" />
    <glyph glyph-name="_308" unicode="&#xff2d;" 
d="M535 1l218 548v-548h116v784h-129l-261 -652l-261 652h-128v-784h115v548l219 -548h111z" />
    <glyph glyph-name="_309" unicode="&#xff2e;" 
d="M757 1v784h-116v-578l-320 578h-119v-784h116v577l320 -577h119z" />
    <glyph glyph-name="_310" unicode="&#xff2f;" 
d="M480 -12c244 0 304 194 304 405c0 210 -61 405 -304 405c-247 0 -305 -196 -305 -405c0 -210 57 -405 305 -405zM480 89c-148 0 -189 115 -189 304c0 186 40 303 189 303c147 0 188 -117 188 -303c0 -190 -42 -304 -188 -304z" />
    <glyph glyph-name="_311" unicode="&#xff30;" 
d="M340 396v288h174c97 0 146 -53 146 -144s-49 -144 -146 -144h-174zM529 295c156 0 247 89 247 245c0 154 -91 245 -247 245h-305v-784h116v294h189z" />
    <glyph glyph-name="_312" unicode="&#xff31;" 
d="M480 -12c82 0 144 22 190 60l89 -76l66 72l-95 79c41 74 54 169 54 270c0 211 -61 405 -304 405c-246 0 -305 -193 -305 -405c0 -215 60 -405 305 -405zM480 89c-148 0 -189 115 -189 304c0 186 40 303 189 303c147 0 188 -117 188 -303c0 -79 -7 -144 -26 -194l-95 82
l-65 -73l104 -89c-26 -20 -62 -30 -106 -30z" />
    <glyph glyph-name="_313" unicode="&#xff32;" 
d="M639 70c2 -28 6 -51 12 -69h118c-7 21 -12 50 -14 85l-7 96c-7 103 -43 153 -121 167c90 26 135 96 135 200c0 149 -84 236 -247 236h-305v-784h116v296h161c106 0 141 -37 147 -133zM326 398v286h171c93 0 149 -42 149 -143s-56 -143 -149 -143h-171z" />
    <glyph glyph-name="_314" unicode="&#xff33;" 
d="M751 218c0 122 -73 196 -204 224l-101 21c-81 17 -120 51 -120 117c0 69 49 117 139 117c91 0 140 -48 140 -117v-12h117v12c0 119 -88 218 -257 218c-167 0 -256 -99 -256 -218c0 -122 76 -190 200 -216l101 -21c85 -18 124 -63 124 -127c0 -76 -57 -128 -154 -128
c-96 0 -154 52 -154 128v18h-117v-16c0 -134 102 -230 271 -230c170 0 271 96 271 230z" />
    <glyph glyph-name="_315" unicode="&#xff34;" 
d="M201 684h221v-683h116v683h221v101h-558v-101z" />
    <glyph glyph-name="_316" unicode="&#xff35;" 
d="M480 89c-122 0 -173 76 -173 218v478h-116v-493c0 -184 94 -304 289 -304s288 120 288 304v493h-116v-478c0 -142 -51 -218 -172 -218z" />
    <glyph glyph-name="_317" unicode="&#xff36;" 
d="M479 142l-209 643h-121l262 -784h137l262 784h-121z" />
    <glyph glyph-name="_318" unicode="&#xff37;" 
d="M421 785l-148 -630l-143 630h-120l188 -784h141l141 597l140 -597h141l189 784h-120l-143 -630l-148 630h-118z" />
    <glyph glyph-name="_319" unicode="&#xff38;" 
d="M798 1l-247 403l231 381h-126l-177 -297l-176 297h-126l229 -381l-245 -403h126l192 319l192 -319h127z" />
    <glyph glyph-name="_320" unicode="&#xff39;" 
d="M479 417l-197 368h-121l260 -475v-309h117v309l260 475h-122z" />
    <glyph glyph-name="_321" unicode="&#xff3a;" 
d="M225 92v-91h510v101h-370l365 592v91h-494v-101h354z" />
    <glyph glyph-name="_323" unicode="&#xffe6;" 
d="M421 785l-78 -355h-118l-75 355h-120l81 -355h-91v-64h105l83 -365h141l80 365h102l79 -365h141l83 365h106v64h-91l81 355h-120l-75 -355h-118l-78 355h-118zM631 366h91l-45 -211zM517 430h-74l37 168zM238 366h91l-46 -211z" />
    <glyph glyph-name="_325" unicode="&#xff3e;" 
d="M695 525l-167 260h-97l-167 -260h109l106 168l107 -168h109z" />
    <glyph glyph-name="_327" unicode="&#xff40;" 
d="M499 638h98l-109 181h-125z" />
    <glyph glyph-name="_328" unicode="&#xff41;" 
d="M603 61c0 -24 4 -45 11 -60h113c-8 19 -13 49 -13 77v285c0 128 -76 211 -232 211c-143 0 -220 -68 -228 -179h111c8 57 45 88 117 88c81 0 121 -44 121 -120v-91c-20 46 -81 72 -158 72c-130 0 -212 -65 -212 -178c0 -114 82 -178 212 -178c83 0 140 29 158 73zM473 77
c-85 0 -130 30 -130 89c0 58 45 89 130 89c86 0 131 -31 131 -89c0 -59 -45 -89 -131 -89z" />
    <glyph glyph-name="_329" unicode="&#xff42;" 
d="M363 785h-110v-784h110v87c22 -61 80 -100 160 -100c138 0 224 92 224 293s-86 293 -224 293c-80 0 -138 -39 -160 -100v311zM363 281c0 123 34 201 137 201s137 -78 137 -201c0 -124 -34 -201 -137 -201s-137 77 -137 201z" />
    <glyph glyph-name="_330" unicode="&#xff43;" 
d="M236 281c0 -187 82 -293 248 -293c138 0 225 70 239 197h-112c-7 -66 -52 -106 -127 -106c-103 0 -137 78 -137 202s34 202 137 202c75 0 120 -40 127 -106h112c-14 127 -101 197 -239 197c-166 0 -248 -106 -248 -293z" />
    <glyph glyph-name="_331" unicode="&#xff44;" 
d="M596 474c-21 61 -80 100 -160 100c-138 0 -224 -92 -224 -293s86 -293 224 -293c80 0 139 39 160 100v-87h111v784h-111v-311zM596 281c0 -124 -34 -201 -136 -201c-104 0 -138 77 -138 201c0 123 34 201 138 201c102 0 136 -78 136 -201z" />
    <glyph glyph-name="_332" unicode="&#xff45;" 
d="M726 247c1 11 1 22 1 34c0 186 -82 293 -247 293c-166 0 -248 -107 -248 -293c0 -187 82 -293 250 -293c134 0 215 68 233 181h-113c-8 -55 -50 -89 -120 -89c-94 0 -135 62 -139 167h383zM480 482c88 0 127 -57 135 -151h-271c8 94 46 151 136 151z" />
    <glyph glyph-name="_333" unicode="&#xff46;" 
d="M656 702v86c-23 4 -45 5 -68 5c-131 0 -184 -44 -184 -166v-66h-80v-91h80v-469h110v469h142v91h-142v61c0 59 20 80 89 80h53z" />
    <glyph glyph-name="_334" unicode="&#xff47;" 
d="M616 561v-87c-21 61 -80 100 -160 100c-138 0 -224 -92 -224 -293s86 -293 224 -293c80 0 139 39 160 100v-117c0 -91 -39 -142 -126 -142c-68 0 -110 29 -118 84h-113c15 -107 97 -171 231 -171c168 0 237 103 237 238v581h-111zM616 281c0 -124 -33 -201 -136 -201
c-104 0 -138 77 -138 201c0 123 34 201 138 201c103 0 136 -78 136 -201z" />
    <glyph glyph-name="_335" unicode="&#xff48;" 
d="M726 351c0 143 -70 223 -195 223c-85 0 -142 -42 -168 -107v318h-109v-784h109v303c0 116 61 179 141 179c72 0 111 -43 111 -140v-342h111v350z" />
    <glyph glyph-name="_336" unicode="&#xff49;" 
d="M535 1v560h-111v-560h111zM535 667v118h-111v-118h111z" />
    <glyph glyph-name="_337" unicode="&#xff4a;" 
d="M551 561h-111v-630c0 -58 -25 -81 -74 -81h-37v-90c12 -1 34 -2 47 -2c116 0 175 56 175 168v635zM551 667v118h-111v-118h111z" />
    <glyph glyph-name="_338" unicode="&#xff4b;" 
d="M375 1v248h55l177 -248h127l-212 291l186 269h-123l-153 -224h-57v448h-110v-784h110z" />
    <glyph glyph-name="_339" unicode="&#xff4c;" 
d="M535 1v784h-110v-784h110z" />
    <glyph glyph-name="_340" unicode="&#xff4d;" 
d="M535 304c0 117 55 179 133 179c66 0 101 -39 101 -120v-362h111v358c0 136 -67 215 -187 215c-85 0 -145 -36 -176 -112c-24 71 -85 112 -168 112s-135 -41 -160 -105v92h-109v-560h109v304c0 118 56 178 134 178c67 0 101 -39 101 -120v-362h111v303z" />
    <glyph glyph-name="_341" unicode="&#xff4e;" 
d="M716 351c0 143 -70 223 -195 223c-85 0 -142 -42 -168 -107v94h-109v-560h109v303c0 116 61 179 141 179c72 0 111 -43 111 -140v-342h111v350z" />
    <glyph glyph-name="_342" unicode="&#xff4f;" 
d="M480 79c-103 0 -137 78 -137 202s34 202 137 202s137 -78 137 -202s-34 -202 -137 -202zM480 574c-166 0 -248 -106 -248 -293s82 -293 248 -293c165 0 247 106 247 293s-82 293 -247 293z" />
    <glyph glyph-name="_343" unicode="&#xff50;" 
d="M362 561h-109v-803h109v330c22 -61 81 -100 161 -100c138 0 224 92 224 293s-86 293 -224 293c-80 0 -139 -39 -161 -100v87zM500 79c-104 0 -138 78 -138 202s34 202 138 202c102 0 136 -78 136 -202s-34 -202 -136 -202z" />
    <glyph glyph-name="_344" unicode="&#xff51;" 
d="M597 474c-22 61 -81 100 -160 100c-138 0 -225 -92 -225 -293s87 -293 225 -293c79 0 138 39 160 100v-330h110v803h-110v-87zM460 79c-103 0 -137 78 -137 202s34 202 137 202s137 -78 137 -202s-34 -202 -137 -202z" />
    <glyph glyph-name="_345" unicode="&#xff52;" 
d="M606 482c20 0 38 -1 47 -2l2 90c-10 3 -29 4 -46 4c-86 0 -131 -36 -155 -107v94h-109v-560h109v287c0 128 58 194 152 194z" />
    <glyph glyph-name="_346" unicode="&#xff53;" 
d="M471 574c-132 0 -209 -68 -209 -164c0 -93 55 -142 176 -163c101 -21 153 -28 153 -93c0 -47 -45 -78 -111 -78c-67 0 -112 30 -112 81v16h-110v-16c0 -98 88 -169 222 -169c135 0 221 73 221 169c0 97 -55 149 -176 171c-104 22 -154 23 -154 84c0 40 34 74 100 74
c65 0 99 -34 99 -75v-14h110v13c0 98 -78 164 -209 164z" />
    <glyph glyph-name="_347" unicode="&#xff54;" 
d="M509 470h152v91h-152v159h-110v-159h-81v-91h81v-319c0 -120 56 -158 187 -158c24 0 57 0 75 3v88h-56c-70 0 -96 17 -96 87v299z" />
    <glyph glyph-name="_348" unicode="&#xff55;" 
d="M244 211c0 -143 70 -223 194 -223c85 0 142 42 168 107v-94h110v560h-110v-303c0 -116 -60 -179 -141 -179c-72 0 -111 43 -111 140v342h-110v-350z" />
    <glyph glyph-name="_349" unicode="&#xff56;" 
d="M633 561l-153 -439l-153 439h-116l205 -560h128l205 560h-116z" />
    <glyph glyph-name="_350" unicode="&#xff57;" 
d="M424 561l-134 -431l-128 431h-114l181 -560h119l132 435l132 -435h118l182 560h-114l-129 -431l-133 431h-112z" />
    <glyph glyph-name="_351" unicode="&#xff58;" 
d="M736 1l-189 287l178 273h-120l-125 -197l-123 197h-122l179 -273l-190 -287h120l136 210l137 -210h119z" />
    <glyph glyph-name="_352" unicode="&#xff59;" 
d="M394 -89c-18 -51 -43 -63 -79 -63h-37v-89c13 -1 31 -1 46 -1c83 0 133 20 170 119l255 684h-115l-152 -424l-156 424h-115l215 -562z" />
    <glyph glyph-name="_353" unicode="&#xff5a;" 
d="M684 561h-408v-91h271l-280 -387v-82h425v91h-288l280 387v82z" />
    <glyph glyph-name="_358" unicode="&#x3131;" 
d="M175 653v-95h491v-402h109v497h-600z" />
    <glyph glyph-name="_359" unicode="&#x3132;" 
d="M135 653v-95h208v-402h108v497h-316zM500 653v-95h206v-402h109v497h-315z" />
    <glyph glyph-name="_360" unicode="&#x3133;" 
d="M120 653v-95h198v-402h108v497h-306zM598 468c0 -128 -47 -188 -126 -219v-94c80 19 151 68 180 124c31 -56 100 -105 179 -124v94c-78 31 -125 91 -125 219v185h-108v-185z" />
    <glyph glyph-name="_361" unicode="&#x3134;" 
d="M785 156v95h-492v402h-108v-497h600z" />
    <glyph glyph-name="_362" unicode="&#x3135;" 
d="M822 653h-367v-95h128v-108c0 -113 -58 -175 -136 -200v-94c81 15 159 67 190 125c33 -58 111 -110 191 -125v94c-78 25 -137 87 -137 200v108h131v95zM405 251h-164v402h-108v-497h272v95z" />
    <glyph glyph-name="_363" unicode="&#x3136;" 
d="M415 251h-174v402h-108v-497h282v95zM415 601v-92h436v92h-163v96h-111v-96h-162zM720 304c0 -20 -6 -37 -18 -50c-15 -16 -39 -26 -69 -26c-31 0 -54 10 -69 26c-13 13 -19 30 -19 50s6 38 19 51c15 16 38 25 69 25c30 0 54 -9 69 -25c12 -13 18 -31 18 -51zM439 304
c0 -48 19 -87 50 -115c36 -32 87 -48 144 -48c56 0 107 16 143 48c31 28 50 67 50 115c0 49 -19 88 -50 115c-36 32 -87 49 -143 49c-57 0 -108 -17 -144 -49c-31 -27 -50 -66 -50 -115z" />
    <glyph glyph-name="_364" unicode="&#x3137;" 
d="M293 251v307h482v95h-590v-497h600v95h-492z" />
    <glyph glyph-name="_365" unicode="&#x3138;" 
d="M607 251v307h203v95h-311v-497h321v95h-213zM256 558h187v95h-295v-497h306v95h-198v307z" />
    <glyph glyph-name="_366" unicode="&#x3139;" 
d="M298 240v119h472v304h-580v-95h471v-115h-471v-307h600v94h-492z" />
    <glyph glyph-name="_367" unicode="&#x313a;" 
d="M519 242h-272v122h216v289h-320v-86h215v-119h-215v-292h376v86zM822 653h-313v-94h205v-403h108v497z" />
    <glyph glyph-name="_368" unicode="&#x313b;" 
d="M505 653v-497h317v497h-317zM607 562h113v-316h-113v316zM464 242h-217v122h198v289h-302v-86h198v-119h-198v-292h321v86z" />
    <glyph glyph-name="_369" unicode="&#x313c;" 
d="M607 488v165h-102v-497h317v497h-102v-165h-113zM607 404h113v-158h-113v158zM464 242h-217v122h198v289h-302v-86h198v-119h-198v-292h321v86z" />
    <glyph glyph-name="_370" unicode="&#x313d;" 
d="M454 242h-207v122h198v289h-302v-86h198v-119h-198v-292h311v86zM603 460c0 -124 -45 -182 -121 -211v-94c77 17 144 65 175 119c33 -54 98 -101 174 -119v94c-75 29 -120 88 -120 211v193h-108v-193z" />
    <glyph glyph-name="_371" unicode="&#x313e;" 
d="M610 242v122h202v84h-202v119h212v86h-317v-497h324v86h-219zM464 242h-217v122h198v289h-302v-86h198v-119h-198v-292h321v86z" />
    <glyph glyph-name="_372" unicode="&#x313f;" 
d="M624 564h59v-319h-59v319zM779 245v319h43v89h-337v-89h43v-319h-46v-89h345v89h-48zM456 242h-209v122h193v289h-297v-86h193v-119h-193v-292h313v86z" />
    <glyph glyph-name="_373" unicode="&#x3140;" 
d="M464 242h-217v122h191v289h-295v-86h190v-119h-190v-292h321v86zM469 601v-92h379v92h-135v96h-112v-96h-132zM726 304c0 -23 -6 -42 -18 -55c-11 -13 -28 -21 -50 -21s-39 8 -51 21s-18 32 -18 55c0 24 6 42 18 56c12 13 29 20 51 20s39 -7 50 -20c12 -14 18 -32 18 -56
zM484 304c0 -52 19 -93 51 -121c30 -28 73 -42 123 -42s92 14 123 42s50 69 50 121s-19 94 -50 122c-31 27 -73 42 -123 42s-93 -15 -123 -42c-32 -28 -51 -70 -51 -122z" />
    <glyph glyph-name="_374" unicode="&#x3141;" 
d="M185 653v-497h590v497h-590zM666 558v-307h-373v307h373z" />
    <glyph glyph-name="_375" unicode="&#x3142;" 
d="M293 489v164h-108v-497h590v497h-109v-164h-373zM666 394v-143h-373v143h373z" />
    <glyph glyph-name="_376" unicode="&#x3143;" 
d="M270 486v167h-105v-497h630v497h-106v-167h-153v167h-104v-167h-162zM689 396v-149h-153v149h153zM432 396v-149h-162v149h162z" />
    <glyph glyph-name="_377" unicode="&#x3144;" 
d="M245 488v165h-102v-497h316v497h-102v-165h-112zM245 404h112v-158h-112v158zM603 460c0 -124 -45 -182 -121 -211v-94c77 17 144 65 175 119c33 -54 98 -101 174 -119v94c-75 29 -120 88 -120 211v193h-108v-193z" />
    <glyph glyph-name="_378" unicode="&#x3145;" 
d="M479 340c57 -95 177 -170 332 -190v95c-173 26 -278 133 -278 311v107h-109v-107c0 -178 -108 -284 -278 -311v-95c156 19 275 95 333 190z" />
    <glyph glyph-name="_379" unicode="&#x3146;" 
d="M479 155c67 30 131 93 165 155c37 -63 118 -127 209 -155v95c-96 42 -153 128 -153 273v130h-109v-130c0 -134 -52 -216 -113 -262c-62 45 -112 128 -112 262v130h-109v-130c0 -145 -58 -232 -153 -273v-95c90 28 172 92 209 155c34 -62 99 -126 166 -155z" />
    <glyph glyph-name="_380" unicode="&#x3147;" 
d="M269 405c0 47 18 87 50 116c36 33 92 52 161 52s124 -19 161 -52c32 -29 49 -69 49 -116c0 -48 -17 -88 -49 -117c-37 -32 -92 -51 -161 -51s-125 19 -161 51c-32 29 -50 69 -50 117zM161 405c0 -80 32 -146 89 -192c56 -46 135 -71 230 -71c94 0 174 25 229 71
c57 46 90 112 90 192s-33 146 -90 192c-55 45 -135 71 -229 71c-95 0 -174 -26 -230 -71c-57 -46 -89 -112 -89 -192z" />
    <glyph glyph-name="_381" unicode="&#x3148;" 
d="M424 558c0 -177 -101 -284 -266 -312v-95c141 19 260 91 321 185c60 -93 178 -166 319 -185v95c-169 28 -265 135 -265 312h256v95h-619v-95h254z" />
    <glyph glyph-name="_382" unicode="&#x3149;" 
d="M837 558v95h-703v-95h128v-50c0 -140 -58 -220 -148 -258v-95c88 25 166 88 204 150c34 -61 94 -122 161 -150c66 29 127 89 160 150c38 -63 115 -125 204 -150v95c-91 40 -148 118 -148 258v50h142zM586 558v-50c0 -124 -47 -204 -108 -247c-61 42 -107 123 -107 247v50
h215z" />
    <glyph glyph-name="_383" unicode="&#x314a;" 
d="M789 590h-256v129h-109v-129h-254v-95h252c-14 -136 -117 -228 -264 -251v-96c140 18 260 89 321 181c60 -91 179 -163 319 -181v96c-148 23 -249 115 -263 251h254v95z" />
    <glyph glyph-name="_384" unicode="&#x314b;" 
d="M185 653v-95h481v-128c-72 -10 -167 -14 -248 -14h-233v-94h232c85 0 178 5 249 17v-183h109v497h-590z" />
    <glyph glyph-name="_385" unicode="&#x314c;" 
d="M298 240v119h462v94h-462v115h472v95h-580v-517h600v94h-492z" />
    <glyph glyph-name="_386" unicode="&#x314d;" 
d="M582 432c0 -65 -5 -134 -23 -181h-178v307h201v-126zM690 558h105v95h-630v-95h107v-307h-127v-95h670v95h-148c18 48 23 117 23 188v119z" />
    <glyph glyph-name="_387" unicode="&#x314e;" 
d="M147 619v-94h666v94h-279v110h-111v-110h-276zM666 300c0 -19 -8 -34 -22 -46c-30 -25 -87 -37 -164 -37s-135 12 -164 37c-15 12 -23 27 -23 46c0 18 8 33 23 46c29 25 87 36 164 36s134 -11 164 -36c14 -13 22 -28 22 -46zM185 300c0 -44 18 -79 49 -107
c51 -45 137 -69 246 -69c108 0 195 24 245 69c32 28 50 63 50 107c0 43 -18 79 -50 107c-50 45 -137 68 -245 68c-109 0 -195 -23 -246 -68c-31 -28 -49 -64 -49 -107z" />
    <glyph glyph-name="_388" unicode="&#x314f;" 
d="M404 847v-906h109v442h167v94h-167v370h-109z" />
    <glyph glyph-name="_389" unicode="&#x3150;" 
d="M645 847h-105v-360h-121v355h-106v-890h106v440h121v-451h105v906z" />
    <glyph glyph-name="_390" unicode="&#x3151;" 
d="M404 847v-905h109v283h165v95h-165v206h165v95h-165v226h-109z" />
    <glyph glyph-name="_391" unicode="&#x3152;" 
d="M645 847h-105v-212h-121v207h-106v-890h106v264h121v-274h105v905zM540 542v-232h-121v232h121z" />
    <glyph glyph-name="_392" unicode="&#x3153;" 
d="M444 847v-370h-167v-94h167v-442h109v906h-109z" />
    <glyph glyph-name="_393" unicode="&#x3154;" 
d="M463 842h-105v-356h-152v-94h152v-440h105v890zM658 847h-105v-906h105v906z" />
    <glyph glyph-name="_394" unicode="&#x3155;" 
d="M444 847v-226h-165v-95h165v-201h-165v-95h165v-288h109v905h-109z" />
    <glyph glyph-name="_395" unicode="&#x3156;" 
d="M463 842h-105v-219h-149v-94h149v-201h-149v-94h149v-282h105v890zM658 847h-105v-906h105v906z" />
    <glyph glyph-name="_396" unicode="&#x3157;" 
d="M883 171v94h-351v373h-108v-373h-347v-94h806z" />
    <glyph glyph-name="_397" unicode="&#x3158;" 
d="M666 847v-679c-36 -31 -100 -47 -182 -47h-120v319h-109v-319h-210v-94h420c91 0 164 17 201 52v-137h109v441h152v94h-152v370h-109z" />
    <glyph glyph-name="_398" unicode="&#x3159;" 
d="M235 121h-155v-94h277c84 0 149 15 183 46v-120h105v441h95v-452h105v905h-105v-357h-95v352h-105v-681c-33 -27 -90 -40 -163 -40h-36v318h-106v-318z" />
    <glyph glyph-name="_399" unicode="&#x315a;" 
d="M827 847h-109v-679c-41 -34 -112 -47 -193 -47h-119v319h-109v-319h-222v-94h423c100 0 181 15 220 52v-138h109v906z" />
    <glyph glyph-name="_400" unicode="&#x315b;" 
d="M883 171v94h-193v352h-107v-352h-207v352h-108v-352h-191v-94h806z" />
    <glyph glyph-name="_401" unicode="&#x315c;" 
d="M424 350v-364h109v364h350v95h-806v-95h347z" />
    <glyph glyph-name="_402" unicode="&#x315d;" 
d="M719 847v-656h-203v-94h203v-155h108v905h-108zM492 302c62 0 120 6 165 24v90c-54 -14 -125 -19 -192 -19h-400v-95h203v-361h109v361h115z" />
    <glyph glyph-name="_403" unicode="&#x315e;" 
d="M740 -59h105v906h-105v-906zM359 311c59 0 111 5 154 22v89c-44 -15 -94 -17 -149 -17h-284v-94h146v-371h107v371h26zM662 842h-106v-638h-137v-94h137v-158h106v890z" />
    <glyph glyph-name="_404" unicode="&#x315f;" 
d="M513 283c101 0 167 17 206 49v-391h108v906h-108v-425c-40 -30 -100 -44 -178 -44h-476v-95h219v-343h109v343h120z" />
    <glyph glyph-name="_405" unicode="&#x3160;" 
d="M259 350v-351h107v351h231v-351h107v351h179v95h-806v-95h182z" />
    <glyph glyph-name="_406" unicode="&#x3161;" 
d="M883 171v94h-806v-94h806z" />
    <glyph glyph-name="_407" unicode="&#x3162;" 
d="M817 847h-109v-679c-41 -34 -112 -47 -193 -47h-450v-94h423c100 0 181 15 220 52v-138h109v906z" />
    <glyph glyph-name="_408" unicode="&#x3163;" 
d="M425 847v-905h109v905h-109z" />
    <glyph glyph-name="_409" unicode="&#x3165;" 
d="M825 251h-219v402h-108v-497h327v95zM455 251h-209v402h-108v-497h317v95z" />
    <glyph glyph-name="_410" unicode="&#x3166;" 
d="M606 251v307h208v95h-316v-497h322v95h-214zM455 251h-209v402h-108v-497h317v95z" />
    <glyph glyph-name="_411" unicode="&#x3167;" 
d="M437 251h-191v402h-108v-497h299v95zM598 468c0 -128 -47 -188 -126 -219v-94c80 19 151 68 180 124c31 -56 100 -105 179 -124v94c-78 31 -125 91 -125 219v185h-108v-185z" />
    <glyph glyph-name="_412" unicode="&#x3168;" 
d="M437 251h-191v402h-108v-497h299v95zM635 462l68 -220h-140zM635 693l-198 -537h394z" />
    <glyph glyph-name="_413" unicode="&#x3169;" 
d="M713 460c0 -125 -35 -184 -94 -212v-95c62 18 115 61 141 111c27 -47 78 -93 139 -111v95c-57 29 -93 88 -93 212v193h-93v-193zM365 243h-194v120h155v290h-245v-87h155v-118h-155v-292h284v87zM592 653h-234v-94h141v-403h93v497z" />
    <glyph glyph-name="_414" unicode="&#x316a;" 
d="M471 242h-224v122h206v289h-310v-86h205v-119h-205v-292h328v86zM621 251v307h201v95h-309v-497h315v95h-207z" />
    <glyph glyph-name="_415" unicode="&#x316b;" 
d="M446 489v164h-88v-497h248v497h-89v-164h-71zM446 404h71v-157h-71v157zM715 460c0 -124 -34 -184 -93 -212v-95c62 18 114 62 139 111c27 -47 78 -93 138 -111v95c-57 29 -91 89 -91 212v193h-93v-193zM331 243h-160v120h146v290h-236v-87h146v-118h-146v-292h250v87z
" />
    <glyph glyph-name="_416" unicode="&#x316c;" 
d="M645 466l68 -224h-139zM143 156h695l-193 536l-186 -511v61h-212v122h198v289h-302v-86h198v-119h-198v-292z" />
    <glyph glyph-name="_417" unicode="&#x316d;" 
d="M723 315c0 -29 -7 -53 -22 -68c-10 -10 -25 -16 -43 -16c-17 0 -30 4 -40 12c-18 14 -26 40 -26 72c0 29 7 54 23 69c10 10 25 15 43 15c16 0 29 -5 39 -14c17 -15 26 -40 26 -70zM837 559v94h-358v-94h358zM464 242h-217v122h191v289h-295v-86h190v-119h-190v-292h321
v86zM486 315c0 -65 26 -116 70 -145c27 -18 61 -28 101 -28c41 0 76 11 104 30c42 30 67 79 67 143c0 65 -26 116 -71 145c-27 18 -61 28 -100 28c-43 0 -79 -12 -108 -34c-39 -30 -63 -79 -63 -139z" />
    <glyph glyph-name="_418" unicode="&#x316e;" 
d="M609 488v165h-102v-497h315v497h-102v-165h-111zM609 404h111v-158h-111v158zM143 653v-497h314v497h-314zM245 562h110v-316h-110v316z" />
    <glyph glyph-name="_419" unicode="&#x316f;" 
d="M143 653v-497h314v497h-314zM245 562h110v-316h-110v316zM603 460c0 -124 -45 -182 -121 -211v-94c77 17 144 65 175 119c33 -54 98 -101 174 -119v94c-75 29 -120 88 -120 211v193h-108v-193z" />
    <glyph glyph-name="_420" unicode="&#x3170;" 
d="M245 562h110v-316h-110v316zM645 466l68 -224h-139zM143 156h695l-193 536l-188 -517v478h-314v-497z" />
    <glyph glyph-name="_421" unicode="&#x3171;" 
d="M225 756v-362h510v362h-510zM629 665v-180h-298v180h298zM373 185c0 17 6 31 18 42c18 16 49 25 89 25s70 -9 88 -25c12 -11 19 -25 19 -42c0 -16 -7 -31 -19 -42c-18 -15 -48 -24 -88 -24s-71 9 -89 24c-12 11 -18 26 -18 42zM267 185c0 -42 17 -77 47 -104
c39 -34 98 -52 166 -52c67 0 127 18 166 52c30 27 47 62 47 104c0 43 -17 78 -47 104c-39 34 -99 53 -166 53c-68 0 -127 -19 -166 -53c-30 -26 -47 -61 -47 -104z" />
    <glyph glyph-name="_422" unicode="&#x3172;" 
d="M245 488v165h-102v-497h329v497h-102v-165h-125zM245 404h125v-158h-125v158zM822 653h-303v-94h195v-403h108v497z" />
    <glyph glyph-name="_423" unicode="&#x3173;" 
d="M245 488v165h-102v-497h319v497h-102v-165h-115zM245 404h115v-158h-115v158zM623 251v307h199v95h-307v-497h313v95h-205z" />
    <glyph glyph-name="_424" unicode="&#x3174;" 
d="M193 489v164h-89v-497h254v497h-90v-164h-75zM193 404h75v-157h-75v157zM468 460c0 -124 -33 -184 -90 -212v-95c60 18 111 62 137 111c26 -46 76 -93 135 -111v95c-55 29 -89 89 -89 212v193h-93v-193zM848 653h-227v-94h134v-403h93v497z" />
    <glyph glyph-name="_425" unicode="&#x3175;" 
d="M848 653h-203v-497h210v94h-124v309h117v94zM192 489v164h-88v-497h245v497h-89v-164h-68zM192 404h68v-157h-68v157zM451 455c0 -121 -30 -178 -85 -207v-95c58 19 105 59 130 106c26 -45 74 -87 131 -106v95c-55 29 -85 86 -85 207v198h-91v-198z" />
    <glyph glyph-name="_426" unicode="&#x3176;" 
d="M828 558v95h-328v-95h108v-98c0 -124 -45 -184 -116 -211v-94c74 17 139 64 170 119c32 -54 95 -102 169 -119v94c-70 28 -115 88 -115 211v98h112zM245 488v165h-102v-497h319v497h-102v-165h-115zM245 404h115v-158h-115v158z" />
    <glyph glyph-name="_427" unicode="&#x3177;" 
d="M245 488v165h-102v-497h319v497h-102v-165h-115zM245 404h115v-158h-115v158zM621 242v122h191v84h-191v119h201v86h-305v-497h312v86h-208z" />
    <glyph glyph-name="_428" unicode="&#x3178;" 
d="M331 653v103h-106v-362h510v362h-106v-103h-298zM629 563v-78h-298v78h298zM373 185c0 17 6 31 18 42c18 16 49 25 89 25s70 -9 88 -25c12 -11 19 -25 19 -42c0 -16 -7 -31 -19 -42c-18 -15 -48 -24 -88 -24s-71 9 -89 24c-12 11 -18 26 -18 42zM267 185
c0 -42 17 -77 47 -104c39 -34 98 -52 166 -52c67 0 127 18 166 52c30 27 47 62 47 104c0 43 -17 78 -47 104c-39 34 -99 53 -166 53c-68 0 -127 -19 -166 -53c-30 -26 -47 -61 -47 -104z" />
    <glyph glyph-name="_429" unicode="&#x3179;" 
d="M309 653v103h-104v-362h550v362h-103v-103h-117v103h-102v-103h-124zM652 566v-84h-117v84h117zM433 566v-84h-124v84h124zM373 185c0 17 6 31 18 42c18 16 49 25 89 25s70 -9 88 -25c12 -11 19 -25 19 -42c0 -16 -7 -31 -19 -42c-18 -15 -48 -24 -88 -24s-71 9 -89 24
c-12 11 -18 26 -18 42zM267 185c0 -42 17 -77 47 -104c39 -34 98 -52 166 -52c67 0 127 18 166 52c30 27 47 62 47 104c0 43 -17 78 -47 104c-39 34 -99 53 -166 53c-68 0 -127 -19 -166 -53c-30 -26 -47 -61 -47 -104z" />
    <glyph glyph-name="_430" unicode="&#x317a;" 
d="M276 468c0 -128 -46 -188 -125 -219v-94c80 19 150 68 179 124c31 -56 100 -105 179 -124v94c-78 31 -125 91 -125 219v185h-108v-185zM500 653v-95h198v-402h108v497h-306z" />
    <glyph glyph-name="_431" unicode="&#x317b;" 
d="M815 251h-189v402h-108v-497h297v95zM251 460c0 -124 -45 -182 -120 -211v-94c77 17 143 65 174 119c33 -54 98 -101 174 -119v94c-74 29 -120 88 -120 211v193h-108v-193z" />
    <glyph glyph-name="_432" unicode="&#x317c;" 
d="M241 460c0 -124 -45 -182 -120 -211v-94c77 17 143 65 174 119c33 -54 98 -101 174 -119v94c-74 29 -120 88 -120 211v193h-108v-193zM608 251v307h205v95h-313v-497h319v95h-211z" />
    <glyph glyph-name="_433" unicode="&#x317d;" 
d="M241 460c0 -124 -45 -182 -120 -211v-94c77 17 143 65 174 119c33 -54 98 -101 174 -119v94c-74 29 -120 88 -120 211v193h-108v-193zM607 488v165h-102v-497h317v497h-102v-165h-113zM607 404h113v-158h-113v158z" />
    <glyph glyph-name="_434" unicode="&#x317e;" 
d="M834 558v95h-374v-95h128v-50c0 -124 -48 -204 -110 -247c-63 43 -109 123 -109 247v145h-109v-145c0 -140 -56 -219 -146 -258v-95c87 26 164 88 202 150c33 -61 95 -121 163 -150c67 30 129 89 162 150c39 -63 115 -124 202 -150v95c-91 40 -146 118 -146 258v50h137z
" />
    <glyph glyph-name="_435" unicode="&#x317f;" 
d="M150 156h661l-333 558zM477 527l169 -288h-333z" />
    <glyph glyph-name="_436" unicode="&#x3180;" 
d="M225 405c0 73 8 124 30 149c11 12 24 18 40 18c17 0 30 -6 40 -18c22 -25 31 -76 31 -149c0 -74 -9 -125 -31 -150c-10 -12 -23 -18 -40 -18c-16 0 -29 6 -40 18c-22 25 -30 76 -30 150zM123 405c0 -109 25 -183 71 -223c26 -23 61 -35 101 -35c41 0 75 12 102 35
c46 40 71 114 71 223c0 108 -25 182 -71 223c-27 23 -61 35 -102 35c-40 0 -75 -12 -101 -35c-46 -41 -71 -115 -71 -223zM599 405c0 73 8 124 30 149c11 12 24 18 40 18c17 0 30 -6 40 -18c22 -25 31 -76 31 -149c0 -74 -9 -125 -31 -150c-10 -12 -23 -18 -40 -18
c-16 0 -29 6 -40 18c-22 25 -30 76 -30 150zM497 405c0 -109 25 -183 71 -223c26 -23 61 -35 101 -35c41 0 75 12 102 35c46 40 71 114 71 223c0 108 -25 182 -71 223c-27 23 -61 35 -102 35c-40 0 -75 -12 -101 -35c-46 -41 -71 -115 -71 -223z" />
    <glyph glyph-name="_437" unicode="&#x3181;" 
d="M534 727h-109v-147c-80 -7 -147 -33 -194 -73c-45 -38 -71 -91 -71 -155s26 -116 71 -154c57 -50 145 -76 248 -76c102 0 191 26 248 76c45 38 71 90 71 154s-26 117 -71 155c-46 40 -114 65 -193 73v147zM268 352c0 35 14 65 41 87c36 31 95 49 170 49
c74 0 133 -18 170 -49c26 -22 40 -52 40 -87s-14 -64 -40 -87c-37 -31 -96 -48 -170 -48c-75 0 -134 17 -170 48c-27 23 -41 52 -41 87z" />
    <glyph glyph-name="_438" unicode="&#x3182;" 
d="M352 678h-109v-122c-21 -6 -39 -15 -55 -28c-44 -36 -65 -96 -65 -173s21 -138 65 -173c28 -23 64 -35 109 -35s82 12 110 35c44 35 65 96 65 173s-21 137 -65 173c-16 13 -34 22 -55 28v122zM598 468c0 -128 -47 -188 -126 -219v-94c80 19 151 68 180 124
c31 -56 100 -105 179 -124v94c-78 31 -125 91 -125 219v185h-108v-185zM225 355c0 49 8 82 26 100c11 12 27 17 46 17c20 0 35 -5 47 -17c17 -18 26 -51 26 -100s-9 -82 -26 -100c-12 -13 -27 -18 -47 -18c-19 0 -35 5 -46 18c-18 18 -26 51 -26 100z" />
    <glyph glyph-name="_439" unicode="&#x3183;" 
d="M352 678h-109v-122c-21 -6 -39 -15 -55 -28c-44 -36 -65 -96 -65 -173s21 -138 65 -173c28 -23 64 -35 109 -35s82 12 110 35c44 35 65 96 65 173s-21 137 -65 173c-16 13 -34 22 -55 28v122zM225 355c0 49 8 82 26 100c11 12 27 17 46 17c20 0 35 -5 47 -17
c17 -18 26 -51 26 -100s-9 -82 -26 -100c-12 -13 -27 -18 -47 -18c-19 0 -35 5 -46 18c-18 18 -26 51 -26 100zM645 462l66 -220h-135zM645 693l-196 -537h389z" />
    <glyph glyph-name="_440" unicode="&#x3184;" 
d="M185 394h590v90h-120c13 33 17 77 17 120v62h83v90h-550v-90h86v-182h-106v-90zM397 666h169v-70c0 -40 -3 -80 -16 -112h-153v182zM373 185c0 17 6 31 18 42c18 16 49 25 89 25s70 -9 88 -25c12 -11 19 -25 19 -42c0 -16 -7 -31 -19 -42c-18 -15 -48 -24 -88 -24
s-71 9 -89 24c-12 11 -18 26 -18 42zM267 185c0 -42 17 -77 47 -104c39 -34 98 -52 166 -52c67 0 127 18 166 52c30 27 47 62 47 104c0 43 -17 78 -47 104c-39 34 -99 53 -166 53c-68 0 -127 -19 -166 -53c-30 -26 -47 -61 -47 -104z" />
    <glyph glyph-name="_441" unicode="&#x3185;" 
d="M462 509v92h-105v97h-111v-97h-121v-92h337zM238 301c0 26 6 47 19 60c10 10 24 15 43 15s34 -5 44 -15c12 -13 19 -34 19 -60c0 -27 -7 -47 -19 -60c-10 -11 -25 -16 -44 -16s-33 5 -43 16c-13 13 -19 33 -19 60zM135 301c0 -56 19 -99 53 -127c28 -24 66 -36 112 -36
s84 12 113 36c33 28 53 71 53 127c0 55 -20 98 -53 126c-29 24 -67 37 -113 37s-84 -13 -112 -37c-34 -28 -53 -71 -53 -126zM835 509v92h-122v97h-111v-97h-105v-92h338zM722 301c0 -27 -7 -47 -19 -60c-10 -11 -25 -16 -44 -16s-33 5 -43 16c-13 13 -19 33 -19 60
c0 26 6 47 19 60c10 10 24 15 43 15s34 -5 44 -15c12 -13 19 -34 19 -60zM825 301c0 55 -20 98 -53 126c-29 24 -67 37 -113 37s-84 -13 -112 -37c-34 -28 -53 -71 -53 -126c0 -56 19 -99 53 -127c28 -24 66 -36 112 -36s84 12 113 36c33 28 53 71 53 127z" />
    <glyph glyph-name="_442" unicode="&#x3186;" 
d="M175 653v-94h610v94h-610zM641 322c0 -21 -8 -39 -24 -53c-26 -22 -72 -34 -137 -34s-112 12 -138 34c-16 14 -24 32 -24 53c0 22 8 40 24 53c26 23 73 35 138 35s111 -12 137 -35c16 -13 24 -31 24 -53zM210 322c0 -50 18 -91 53 -120c47 -40 123 -60 217 -60
s169 20 216 60c35 29 54 70 54 120c0 51 -19 91 -54 121c-47 40 -122 60 -216 60s-170 -20 -217 -60c-35 -30 -53 -70 -53 -121z" />
    <glyph glyph-name="_443" unicode="&#x3187;" 
d="M661 847v-679c-33 -28 -90 -44 -162 -47v319h-109v-319h-116v319h-109v-319h-125v-94h420c91 0 164 17 201 52v-137h109v306h152v94h-152v166h152v94h-152v245h-109z" />
    <glyph glyph-name="_444" unicode="&#x3188;" 
d="M850 -59v906h-105v-247h-95v242h-104v-681c-22 -18 -54 -30 -95 -36v314h-105v-318h-71v318h-105v-318h-90v-94h283c84 0 149 15 183 45v-119h104v286h95v-298h105zM745 335h-95v169h95v-169z" />
    <glyph glyph-name="_445" unicode="&#x3189;" 
d="M827 847h-109v-679c-35 -30 -94 -42 -165 -46v318h-109v-319h-116v319h-109v-319h-149v-94h428c100 0 181 15 220 52v-138h109v906z" />
    <glyph glyph-name="_446" unicode="&#x318a;" 
d="M719 847v-567h-188v-93h188v-62h-188v-93h188v-90h108v905h-108zM492 332c62 0 120 6 165 24v90c-55 -14 -124 -19 -193 -19h-404v-95h108v-391h108v391h86v-391h107v391h23z" />
    <glyph glyph-name="_447" unicode="&#x318b;" 
d="M740 -59h105v906h-105v-906zM307 336v-396h105v397c41 2 79 8 111 21v89c-44 -15 -94 -17 -149 -17h-294v-94h72v-396h105v396h50zM672 842h-105v-547h-118v-93h118v-59h-118v-93h118v-98h105v890z" />
    <glyph glyph-name="_448" unicode="&#x318c;" 
d="M437 288v-348h108v349c83 3 139 20 174 48v-396h108v906h-108v-420c-40 -30 -100 -44 -178 -44h-476v-95h142v-348h108v348h122z" />
    <glyph glyph-name="_449" unicode="&#x318d;" 
d="M541 483h-123v-135h123v135z" />
    <glyph glyph-name="_450" unicode="&#x318e;" 
d="M425 483h-123v-134h123v134zM535 847v-905h109v905h-109z" />
    <glyph glyph-name="_451" unicode="&#x2170;" 
d="M534 0v562h-111v-562h111zM534 668v119h-111v-119h111z" />
    <glyph glyph-name="_452" unicode="&#x2171;" 
d="M394 0v562h-110v-562h110zM394 668v119h-110v-119h110zM674 0v562h-110v-562h110zM674 668v119h-110v-119h110z" />
    <glyph glyph-name="_453" unicode="&#x2172;" 
d="M533 0v562h-109v-562h109zM533 668v119h-109v-119h109zM313 0v562h-109v-562h109zM313 668v119h-109v-119h109zM753 0v562h-109v-562h109zM753 668v119h-109v-119h109z" />
    <glyph glyph-name="_454" unicode="&#x2173;" 
d="M318 0v562h-109v-562h109zM318 668v119h-109v-119h109zM658 0l192 562h-115l-140 -443l-141 443h-115l193 -562h126z" />
    <glyph glyph-name="_455" unicode="&#x2174;" 
d="M543 -1l207 563h-116l-154 -445l-155 445h-116l208 -563h126z" />
    <glyph glyph-name="_456" unicode="&#x2175;" 
d="M445 0l192 562h-115l-140 -443l-141 443h-115l193 -562h126zM767 0v562h-109v-562h109zM767 668v119h-109v-119h109z" />
    <glyph glyph-name="_457" unicode="&#x2176;" 
d="M356 0l153 562h-113l-104 -442l-105 442h-113l154 -562h128zM643 0v562h-107v-562h107zM643 668v119h-107v-119h107zM818 0v562h-107v-562h107zM818 668v119h-107v-119h107z" />
    <glyph glyph-name="_458" unicode="&#x2177;" 
d="M292 0l124 562h-111l-80 -443l-80 443h-111l124 -562h134zM547 0v562h-105v-562h105zM547 668v119h-105v-119h105zM715 0v562h-105v-562h105zM715 668v119h-105v-119h105zM882 0v562h-105v-562h105zM882 668v119h-105v-119h105z" />
    <glyph glyph-name="_459" unicode="&#x2178;" 
d="M853 0l-194 293l178 269h-116l-120 -182l-121 182h-117l179 -270l-194 -292h117l135 204l136 -204h117zM318 0v562h-109v-562h109zM318 668v119h-109v-119h109z" />
    <glyph glyph-name="_460" unicode="&#x2179;" 
d="M737 0l-189 288l178 274h-120l-126 -201l-126 201h-120l178 -274l-190 -288h120l138 214l137 -214h120z" />
    <glyph glyph-name="_461" unicode="&#x2160;" 
d="M600 -1v99h-63v590h63v99h-242v-99h64v-590h-64v-99h242z" />
    <glyph glyph-name="_462" unicode="&#x2161;" 
d="M443 -1v98h-57v592h57v98h-227v-98h57v-592h-57v-98h227zM743 -1v98h-57v592h57v98h-227v-98h57v-592h-57v-98h227z" />
    <glyph glyph-name="_463" unicode="&#x2162;" 
d="M587 -1v97h-53v594h53v97h-215v-97h52v-594h-52v-97h215zM337 -1v97h-53v594h53v97h-215v-97h52v-594h-52v-97h215zM837 -1v97h-53v594h53v97h-215v-97h52v-594h-52v-97h215z" />
    <glyph glyph-name="_464" unicode="&#x2163;" 
d="M333 0v96h-55v594h55v97h-220v-97h55v-594h-55v-96h220zM692 0l198 787h-116l-154 -655l-153 655h-115l197 -787h143z" />
    <glyph glyph-name="_465" unicode="&#x2164;" 
d="M547 0l265 787h-121l-211 -650l-212 650h-121l266 -787h134z" />
    <glyph glyph-name="_466" unicode="&#x2165;" 
d="M848 0v96h-55v594h55v97h-220v-97h55v-594h-55v-96h220zM412 0l198 787h-116l-154 -655l-153 655h-115l197 -787h143z" />
    <glyph glyph-name="_467" unicode="&#x2166;" 
d="M917 0v95h-47v596h47v96h-200v-96h47v-596h-47v-95h200zM691 0v95h-47v596h47v96h-200v-96h47v-596h-47v-95h200zM323 0l155 787h-114l-112 -649l-112 649h-113l154 -787h142z" />
    <glyph glyph-name="_468" unicode="&#x2167;" 
d="M931 0v93h-35v600h35v94h-170v-94h34v-600h-34v-93h170zM741 0v93h-37v600h37v94h-175v-94h37v-600h-37v-93h175zM546 0v93h-35v600h35v94h-170v-94h34v-600h-34v-93h170zM267 0l95 787h-109l-62 -651l-62 651h-108l93 -787h153z" />
    <glyph glyph-name="_469" unicode="&#x2168;" 
d="M908 0l-231 401l221 386h-117l-162 -283l-162 283h-117l220 -386l-230 -401h116l173 298l172 -298h117zM318 0v96h-55v594h55v97h-220v-97h55v-594h-55v-96h220z" />
    <glyph glyph-name="_470" unicode="&#x2169;" 
d="M799 0l-247 405l232 382h-127l-177 -301l-178 301h-126l230 -382l-247 -405h128l193 322l192 -322h127z" />
    <glyph glyph-name="_471" unicode="&#x391;" horiz-adv-x="684" 
d="M273 787l-265 -787h121l55 173h312l56 -173h120l-265 787h-134zM214 273l126 396l124 -396h-250z" />
    <glyph glyph-name="_472" unicode="&#x392;" horiz-adv-x="665" 
d="M380 -1c165 0 246 76 246 222c0 97 -52 168 -142 187c73 21 119 80 119 170c0 136 -81 209 -240 209h-293v-788h310zM509 226c0 -88 -46 -127 -154 -127h-168v255h168c108 0 154 -39 154 -128zM487 570c0 -84 -50 -116 -147 -116h-153v232h153c97 0 147 -32 147 -116z
" />
    <glyph glyph-name="_473" unicode="&#x393;" horiz-adv-x="547" 
d="M70 787v-788h117v687h349v101h-466z" />
    <glyph glyph-name="_474" unicode="&#x394;" horiz-adv-x="684" 
d="M275 787l-266 -787h665l-265 787h-134zM522 99h-361l181 570z" />
    <glyph glyph-name="_475" unicode="&#x395;" horiz-adv-x="585" 
d="M70 -1h473v100h-356v253h310v101h-310v233h350v101h-467v-788z" />
    <glyph glyph-name="_476" unicode="&#x396;" horiz-adv-x="594" 
d="M40 90v-91h513v100h-372l367 596v92h-497v-101h357z" />
    <glyph glyph-name="_477" unicode="&#x397;" horiz-adv-x="688" 
d="M500 -1h117v788h-117v-334h-313v334h-117v-788h117v353h313v-353z" />
    <glyph glyph-name="_478" unicode="&#x398;" horiz-adv-x="712" 
d="M662 393c0 214 -62 407 -306 407c-245 0 -306 -194 -306 -407c0 -215 61 -407 306 -407c244 0 306 192 306 407zM546 393c0 -215 -55 -306 -190 -306c-140 0 -190 95 -190 306s52 306 190 306c136 0 190 -93 190 -306zM239 346h234v93h-234v-93z" />
    <glyph glyph-name="_479" unicode="&#x399;" horiz-adv-x="258" 
d="M187 787h-117v-788h117v788z" />
    <glyph glyph-name="_480" unicode="&#x39a;" horiz-adv-x="648" 
d="M617 787h-128l-217 -334h-85v334h-117v-788h117v353h85l248 -353h131l-286 404z" />
    <glyph glyph-name="_481" unicode="&#x39b;" horiz-adv-x="684" 
d="M674 0l-265 787h-134l-266 -787h121l212 669l211 -669h121z" />
    <glyph glyph-name="_482" unicode="&#x39c;" horiz-adv-x="924" 
d="M517 -1l221 551v-551h115v788h-126l-265 -661l-265 661h-127v-788h115v551l221 -551h111z" />
    <glyph glyph-name="_483" unicode="&#x39d;" horiz-adv-x="699" 
d="M628 0v787h-116v-582l-323 582h-119v-787h116v581l324 -581h118z" />
    <glyph glyph-name="_484" unicode="&#x39e;" horiz-adv-x="628" 
d="M48 686h532v101h-532v-101zM42 -1h543v100h-543v-100zM88 352h452v101h-452v-101z" />
    <glyph glyph-name="_485" unicode="&#x39f;" horiz-adv-x="712" 
d="M662 393c0 214 -62 407 -306 407c-245 0 -306 -194 -306 -407c0 -215 61 -407 306 -407c244 0 306 192 306 407zM546 393c0 -215 -55 -306 -190 -306c-140 0 -190 95 -190 306s52 306 190 306c136 0 190 -93 190 -306z" />
    <glyph glyph-name="_486" unicode="&#x3a0;" horiz-adv-x="688" 
d="M500 -1h117v788h-547v-788h117v687h313v-687z" />
    <glyph glyph-name="_487" unicode="&#x3a1;" horiz-adv-x="656" 
d="M376 293c159 0 250 91 250 247c0 155 -91 247 -250 247h-306v-788h117v294h189zM187 393v293h174c98 0 148 -53 148 -146s-50 -147 -148 -147h-174z" />
    <glyph glyph-name="_488" unicode="&#x3a3;" horiz-adv-x="579" 
d="M50 101v-102h494v100h-358l181 286v40l-179 261h356v101h-494v-102l194 -280z" />
    <glyph glyph-name="_489" unicode="&#x3a4;" horiz-adv-x="591" 
d="M15 686h222v-687h117v687h221v101h-560v-101z" />
    <glyph glyph-name="_490" unicode="&#x3a5;" horiz-adv-x="672" 
d="M335 415l-197 372h-123l262 -477v-311h117v311l262 477h-123z" />
    <glyph glyph-name="_491" unicode="&#x3a6;" horiz-adv-x="813" 
d="M464 787h-116v-119c-187 -9 -312 -95 -312 -275c0 -181 125 -267 312 -276v-118h116v118c188 9 313 95 313 276c0 180 -125 266 -313 275v119zM152 393c0 117 78 171 196 175v-351c-118 4 -196 59 -196 176zM660 393c0 -117 -77 -172 -196 -176v351
c119 -4 196 -58 196 -175z" />
    <glyph glyph-name="_492" unicode="&#x3a7;" horiz-adv-x="672" 
d="M656 0l-248 405l232 382h-126l-178 -301l-177 301h-127l231 -382l-247 -405h127l193 322l193 -322h127z" />
    <glyph glyph-name="_493" unicode="&#x3a8;" horiz-adv-x="764" 
d="M324 787v-514c-99 15 -147 82 -147 206v308h-117v-318c0 -166 91 -278 264 -298v-171h116v171c172 20 263 132 263 298v318h-116v-308c0 -124 -49 -191 -147 -206v514h-116z" />
    <glyph glyph-name="_494" unicode="&#x3a9;" horiz-adv-x="712" 
d="M356 800c-109 0 -185 -38 -233 -104c-55 -75 -73 -178 -73 -289c0 -155 49 -265 140 -308h-124v-100h250v100c-108 37 -150 135 -150 294c0 121 15 193 50 243c30 40 77 63 140 63c62 0 110 -23 139 -63c36 -50 50 -122 50 -243c0 -159 -42 -257 -149 -294v-100h250v100
h-124c91 43 140 153 140 308c0 111 -19 214 -73 289c-48 66 -124 104 -233 104z" />
    <glyph glyph-name="_495" unicode="&#x3b1;" horiz-adv-x="616" 
d="M429 281c0 -129 -35 -205 -138 -205s-138 76 -138 205c0 127 35 203 138 203s138 -76 138 -203zM429 87c6 -66 37 -96 120 -96c17 0 37 1 50 2v90h-17c-30 0 -42 11 -42 46v433h-111v-88c-22 61 -80 101 -163 101c-140 0 -224 -95 -224 -294c0 -201 84 -295 224 -295
c83 0 141 40 163 101z" />
    <glyph glyph-name="_496" unicode="&#x3b2;" horiz-adv-x="615" 
d="M546 578c0 129 -85 222 -243 222c-157 0 -243 -92 -243 -235v-810h111v329c28 -66 90 -98 174 -98c137 0 235 85 235 233c0 112 -73 182 -166 194c84 18 132 84 132 165zM435 574c0 -69 -43 -116 -128 -116h-29v-90h29c104 0 162 -57 162 -143c0 -94 -54 -149 -149 -149
c-97 0 -149 59 -149 162v322c0 98 48 149 132 149c83 0 132 -51 132 -135z" />
    <glyph glyph-name="_497" unicode="&#x3b3;" horiz-adv-x="572" 
d="M341 -245v237l215 570h-116l-154 -438l-154 438h-116l214 -569v-238h111z" />
    <glyph glyph-name="_498" unicode="&#x3b4;" horiz-adv-x="582" 
d="M245 696h252v91h-402v-91l162 -129c-139 -12 -215 -110 -215 -286c0 -187 80 -295 249 -295c168 0 249 108 249 295c0 115 -31 196 -94 248zM152 281c0 127 36 203 139 203c102 0 138 -76 138 -203c0 -129 -36 -204 -138 -204c-103 0 -139 75 -139 204z" />
    <glyph glyph-name="_499" unicode="&#x3b5;" horiz-adv-x="536" 
d="M272 332c-74 0 -109 33 -109 77s35 77 109 77c73 0 109 -33 109 -77v-9h111v10c0 93 -72 165 -220 165s-219 -72 -219 -161c0 -63 45 -113 105 -126c-70 -12 -118 -62 -118 -135c0 -100 87 -167 236 -167c147 0 235 68 235 168v7h-111v-3c0 -52 -49 -84 -124 -84
c-77 0 -125 30 -125 85c0 54 48 84 125 84h78v89h-82z" />
    <glyph glyph-name="_500" unicode="&#x3b6;" horiz-adv-x="496" 
d="M413 72c-200 3 -264 54 -264 160c0 177 111 336 317 461v94h-371v-91h242c-179 -111 -299 -284 -299 -472c0 -150 100 -237 319 -237c-8 -48 -31 -101 -62 -158l83 -25c51 74 88 164 88 220c0 34 -12 47 -53 48z" />
    <glyph glyph-name="_501" unicode="&#x3b7;" horiz-adv-x="594" 
d="M171 0v242c0 155 36 242 144 242c86 0 109 -70 109 -194v-534h111v595c0 144 -69 224 -192 224c-87 0 -148 -47 -172 -120v107h-111v-562h111z" />
    <glyph glyph-name="_502" unicode="&#x3b8;" horiz-adv-x="632" 
d="M584 394c0 299 -86 407 -268 407s-268 -108 -268 -407c0 -300 86 -408 268 -408s268 108 268 408zM316 711c113 0 152 -89 157 -273h-314c3 183 42 273 157 273zM316 77c-111 0 -153 84 -157 272h314c-5 -183 -40 -272 -157 -272z" />
    <glyph glyph-name="_503" unicode="&#x3b9;" horiz-adv-x="261" 
d="M171 562h-111v-447c0 -92 36 -124 121 -124c17 0 36 1 49 3v89h-17c-31 0 -42 11 -42 46v433z" />
    <glyph glyph-name="_504" unicode="&#x3ba;" horiz-adv-x="535" 
d="M171 0v249h56l178 -249h125l-211 292l186 270h-122l-155 -226h-57v226h-111v-562h111z" />
    <glyph glyph-name="_505" unicode="&#x3bb;" horiz-adv-x="547" 
d="M219 557l-216 -558h115l156 422l154 -422h116l-255 674c-39 104 -88 127 -173 127c-16 0 -34 0 -47 -2v-88h35c38 0 63 -12 82 -64z" />
    <glyph glyph-name="_506" unicode="&#x3bc;" horiz-adv-x="596" 
d="M279 -14c69 0 122 43 146 110v-96h110v562h-110v-307c0 -115 -64 -178 -144 -178c-66 0 -110 49 -110 133v352h-111v-806h111v299c16 -42 55 -69 108 -69z" />
    <glyph glyph-name="_507" unicode="&#x3bd;" horiz-adv-x="572" 
d="M349 -1l207 563h-116l-154 -445l-154 445h-116l207 -563h126z" />
    <glyph glyph-name="_508" unicode="&#x3be;" horiz-adv-x="521" 
d="M381 -13c-9 -48 -32 -101 -62 -158l82 -25c51 74 88 164 88 220c0 34 -11 47 -53 48c-199 3 -287 63 -287 171c0 103 85 175 177 175h51v91h-79c-67 0 -114 34 -114 101c0 62 33 99 100 99c64 0 96 -34 101 -82h111c-4 96 -70 173 -212 173s-211 -80 -211 -182
c0 -86 57 -143 139 -159c-101 -35 -174 -114 -174 -229c0 -153 130 -242 343 -243z" />
    <glyph glyph-name="_509" unicode="&#x3bf;" horiz-adv-x="582" 
d="M540 281c0 185 -81 294 -249 294s-249 -109 -249 -294c0 -187 81 -295 249 -295s249 108 249 295zM153 281c0 127 35 203 138 203s138 -76 138 -203c0 -129 -35 -205 -138 -205s-138 76 -138 205z" />
    <glyph glyph-name="_510" unicode="&#x3c0;" horiz-adv-x="620" 
d="M222 471h175v-472h111v472h85v91h-566v-91h84v-472h111v472z" />
    <glyph glyph-name="_511" unicode="&#x3c1;" horiz-adv-x="591" 
d="M548 281c0 185 -80 294 -249 294c-168 0 -249 -109 -249 -294v-526h111v331c22 -60 80 -100 162 -100c141 0 225 95 225 295zM299 76c-102 0 -138 76 -138 205c0 127 36 203 138 203c103 0 138 -76 138 -203c0 -129 -35 -205 -138 -205z" />
    <glyph glyph-name="_512" unicode="&#x3c3;" horiz-adv-x="594" 
d="M540 274c0 108 -40 176 -99 197h133v91h-283c-166 0 -249 -106 -249 -288c0 -183 83 -288 249 -288s249 105 249 288zM429 274c0 -125 -39 -198 -138 -198s-138 73 -138 198c0 124 39 197 138 197s138 -73 138 -197z" />
    <glyph glyph-name="_513" unicode="&#x3c4;" horiz-adv-x="505" 
d="M485 562h-472v-91h174v-332c0 -112 35 -148 148 -148c20 0 42 1 57 3v87h-32c-47 0 -62 11 -62 61v329h187v91z" />
    <glyph glyph-name="_514" unicode="&#x3c5;" horiz-adv-x="584" 
d="M292 -14c147 0 236 74 236 225v351h-111v-350c0 -94 -47 -136 -125 -136c-79 0 -126 42 -126 136v350h-111v-351c0 -151 89 -225 237 -225z" />
    <glyph glyph-name="_515" unicode="&#x3c6;" horiz-adv-x="775" 
d="M237 552c-140 -27 -196 -119 -196 -278c0 -188 79 -285 291 -288v-231h111v231c212 3 291 100 291 288c0 187 -80 287 -294 288h-108v-486c-128 0 -180 45 -180 198c0 121 34 170 103 188zM623 274c0 -153 -52 -198 -180 -198v395c128 -1 180 -44 180 -197z" />
    <glyph glyph-name="_516" unicode="&#x3c7;" horiz-adv-x="554" 
d="M433 -245h119l-206 414l194 393h-118l-145 -303l-146 303h-118l194 -393l-205 -414h118l157 322z" />
    <glyph glyph-name="_517" unicode="&#x3c8;" horiz-adv-x="734" 
d="M311 -244h111v233c161 11 256 99 256 243v330h-110v-328c0 -92 -54 -147 -146 -153v481h-111v-481c-92 6 -146 61 -146 153v328h-110v-330c0 -144 95 -232 256 -243v-233z" />
    <glyph glyph-name="_518" unicode="&#x3c9;" horiz-adv-x="838" 
d="M364 451v-201c0 -123 -34 -174 -103 -174c-71 0 -105 53 -105 188c0 90 22 198 58 298h-112c-38 -104 -57 -206 -57 -300c0 -203 84 -276 206 -276c86 0 146 40 168 120c22 -80 82 -120 168 -120c122 0 206 73 206 276c0 94 -19 196 -57 300h-112
c36 -100 58 -208 58 -298c0 -135 -34 -188 -105 -188c-69 0 -103 51 -103 174v201h-110z" />
    <glyph glyph-name="_519" unicode="&#x2500;" 
d="M960 417h-960v-59h960v59z" />
    <glyph glyph-name="_520" unicode="&#x2502;" 
d="M451 888v-1000h59v1000h-59z" />
    <glyph glyph-name="_521" unicode="&#x250c;" 
d="M451 -112h59v470h450v59h-509v-529z" />
    <glyph glyph-name="_522" unicode="&#x2510;" 
d="M510 417h-510v-59h451v-470h59v529z" />
    <glyph glyph-name="_523" unicode="&#x2518;" 
d="M510 888h-59v-471h-451v-59h510v530z" />
    <glyph glyph-name="_524" unicode="&#x2514;" 
d="M451 358h509v59h-450v471h-59v-530z" />
    <glyph glyph-name="_525" unicode="&#x251c;" 
d="M451 888v-1000h59v470h450v59h-450v471h-59z" />
    <glyph glyph-name="_526" unicode="&#x252c;" 
d="M960 417h-960v-59h451v-470h59v470h450v59z" />
    <glyph glyph-name="_527" unicode="&#x2524;" 
d="M510 888h-59v-471h-451v-59h451v-470h59v1000z" />
    <glyph glyph-name="_528" unicode="&#x2534;" 
d="M960 358v59h-450v471h-59v-471h-451v-59h960z" />
    <glyph glyph-name="_529" unicode="&#x253c;" 
d="M451 888v-471h-451v-59h451v-470h59v470h450v59h-450v471h-59z" />
    <glyph glyph-name="_530" unicode="&#x2501;" 
d="M0 435v-94h960v94h-960z" />
    <glyph glyph-name="_531" unicode="&#x2503;" 
d="M433 888v-1000h94v1000h-94z" />
    <glyph glyph-name="_532" unicode="&#x250f;" 
d="M433 435v-547h94v453h433v94h-527z" />
    <glyph glyph-name="_533" unicode="&#x2513;" 
d="M0 435v-94h433v-453h94v547h-527z" />
    <glyph glyph-name="_534" unicode="&#x251b;" 
d="M433 888v-453h-433v-94h527v547h-94z" />
    <glyph glyph-name="_535" unicode="&#x2517;" 
d="M433 888v-547h527v94h-433v453h-94z" />
    <glyph glyph-name="_536" unicode="&#x2523;" 
d="M433 888v-1000h94v453h433v94h-433v453h-94z" />
    <glyph glyph-name="_537" unicode="&#x2533;" 
d="M0 341h433v-453h94v453h433v94h-960v-94z" />
    <glyph glyph-name="_538" unicode="&#x252b;" 
d="M0 341h433v-453h94v1000h-94v-453h-433v-94z" />
    <glyph glyph-name="_539" unicode="&#x253b;" 
d="M433 435h-433v-94h960v94h-433v453h-94v-453z" />
    <glyph glyph-name="_540" unicode="&#x254b;" 
d="M433 435h-433v-94h433v-453h94v453h433v94h-433v453h-94v-453z" />
    <glyph glyph-name="_541" unicode="&#x2520;" 
d="M960 405h-433v483h-94v-1000h94v481h433v36z" />
    <glyph glyph-name="_542" unicode="&#x252f;" 
d="M960 435h-960v-94h461v-453h37v453h462v94z" />
    <glyph glyph-name="_543" unicode="&#x2528;" 
d="M527 -112v1000h-94v-483h-433v-36h433v-481h94z" />
    <glyph glyph-name="_544" unicode="&#x2537;" 
d="M461 435h-461v-94h960v94h-462v453h-37v-453z" />
    <glyph glyph-name="_545" unicode="&#x253f;" 
d="M461 435h-461v-94h461v-453h37v453h462v94h-462v453h-37v-453z" />
    <glyph glyph-name="_546" unicode="&#x251d;" 
d="M960 435h-462v453h-37v-1000h37v453h462v94z" />
    <glyph glyph-name="_547" unicode="&#x2530;" 
d="M960 405h-960v-36h433v-481h94v481h433v36z" />
    <glyph glyph-name="_548" unicode="&#x2525;" 
d="M461 435h-461v-94h461v-453h37v1000h-37v-453z" />
    <glyph glyph-name="_549" unicode="&#x2538;" 
d="M433 405h-433v-36h960v36h-433v483h-94v-483z" />
    <glyph glyph-name="_550" unicode="&#x2542;" 
d="M433 405h-433v-36h433v-481h94v481h433v36h-433v483h-94v-483z" />
    <glyph glyph-name="_551" unicode="&#x2512;" 
d="M433 369v-481h94v517h-527v-36h433z" />
    <glyph glyph-name="_552" unicode="&#x2511;" 
d="M461 341v-453h37v547h-498v-94h461z" />
    <glyph glyph-name="_553" unicode="&#x251a;" 
d="M433 405h-433v-36h527v519h-94v-483z" />
    <glyph glyph-name="_554" unicode="&#x2519;" 
d="M461 435h-461v-94h498v547h-37v-453z" />
    <glyph glyph-name="_555" unicode="&#x2516;" 
d="M527 405v483h-94v-519h527v36h-433z" />
    <glyph glyph-name="_556" unicode="&#x2515;" 
d="M498 435v453h-37v-547h499v94h-462z" />
    <glyph glyph-name="_557" unicode="&#x250e;" 
d="M527 369h433v36h-527v-517h94v481z" />
    <glyph glyph-name="_558" unicode="&#x250d;" 
d="M461 435v-547h37v453h462v94h-499z" />
    <glyph glyph-name="_559" unicode="&#x251e;" 
d="M433 888v-519h28v-481h37v481h462v36h-433v483h-94z" />
    <glyph glyph-name="_560" unicode="&#x251f;" 
d="M461 888v-483h-28v-517h94v481h433v36h-462v483h-37z" />
    <glyph glyph-name="_561" unicode="&#x2521;" 
d="M461 -112h37v453h462v94h-433v453h-94v-547h28v-453z" />
    <glyph glyph-name="_562" unicode="&#x2522;" 
d="M433 -112h94v453h433v94h-462v453h-37v-453h-28v-547z" />
    <glyph glyph-name="_563" unicode="&#x2526;" 
d="M433 888v-483h-433v-36h461v-481h37v481h29v519h-94z" />
    <glyph glyph-name="_564" unicode="&#x2527;" 
d="M0 405v-36h433v-481h94v517h-29v483h-37v-483h-461z" />
    <glyph glyph-name="_565" unicode="&#x2529;" 
d="M0 341h461v-453h37v453h29v547h-94v-453h-433v-94z" />
    <glyph glyph-name="_566" unicode="&#x252a;" 
d="M0 341h433v-453h94v547h-29v453h-37v-453h-461v-94z" />
    <glyph glyph-name="_567" unicode="&#x252d;" 
d="M0 341h461v-453h37v481h462v36h-462v30h-498v-94z" />
    <glyph glyph-name="_568" unicode="&#x252e;" 
d="M0 369h461v-481h37v453h462v94h-499v-30h-461v-36z" />
    <glyph glyph-name="_569" unicode="&#x2531;" 
d="M0 341h433v-453h94v481h433v36h-433v30h-527v-94z" />
    <glyph glyph-name="_570" unicode="&#x2532;" 
d="M0 369h433v-481h94v453h433v94h-527v-30h-433v-36z" />
    <glyph glyph-name="_571" unicode="&#x2535;" 
d="M0 341h498v28h462v36h-462v483h-37v-453h-461v-94z" />
    <glyph glyph-name="_572" unicode="&#x2536;" 
d="M0 369h461v-28h499v94h-462v453h-37v-483h-461v-36z" />
    <glyph glyph-name="_573" unicode="&#x2539;" 
d="M0 341h527v28h433v36h-433v483h-94v-453h-433v-94z" />
    <glyph glyph-name="_574" unicode="&#x253a;" 
d="M0 369h433v-28h527v94h-433v453h-94v-483h-433v-36z" />
    <glyph glyph-name="_575" unicode="&#x253d;" 
d="M0 341h461v-453h37v481h462v36h-462v483h-37v-453h-461v-94z" />
    <glyph glyph-name="_576" unicode="&#x253e;" 
d="M498 888h-37v-483h-461v-36h461v-481h37v453h462v94h-462v453z" />
    <glyph glyph-name="_577" unicode="&#x2540;" 
d="M527 888h-94v-483h-433v-36h461v-481h37v481h462v36h-433v483z" />
    <glyph glyph-name="_578" unicode="&#x2541;" 
d="M498 888h-37v-483h-461v-36h433v-481h94v481h433v36h-462v483z" />
    <glyph glyph-name="_579" unicode="&#x2543;" 
d="M527 888h-94v-453h-433v-94h461v-453h37v453h29v28h433v36h-433v483z" />
    <glyph glyph-name="_580" unicode="&#x2544;" 
d="M498 -112v453h462v94h-433v453h-94v-483h-433v-36h433v-28h28v-453h37z" />
    <glyph glyph-name="_581" unicode="&#x2545;" 
d="M498 888h-37v-453h-461v-94h433v-453h94v481h433v36h-433v30h-29v453z" />
    <glyph glyph-name="_582" unicode="&#x2546;" 
d="M498 888h-37v-453h-28v-30h-433v-36h433v-481h94v452h433v95h-462v453z" />
    <glyph glyph-name="_583" unicode="&#x2547;" 
d="M527 888h-94v-453h-433v-94h461v-453h37v453h462v94h-433v453z" />
    <glyph glyph-name="_584" unicode="&#x2548;" 
d="M498 888h-37v-453h-461v-94h433v-453h94v453h433v94h-462v453z" />
    <glyph glyph-name="_585" unicode="&#x2549;" 
d="M527 888h-94v-453h-433v-94h433v-453h94v481h433v36h-433v483z" />
    <glyph glyph-name="_586" unicode="&#x254a;" 
d="M527 888h-94v-483h-433v-36h433v-481h94v453h433v94h-433v453z" />
    <glyph glyph-name="_587" unicode="&#x3395;" 
d="M260 -14c44 0 82 25 105 64v-50h108v562h-108v-307c0 -115 -44 -178 -104 -178c-53 0 -77 59 -77 133v352h-108v-806h108v263c17 -21 43 -33 76 -33zM736 -14c93 0 153 56 170 161l-105 25c-9 -65 -34 -92 -64 -92c-39 0 -65 36 -69 124c146 79 225 210 225 378v9
c0 132 -59 209 -165 209c-108 0 -167 -77 -167 -210v-331c-24 -9 -54 -19 -83 -28l29 -91c22 6 41 11 57 17c18 -111 83 -171 172 -171zM668 592c0 75 21 113 60 113c38 0 58 -38 58 -113v-10c0 -110 -36 -198 -118 -260v270z" />
    <glyph glyph-name="_588" unicode="&#x3396;" 
d="M781 -14c85 0 139 56 154 160l-102 28c-9 -67 -28 -94 -51 -94c-32 0 -52 35 -55 125c124 79 197 210 197 377v9c0 132 -53 209 -150 209c-98 0 -151 -77 -151 -210v-333c-20 -9 -46 -19 -68 -27l26 -92c15 5 33 13 45 17c15 -111 74 -169 155 -169zM727 592
c0 75 16 113 47 113c30 0 46 -38 46 -113v-10c0 -104 -30 -189 -93 -250v260zM347 301c0 120 22 183 59 183c25 0 40 -40 40 -121v-363h103v359c0 139 -44 216 -127 216c-45 0 -79 -22 -101 -64c-21 42 -56 64 -102 64c-30 0 -59 -17 -77 -42v29h-100v-562h102v302
c0 119 23 182 59 182c26 0 41 -40 41 -121v-363h103v301z" />
    <glyph glyph-name="_589" unicode="&#x3397;" 
d="M359 521c-23 35 -61 54 -111 54c-111 0 -180 -95 -180 -294c0 -200 69 -295 180 -295c49 0 88 20 111 54v-40h106v787h-106v-266zM359 281c0 -129 -23 -204 -93 -204c-69 0 -92 75 -92 204c0 127 23 203 92 203c70 0 93 -76 93 -203zM735 -14c93 0 153 56 170 161
l-105 25c-9 -65 -34 -92 -64 -92c-39 0 -65 36 -69 124c146 79 225 210 225 378v9c0 132 -59 209 -165 209c-108 0 -167 -77 -167 -210v-331c-24 -9 -54 -19 -83 -28l29 -91c22 6 41 11 57 17c18 -111 83 -171 172 -171zM667 592c0 75 21 113 60 113c38 0 58 -38 58 -113
v-10c0 -110 -36 -198 -118 -260v270z" />
    <glyph glyph-name="_590" unicode="&#x2113;" horiz-adv-x="567" 
d="M330 -12c107 0 180 54 200 160l-109 21c-12 -61 -51 -86 -91 -86c-55 0 -90 36 -96 120c182 82 281 212 281 378v9c0 132 -71 208 -197 208c-127 0 -197 -76 -197 -208v-325c-33 -11 -68 -21 -106 -30l35 -91c26 6 51 13 75 19c17 -111 94 -175 205 -175zM234 591
c0 73 28 112 84 112s85 -39 85 -112v-10c0 -111 -53 -200 -169 -266v276z" />
    <glyph glyph-name="_591" unicode="&#x3398;" 
d="M214 0v249h29l143 -249h116l-168 292l148 270h-114l-124 -226h-30v451h-107v-787h107zM725 -14c92 0 152 56 169 161l-105 25c-9 -65 -34 -92 -63 -92c-40 0 -66 36 -70 123c146 80 226 210 226 379v9c0 132 -59 209 -166 209c-108 0 -167 -77 -167 -210v-331
c-24 -9 -54 -19 -83 -28l29 -92c20 6 40 12 57 18c17 -111 83 -171 173 -171zM657 592c0 75 20 113 59 113c38 0 59 -38 59 -113v-10c0 -110 -36 -198 -118 -260v270z" />
    <glyph glyph-name="_592" unicode="&#x33c4;" 
d="M60 281c0 -187 66 -295 204 -295c116 0 187 72 197 198h-107c-7 -67 -38 -108 -90 -108c-71 0 -97 76 -97 205c0 127 26 203 97 203c52 0 83 -40 90 -107h107c-10 126 -81 198 -197 198c-138 0 -204 -109 -204 -294zM504 281c0 -187 67 -295 204 -295
c116 0 187 72 197 198h-108c-6 -67 -37 -108 -89 -108c-71 0 -97 76 -97 205c0 127 26 203 97 203c52 0 83 -40 89 -107h108c-10 126 -81 198 -197 198c-137 0 -204 -109 -204 -294z" />
    <glyph glyph-name="_593" unicode="&#x33a3;" 
d="M873 679c0 -18 -10 -28 -23 -28c-16 0 -28 10 -28 39h-64c0 -58 33 -91 89 -91c53 0 89 29 89 78c0 27 -10 46 -28 57c13 12 21 31 21 51c0 41 -29 74 -82 74c-51 0 -81 -31 -81 -72v-12h62c0 23 8 32 19 32c13 0 19 -13 19 -24c0 -14 -5 -25 -18 -25h-36v-52h36
c16 0 25 -9 25 -27zM292 301c0 125 15 183 43 183c21 0 28 -40 28 -121v-363h93v359c0 149 -38 216 -108 216c-37 0 -64 -20 -82 -53c-16 34 -46 53 -81 53c-24 0 -49 -13 -63 -31v18h-85v-562h92v302c0 124 14 182 43 182c21 0 28 -40 28 -121v-363h92v301zM760 301
c0 125 14 183 42 183c21 0 29 -40 29 -121v-363h92v359c0 149 -37 216 -107 216c-38 0 -65 -20 -83 -53c-16 34 -46 53 -81 53c-24 0 -48 -13 -63 -31v18h-85v-562h92v302c0 124 15 182 43 182c21 0 29 -40 29 -121v-363h92v301z" />
    <glyph glyph-name="_594" unicode="&#x33a4;" 
d="M726 301c0 120 22 183 56 183c24 0 39 -40 39 -121v-363h100v359c0 139 -42 216 -123 216c-45 0 -77 -21 -98 -62c-20 40 -54 62 -97 62c-32 0 -62 -17 -79 -40v27h-92v-562h100v307c0 119 21 177 56 177c24 0 39 -40 39 -121v-363h99v301zM31 281
c0 -187 59 -295 186 -295c107 0 170 72 180 198h-101c-6 -67 -33 -107 -79 -107c-63 0 -85 75 -85 204c0 127 22 203 85 203c46 0 73 -40 79 -107h101c-10 126 -73 198 -180 198c-127 0 -186 -109 -186 -294zM873 679c0 -18 -10 -28 -23 -28c-16 0 -28 10 -28 39h-64
c0 -58 33 -91 89 -91c53 0 89 29 89 78c0 27 -10 46 -28 57c13 12 21 31 21 51c0 41 -29 74 -82 74c-51 0 -81 -31 -81 -72v-12h62c0 23 8 32 19 32c13 0 19 -13 19 -24c0 -14 -5 -25 -18 -25h-36v-52h36c16 0 25 -9 25 -27z" />
    <glyph glyph-name="_595" unicode="&#x33a5;" 
d="M525 301c0 120 56 183 134 183c66 0 103 -40 103 -121v-363h111v359c0 139 -67 216 -187 216c-85 0 -145 -40 -177 -116c-25 76 -87 116 -170 116s-138 -42 -161 -110v97h-111v-562h111v302c0 119 55 182 133 182c67 0 104 -40 104 -121v-363h110v301zM873 679
c0 -18 -10 -28 -23 -28c-16 0 -28 10 -28 39h-64c0 -58 33 -91 89 -91c53 0 89 29 89 78c0 27 -10 46 -28 57c13 12 21 31 21 51c0 41 -29 74 -82 74c-51 0 -81 -31 -81 -72v-12h62c0 23 8 32 19 32c13 0 19 -13 19 -24c0 -14 -5 -25 -18 -25h-36v-52h36c16 0 25 -9 25 -27z
" />
    <glyph glyph-name="_596" unicode="&#x33a6;" 
d="M720 301c0 120 21 183 57 183c25 0 39 -40 39 -121v-363h100v359c0 139 -43 216 -123 216c-45 0 -78 -21 -99 -63c-21 41 -54 63 -98 63c-33 0 -61 -17 -78 -40v27h-95v-562h100v302c0 119 22 182 57 182c25 0 39 -40 39 -121v-363h101v301zM873 679
c0 -18 -10 -28 -23 -28c-16 0 -28 10 -28 39h-64c0 -58 33 -91 89 -91c53 0 89 29 89 78c0 27 -10 46 -28 57c13 12 21 31 21 51c0 41 -29 74 -82 74c-51 0 -81 -31 -81 -72v-12h62c0 23 8 32 19 32c13 0 19 -13 19 -24c0 -14 -5 -25 -18 -25h-36v-52h36c16 0 25 -9 25 -27z
M145 0v249h22l131 -249h115l-155 292l136 270h-113l-113 -226h-23v451h-107v-787h107z" />
    <glyph glyph-name="_597" unicode="&#x3399;" 
d="M353 704v86c-22 4 -43 5 -65 5c-127 0 -178 -44 -178 -167v-66h-77v-91h77v-472h106v472h137v91h-137v60c0 61 19 82 85 82h52zM694 301c0 120 20 183 56 183c27 0 39 -40 39 -121v-364h102v360c0 139 -44 216 -125 216c-45 0 -78 -21 -99 -63c-21 41 -55 63 -99 63
c-32 0 -61 -17 -77 -40v27h-96v-563h101v303c0 119 21 182 56 182c28 0 40 -40 40 -121v-364h102v302z" />
    <glyph glyph-name="_598" unicode="&#x339a;" 
d="M377 351c0 148 -46 224 -139 224c-45 0 -79 -20 -100 -53v40h-101v-563h101v302c0 118 34 183 80 183c40 0 58 -43 58 -144v-341h101v352zM729 301c0 120 22 183 56 183c27 0 39 -40 39 -121v-364h100v360c0 139 -42 216 -123 216c-45 0 -77 -21 -98 -62
c-20 40 -54 62 -97 62c-32 0 -62 -17 -79 -40v27h-92v-563h100v308c0 119 21 177 56 177c26 0 39 -40 39 -121v-364h99v302z" />
    <glyph glyph-name="_599" unicode="&#x339b;" 
d="M729 301c0 120 22 183 56 183c24 0 39 -40 39 -121v-363h100v359c0 139 -42 216 -123 216c-45 0 -77 -21 -98 -62c-20 40 -54 62 -97 62c-32 0 -62 -17 -79 -40v27h-92v-562h100v307c0 119 21 177 56 177c24 0 39 -40 39 -121v-363h99v301zM193 -14c34 0 62 22 81 52v-38
h101v562h-101v-312c0 -115 -34 -173 -80 -173c-34 0 -56 39 -56 128v357h-101v-806h101v254c13 -15 33 -24 55 -24z" />
    <glyph glyph-name="_600" unicode="&#x339c;" 
d="M291 301c0 125 15 183 43 183c21 0 28 -40 28 -121v-364h93v360c0 149 -38 216 -108 216c-37 0 -64 -20 -82 -53c-16 34 -46 53 -81 53c-24 0 -49 -13 -63 -31v18h-85v-563h92v303c0 124 14 182 43 182c21 0 28 -40 28 -121v-364h92v302zM761 301c0 125 14 183 42 183
c21 0 29 -40 29 -121v-364h92v360c0 149 -37 216 -107 216c-38 0 -65 -20 -83 -53c-16 34 -46 53 -81 53c-24 0 -48 -13 -63 -31v18h-85v-563h92v303c0 124 15 182 43 182c21 0 29 -40 29 -121v-364h92v302z" />
    <glyph glyph-name="_601" unicode="&#x339d;" 
d="M726 301c0 120 22 183 56 183c27 0 39 -40 39 -121v-364h100v360c0 139 -42 216 -123 216c-45 0 -77 -21 -98 -62c-20 40 -54 62 -97 62c-32 0 -62 -17 -79 -40v27h-92v-563h100v308c0 119 21 177 56 177c26 0 39 -40 39 -121v-364h99v302zM31 281
c0 -187 59 -295 186 -295c107 0 170 72 180 198h-101c-6 -67 -33 -108 -79 -108c-63 0 -85 76 -85 205c0 127 22 203 85 203c46 0 73 -40 79 -107h101c-10 126 -73 198 -180 198c-127 0 -186 -109 -186 -294z" />
    <glyph glyph-name="_602" unicode="&#x339e;" 
d="M724 301c0 120 21 183 57 183c25 0 39 -40 39 -121v-363h100v359c0 139 -43 216 -123 216c-45 0 -78 -21 -99 -63c-21 41 -54 63 -98 63c-33 0 -61 -17 -78 -40v27h-95v-562h100v302c0 119 22 182 57 182c25 0 39 -40 39 -121v-363h101v301zM149 0v249h22l131 -249h115
l-155 292l136 270h-113l-113 -226h-23v451h-107v-787h107z" />
    <glyph glyph-name="_603" unicode="&#x339f;" 
d="M292 301c0 125 15 183 43 183c21 0 28 -40 28 -121v-364h93v360c0 149 -38 216 -108 216c-37 0 -64 -20 -82 -53c-16 34 -46 53 -81 53c-24 0 -49 -13 -63 -31v18h-85v-563h92v303c0 124 14 182 43 182c21 0 28 -40 28 -121v-364h92v302zM760 301c0 125 14 183 42 183
c21 0 29 -40 29 -121v-364h92v360c0 149 -37 216 -107 216c-38 0 -65 -20 -83 -53c-16 34 -46 53 -81 53c-24 0 -48 -13 -63 -31v18h-85v-563h92v303c0 124 15 182 43 182c21 0 29 -40 29 -121v-364h92v302zM930 780c0 43 -30 80 -85 80c-56 0 -86 -37 -86 -80v-19h64v18
c0 17 8 28 22 28s22 -11 22 -28c0 -11 -4 -20 -12 -29l-92 -106v-40h170v52h-84l55 61c20 23 26 39 26 63z" />
    <glyph glyph-name="_604" unicode="&#x33a0;" 
d="M930 780c0 43 -30 80 -85 80c-56 0 -86 -37 -86 -80v-19h64v18c0 17 8 28 22 28s22 -11 22 -28c0 -11 -4 -20 -12 -29l-92 -106v-40h170v52h-84l55 61c20 23 26 39 26 63zM726 301c0 120 22 183 56 183c27 0 39 -40 39 -121v-364h100v360c0 139 -42 216 -123 216
c-45 0 -77 -21 -98 -62c-20 40 -54 62 -97 62c-32 0 -62 -17 -79 -40v27h-92v-563h100v308c0 119 21 177 56 177c26 0 39 -40 39 -121v-364h99v302zM31 281c0 -187 59 -295 186 -295c107 0 170 72 180 198h-101c-6 -67 -33 -108 -79 -108c-63 0 -85 76 -85 205
c0 127 22 203 85 203c46 0 73 -40 79 -107h101c-10 126 -73 198 -180 198c-127 0 -186 -109 -186 -294z" />
    <glyph glyph-name="_605" unicode="&#x33a1;" 
d="M525 301c0 120 56 183 134 183c66 0 103 -40 103 -121v-364h111v360c0 139 -67 216 -187 216c-85 0 -145 -40 -177 -116c-25 76 -87 116 -170 116s-138 -42 -161 -110v97h-111v-563h111v303c0 119 55 182 133 182c67 0 104 -40 104 -121v-364h110v302zM930 780
c0 43 -30 80 -85 80c-56 0 -86 -37 -86 -80v-19h64v18c0 17 8 28 22 28s22 -11 22 -28c0 -11 -4 -20 -12 -29l-92 -106v-40h170v52h-84l55 61c20 23 26 39 26 63z" />
    <glyph glyph-name="_606" unicode="&#x33a2;" 
d="M720 301c0 120 21 183 57 183c24 0 39 -40 39 -121v-363h100v359c0 139 -43 216 -123 216c-45 0 -78 -21 -99 -63c-21 41 -54 63 -98 63c-33 0 -61 -17 -78 -40v27h-95v-562h100v302c0 119 22 182 57 182c24 0 39 -40 39 -121v-363h101v301zM145 0v249h22l131 -249h115
l-155 292l136 270h-113l-113 -226h-23v451h-107v-787h107zM930 780c0 43 -30 80 -85 80c-56 0 -86 -37 -86 -80v-19h64v18c0 17 8 28 22 28s22 -11 22 -28c0 -11 -4 -20 -12 -29l-92 -106v-40h170v52h-84l55 61c20 23 26 39 26 63z" />
    <glyph glyph-name="_607" unicode="&#x33ca;" 
d="M447 351c0 143 -55 224 -158 224c-50 0 -91 -23 -115 -58v45h-108v-563h108v302c0 118 40 183 94 183c47 0 72 -43 72 -144v-341h107v352zM794 -1h108c-5 19 -10 48 -10 78v287c0 128 -61 211 -186 211c-116 0 -177 -71 -184 -179h108c5 55 30 89 76 89
c53 0 80 -45 80 -120v-60c-25 25 -61 38 -111 38c-104 0 -169 -66 -169 -179s66 -178 169 -178c52 0 90 17 113 43c1 -11 3 -21 6 -30zM699 71c-57 0 -86 33 -86 93s29 94 86 94s87 -34 87 -94s-30 -93 -87 -93z" />
    <glyph glyph-name="_608" unicode="&#x338d;" 
d="M794 -32c0 -92 -27 -142 -82 -142c-44 0 -72 31 -78 85h-108c10 -105 77 -171 185 -171c134 0 191 103 191 237v585h-108v-38c-23 31 -63 51 -110 51c-112 0 -180 -95 -180 -294c0 -200 68 -295 180 -295c47 0 86 20 110 51v-69zM794 281c0 -129 -24 -204 -91 -204
c-69 0 -92 75 -92 204c0 127 23 203 92 203c67 0 91 -76 91 -203zM237 -14c41 0 77 23 100 58v-44h107v562h-107v-307c0 -115 -44 -178 -99 -178c-51 0 -73 57 -73 133v352h-107v-806h107v260c17 -19 42 -30 72 -30z" />
    <glyph glyph-name="_609" unicode="&#x338e;" 
d="M819 -32c0 -92 -24 -142 -72 -142c-37 0 -62 31 -67 85h-101c9 -105 69 -171 168 -171c120 0 172 103 172 237v585h-100v-31c-21 27 -56 44 -96 44c-102 0 -163 -95 -163 -294c0 -200 61 -295 163 -295c40 0 74 17 96 45v-63zM819 281c0 -129 -21 -204 -80 -204
s-80 75 -80 204c0 127 21 203 80 203s80 -76 80 -203zM329 301c0 120 22 183 56 183c24 0 39 -40 39 -121v-363h100v359c0 139 -42 216 -123 216c-45 0 -77 -21 -98 -62c-20 40 -54 62 -97 62c-32 0 -62 -17 -79 -40v27h-92v-562h100v307c0 119 21 177 56 177
c24 0 39 -40 39 -121v-363h99v301z" />
    <glyph glyph-name="_610" unicode="&#x338f;" 
d="M765 -32c0 -92 -27 -142 -82 -142c-44 0 -72 31 -78 85h-108c10 -105 77 -171 185 -171c134 0 191 103 191 237v585h-108v-38c-23 31 -63 51 -110 51c-112 0 -180 -95 -180 -294c0 -200 68 -295 180 -295c47 0 86 20 110 51v-69zM765 281c0 -129 -24 -204 -91 -204
c-69 0 -92 75 -92 204c0 127 23 203 92 203c67 0 91 -76 91 -203zM196 0v249h28l143 -249h116l-168 292l149 270h-115l-124 -226h-29v451h-108v-787h108z" />
    <glyph glyph-name="_611" unicode="&#x33cf;" 
d="M205 0v249h48l159 -249h119l-191 292l167 270h-116l-137 -226h-49v451h-105v-787h105zM734 471h147v91h-147v159h-106v-159h-77v-91h77v-319c0 -121 54 -160 180 -160c23 0 55 0 73 2v88h-54c-68 0 -93 16 -93 89v300z" />
    <glyph glyph-name="_612" unicode="&#x3388;" 
d="M34 281c0 -187 58 -295 177 -295c101 0 163 72 172 198h-101c-6 -67 -30 -108 -71 -108c-57 0 -77 76 -77 205c0 127 20 203 77 203c41 0 65 -40 71 -107h101c-9 126 -71 198 -172 198c-119 0 -177 -109 -177 -294zM667 -1h101c-5 20 -8 50 -8 78v287
c0 128 -56 211 -166 211c-104 0 -160 -71 -165 -179h102c3 56 24 89 63 89c44 0 65 -45 65 -120v-53c-22 21 -53 31 -92 31c-94 0 -152 -66 -152 -179s58 -178 152 -178c42 0 75 14 96 37c1 -8 2 -17 4 -24zM587 71c-48 0 -72 33 -72 93s24 94 72 94s72 -34 72 -94
s-24 -93 -72 -93zM917 -1v788h-101v-788h101z" />
    <glyph glyph-name="_613" unicode="&#x3389;" 
d="M133 0v231l77 -231h93l-101 292l88 270h-90l-67 -211v436h-87v-787h87zM283 281c0 -192 41 -295 127 -295c74 0 118 71 123 198h-88c-2 -68 -15 -107 -35 -107c-29 0 -40 74 -40 204c0 128 11 203 40 203c20 0 33 -40 35 -107h88c-5 127 -49 198 -123 198
c-86 0 -127 -104 -127 -294zM717 0h83c-3 19 -5 49 -5 78v286c0 129 -40 211 -120 211c-75 0 -116 -67 -119 -179h88c3 55 12 89 31 89c21 0 31 -45 31 -120v-40c-12 11 -29 18 -49 18c-68 0 -111 -66 -111 -179c0 -112 43 -178 111 -178c23 0 45 12 59 27c0 -4 1 -9 1 -13z
M706 164c0 -60 -12 -93 -35 -93c-25 0 -37 33 -37 93s12 94 37 94c23 0 35 -34 35 -94zM925 0v787h-88v-787h88z" />
    <glyph glyph-name="_614" unicode="&#x33c8;" 
d="M317 532c-23 26 -58 43 -99 43c-108 0 -172 -95 -172 -294c0 -200 64 -295 172 -295c41 0 76 17 99 43v-29h106v787h-106v-255zM317 281c0 -129 -21 -204 -82 -204c-62 0 -83 75 -83 204c0 127 21 203 83 203c61 0 82 -76 82 -203zM612 454v232h88c58 0 89 -34 89 -116
c0 -81 -30 -116 -89 -116h-88zM728 0c126 0 187 75 187 221c0 95 -39 166 -110 187h1c57 23 93 83 93 170c0 136 -62 209 -183 209h-215v-787h227zM804 226c0 -88 -27 -127 -93 -127h-99v255h99c66 0 93 -39 93 -128z" />
    <glyph glyph-name="_615" unicode="&#x33a7;" 
d="M785 575c-80 0 -126 -69 -126 -165c0 -82 29 -128 85 -155c15 -7 33 -13 53 -20c26 -9 37 -34 37 -82s-16 -80 -43 -80s-44 31 -44 81v18h-89v-17c0 -100 51 -169 133 -169c81 0 133 71 133 169c0 90 -26 132 -82 160c-16 8 -34 15 -55 23c-27 10 -39 31 -39 76
c0 41 12 74 37 74c26 0 38 -34 38 -76v-13h89v12c0 99 -47 164 -127 164zM281 301c0 125 10 183 34 183c16 0 20 -40 20 -121v-363h92v359c0 149 -34 216 -101 216c-31 0 -57 -18 -73 -45c-15 30 -40 45 -73 45c-21 0 -42 -11 -54 -27v14h-82v-562h91v302
c0 124 11 182 34 182c16 0 21 -40 21 -121v-363h91v301zM587 787l-167 -1018h87l167 1018h-87z" />
    <glyph glyph-name="_616" unicode="&#x33a8;" 
d="M281 301c0 125 10 183 34 183c16 0 20 -40 20 -121v-363h92v359c0 149 -34 216 -101 216c-31 0 -57 -18 -73 -45c-15 30 -40 45 -73 45c-21 0 -42 -11 -54 -27v14h-82v-562h91v302c0 124 11 182 34 182c16 0 21 -40 21 -121v-363h91v301zM587 787l-167 -1018h87l167 1018
h-87zM930 780c0 43 -30 80 -85 80c-56 0 -86 -37 -86 -80v-19h64v18c0 17 8 28 22 28s22 -11 22 -28c0 -10 -4 -21 -13 -31l-91 -104v-40h170v52h-84l60 68c15 17 21 37 21 56zM785 575c-80 0 -126 -69 -126 -165c0 -82 29 -128 85 -155c15 -7 33 -13 53 -20
c26 -9 37 -34 37 -82s-16 -80 -43 -80s-44 31 -44 81v18h-89v-17c0 -100 51 -169 133 -169c81 0 133 71 133 169c0 90 -26 132 -82 160c-16 8 -34 15 -55 23c-27 10 -39 31 -39 76c0 41 12 74 37 74c26 0 38 -34 38 -76v-13h89v12c0 99 -47 164 -127 164z" />
    <glyph glyph-name="_617" unicode="&#x33b0;" 
d="M176 40c25 -35 64 -54 115 -54c116 0 186 95 186 295c0 199 -70 294 -186 294c-52 0 -90 -18 -115 -53v40h-108v-806h108v284zM176 281c0 127 25 203 97 203c71 0 95 -76 95 -203c0 -129 -24 -204 -95 -204c-72 0 -97 75 -97 204zM709 575c-110 0 -175 -71 -175 -165
c0 -95 45 -130 144 -160c16 -5 34 -10 53 -15c39 -10 61 -37 61 -82c0 -48 -30 -80 -76 -80c-45 0 -75 31 -75 81v18h-109v-17c0 -98 71 -169 184 -169s184 73 184 169c0 101 -47 141 -144 170c-15 4 -31 8 -49 13c-42 10 -64 34 -64 76c0 41 23 74 66 74
c44 0 66 -34 66 -76v-13h108v12c0 97 -64 164 -174 164z" />
    <glyph glyph-name="_618" unicode="&#x33b1;" 
d="M460 351c0 143 -57 224 -162 224c-55 0 -96 -22 -121 -61v48h-108v-562h108v270c0 137 36 214 100 214c44 0 75 -45 75 -144v-340h108v351zM709 575c-110 0 -175 -71 -175 -165c0 -95 45 -130 144 -160c16 -5 34 -10 53 -15c39 -10 61 -37 61 -82c0 -48 -30 -80 -76 -80
c-45 0 -75 31 -75 81v18h-109v-17c0 -98 71 -169 184 -169s184 73 184 169c0 101 -47 141 -144 170c-15 4 -31 8 -49 13c-42 10 -64 34 -64 76c0 41 23 74 66 74c44 0 66 -34 66 -76v-13h108v12c0 97 -64 164 -174 164z" />
    <glyph glyph-name="_619" unicode="&#x33b2;" 
d="M255 -14c42 0 78 23 101 58v-44h107v562h-107v-307c0 -115 -44 -178 -99 -178c-51 0 -74 60 -74 133v352h-107v-806h107v260c17 -18 42 -30 72 -30zM709 575c-110 0 -175 -71 -175 -165c0 -95 45 -130 144 -160c16 -5 34 -10 53 -15c39 -10 61 -37 61 -82
c0 -48 -30 -80 -76 -80c-45 0 -75 31 -75 81v18h-109v-17c0 -98 71 -169 184 -169s184 73 184 169c0 101 -47 141 -144 170c-15 4 -31 8 -49 13c-42 10 -64 34 -64 76c0 41 23 74 66 74c44 0 66 -34 66 -76v-13h108v12c0 97 -64 164 -174 164z" />
    <glyph glyph-name="_620" unicode="&#x33b3;" 
d="M745 575c-104 0 -166 -71 -166 -165c0 -98 46 -134 148 -164c12 -4 24 -7 37 -11c38 -11 56 -37 56 -82c0 -48 -27 -80 -68 -80s-68 31 -68 81v18h-107v-17c0 -98 67 -169 175 -169c107 0 175 73 175 169c0 97 -39 146 -137 170c-11 3 -21 5 -30 8c-50 14 -74 32 -74 81
c0 41 21 74 59 74c39 0 59 -34 59 -76v-13h107v12c0 97 -61 164 -166 164zM336 301c0 120 21 183 56 183c24 0 38 -40 38 -121v-363h100v359c0 139 -41 216 -123 216c-44 0 -77 -21 -98 -62c-20 40 -54 62 -97 62c-32 0 -61 -17 -78 -40v27h-92v-562h99v307
c0 119 22 177 56 177c24 0 39 -40 39 -121v-363h100v301z" />
    <glyph glyph-name="_621" unicode="&#x33b4;" 
d="M175 40c25 -35 64 -54 115 -54c116 0 186 95 186 295c0 199 -70 294 -186 294c-52 0 -90 -18 -115 -53v40h-108v-806h108v284zM175 281c0 127 25 203 97 203c71 0 95 -76 95 -203c0 -129 -24 -204 -95 -204c-72 0 -97 75 -97 204zM751 0l192 787h-114l-142 -621l-141 621
h-115l192 -787h128z" />
    <glyph glyph-name="_622" unicode="&#x33b5;" 
d="M751 0l192 787h-114l-142 -621l-141 621h-115l192 -787h128zM458 351c0 143 -58 224 -162 224c-56 0 -96 -22 -121 -61v48h-108v-562h108v270c0 138 35 214 99 214c45 0 75 -45 75 -144v-340h109v351z" />
    <glyph glyph-name="_623" unicode="&#x33b6;" 
d="M756 0l192 787h-114l-142 -621l-141 621h-115l192 -787h128zM246 -14c42 0 78 23 101 58v-44h107v562h-107v-307c0 -115 -44 -178 -99 -178c-50 0 -74 60 -74 133v352h-107v-806h107v260c17 -18 42 -30 72 -30z" />
    <glyph glyph-name="_624" unicode="&#x33b7;" 
d="M783 0l174 787h-109l-126 -620l-125 620h-110l174 -787h122zM339 301c0 120 22 183 56 183c24 0 39 -40 39 -121v-363h100v359c0 139 -42 216 -123 216c-45 0 -77 -21 -98 -62c-20 40 -54 62 -97 62c-32 0 -62 -17 -79 -40v27h-92v-562h100v307c0 119 21 177 56 177
c24 0 39 -40 39 -121v-363h99v301z" />
    <glyph glyph-name="_625" unicode="&#x33b8;" 
d="M756 0l192 787h-114l-142 -621l-141 621h-115l192 -787h128zM198 0v249h25l138 -249h115l-163 292l145 270h-114l-120 -226h-26v451h-107v-787h107z" />
    <glyph glyph-name="_626" unicode="&#x33b9;" 
d="M335 0l86 391v-391h101v787h-104l-132 -570l-131 570h-104v-787h100v396l87 -396h97zM803 0l146 787h-106l-96 -542l-97 542h-106l145 -787h114z" />
    <glyph glyph-name="_627" unicode="&#x3380;" 
d="M165 34c23 -29 60 -48 105 -48c110 0 176 95 176 295c0 199 -66 294 -176 294c-45 0 -82 -18 -105 -47v34h-106v-806h106v278zM165 281c0 127 23 203 87 203c65 0 88 -76 88 -203c0 -129 -23 -204 -88 -204c-64 0 -87 75 -87 204zM634 787l-192 -787h114l40 173h200
l41 -173h113l-192 787h-124zM618 273l78 334l78 -334h-156z" />
    <glyph glyph-name="_628" unicode="&#x3381;" 
d="M634 787l-192 -787h114l40 173h200l41 -173h113l-192 787h-124zM618 273l78 334l78 -334h-156zM423 351c0 143 -54 224 -154 224c-50 0 -86 -19 -110 -53v40h-107v-562h107v270c0 137 31 214 90 214c40 0 68 -45 68 -144v-340h106v351z" />
    <glyph glyph-name="_629" unicode="&#x3382;" 
d="M227 -14c39 0 71 19 93 50v-36h106v562h-106v-307c0 -115 -41 -178 -92 -178c-37 0 -66 44 -66 133v352h-107v-806h107v255c17 -17 37 -25 65 -25zM634 787l-192 -787h114l40 173h200l41 -173h113l-192 787h-124zM618 273l78 334l78 -334h-156z" />
    <glyph glyph-name="_630" unicode="&#x3383;" 
d="M325 301c0 120 21 183 55 183c23 0 37 -40 37 -121v-363h100v359c0 139 -40 216 -121 216c-44 0 -76 -21 -97 -64c-20 44 -52 64 -96 64c-33 0 -59 -14 -76 -36v23h-94v-562h99v302c0 119 22 182 55 182c24 0 38 -40 38 -121v-363h100v301zM683 787l-162 -787h105l34 173
h159l34 -173h105l-162 787h-113zM679 273l60 318l61 -318h-121z" />
    <glyph glyph-name="_631" unicode="&#x3384;" 
d="M608 273l78 334l78 -334h-156zM336 0h210l40 173h200l41 -173h113l-192 787h-123l-187 -762l-141 267l141 270h-113l-117 -226h-21v451h-107v-787h107v249h20z" />
    <glyph glyph-name="_632" unicode="&#x33ba;" 
d="M841 0l116 787h-99l-75 -540l-75 540h-95l-75 -541l-75 541h-99l116 -787h106l75 519l74 -519h106zM151 20c20 -21 47 -34 81 -34c95 0 152 95 152 295c0 199 -57 294 -152 294c-33 0 -61 -13 -81 -34v21h-99v-806h99v264zM151 281c0 127 18 203 67 203s66 -76 66 -203
c0 -129 -17 -204 -66 -204s-67 75 -67 204z" />
    <glyph glyph-name="_633" unicode="&#x33bb;" 
d="M365 351c0 143 -47 224 -133 224c-36 0 -68 -16 -88 -41v28h-97v-562h99v270c0 137 24 214 69 214c30 0 51 -45 51 -144v-340h99v351zM841 0l116 787h-99l-75 -540l-75 540h-95l-75 -541l-75 541h-99l116 -787h106l75 519l74 -519h106z" />
    <glyph glyph-name="_634" unicode="&#x33bc;" 
d="M195 -14c28 0 57 16 74 38v-24h96v562h-98v-307c0 -115 -31 -178 -71 -178c-29 0 -49 44 -49 133v352h-100v-806h100v247c12 -12 27 -18 48 -17zM841 0l116 787h-99l-75 -540l-75 540h-95l-75 -541l-75 541h-99l116 -787h106l75 519l74 -519h106z" />
    <glyph glyph-name="_635" unicode="&#x33bd;" 
d="M854 0l99 787h-96l-57 -496l-58 496h-90l-60 -496l-56 496h-96l99 -787h100l58 450l57 -450h100zM292 301c0 120 14 183 40 183c18 0 25 -40 25 -121v-363h95v359c0 140 -33 216 -107 216c-36 0 -63 -17 -80 -50c-18 33 -45 50 -79 50c-23 0 -46 -11 -61 -28v15h-86v-562
h94v302c0 119 14 182 40 182c18 0 25 -40 25 -121v-363h94v301z" />
    <glyph glyph-name="_636" unicode="&#x33be;" 
d="M150 0v249h16l126 -249h115l-150 292l136 270h-113l-113 -226h-17v451h-107v-787h107zM841 0l116 787h-99l-75 -540l-75 540h-95l-75 -541l-75 541h-99l116 -787h106l75 519l74 -519h106z" />
    <glyph glyph-name="_637" unicode="&#x33bf;" 
d="M282 0l61 345v-345h94v787h-96l-101 -554l-102 554h-95v-787h93v347l61 -347h85zM855 0l94 787h-95l-52 -493l-54 493h-91l-54 -496l-53 496h-95l94 -787h98l55 464l55 -464h98z" />
    <glyph glyph-name="_638" unicode="&#x3390;" 
d="M400 -1h106v788h-106v-334h-224v334h-106v-788h106v353h224v-353zM913 562h-338v-91h216l-223 -392v-80h351v91h-229l223 392v80z" />
    <glyph glyph-name="_639" unicode="&#x3391;" 
d="M544 0h97v787h-97v-334h-104v334h-98v-787h98v352h104v-352zM930 562h-257v-91h150l-154 -394v-77h265v90h-158l154 394v78zM144 0v247h3l91 -247h103l-112 292l98 270h-100l-83 -225v450h-98v-787h98z" />
    <glyph glyph-name="_640" unicode="&#x3392;" 
d="M239 -1l48 304v-304h88v788h-80l-93 -526l-92 526h-80v-788h88v314l48 -314h73zM587 -1h95v788h-95v-334h-74v334h-96v-788h96v353h74v-353zM936 562h-224v-91h121l-124 -396v-76h230v91h-127l124 396v76z" />
    <glyph glyph-name="_641" unicode="&#x3393;" 
d="M24 393c0 -222 35 -407 163 -407c36 0 66 22 87 52l2 -38h78v408h-179v-96h88c-7 -138 -20 -225 -72 -225c-53 0 -75 83 -75 306c0 213 21 306 75 306c42 0 67 -67 70 -175h93c-5 165 -63 276 -163 276c-132 0 -167 -183 -167 -407zM586 0h93v787h-93v-334h-105v334h-93
v-787h93v352h105v-352zM937 562h-231v-91h129l-133 -393v-78h239v90h-138l134 393v79z" />
    <glyph glyph-name="_642" unicode="&#x3394;" 
d="M551 -1h97v788h-97v-334h-106v334h-97v-788h97v353h106v-353zM922 562h-241v-91h137l-141 -393v-79h249v91h-145l141 393v79zM14 686h102v-687h102v687h101v101h-305v-101z" />
    <glyph glyph-name="_643" unicode="&#x2126;" horiz-adv-x="709" 
d="M355 798c-110 0 -186 -39 -233 -106c-53 -75 -72 -174 -72 -286c0 -155 51 -263 138 -304h-122v-101h251v101c-107 38 -150 131 -150 291c0 122 14 191 49 240c30 41 77 64 139 64s109 -23 138 -64c35 -50 50 -118 50 -240c0 -160 -43 -253 -150 -291v-101h251v101h-122
c87 41 137 149 137 304c0 112 -18 211 -71 286c-47 67 -123 106 -233 106z" />
    <glyph glyph-name="_644" unicode="&#x33c0;" 
d="M675 699c110 0 125 -143 125 -306c0 -161 -28 -259 -104 -297v-96h201v99h-95c66 48 107 158 107 308c0 204 -42 393 -234 393c-193 0 -234 -187 -234 -393c0 -150 40 -260 107 -308h-96v-99h201v96c-75 38 -103 136 -103 297c0 162 14 306 125 306zM178 0v249h15
l130 -249h113l-153 292l141 270h-113l-117 -226h-16v451h-106v-787h106z" />
    <glyph glyph-name="_645" unicode="&#x33c1;" 
d="M737 699c74 0 84 -136 84 -306c0 -161 -18 -256 -71 -299v-94h167v99h-76c50 51 85 165 85 308c0 236 -44 393 -189 393c-146 0 -189 -157 -189 -393c0 -142 35 -256 84 -308h-76v-99h167v94c-53 43 -71 138 -71 299c0 171 11 306 85 306zM320 0l82 396v-396h103v787
h-104l-130 -570l-130 570h-104v-787h103v401l82 -401h98z" />
    <glyph glyph-name="_646" unicode="&#x338a;" 
d="M168 46c24 -38 65 -60 121 -60c117 0 189 95 189 295c0 199 -72 294 -189 294c-55 0 -96 -22 -121 -59v46h-107v-806h107v290zM168 281c0 127 26 203 102 203c74 0 100 -76 100 -203c0 -129 -26 -204 -100 -204c-76 0 -102 75 -102 204zM530 0h111v341h260v100h-260v245
h287v101h-398v-787z" />
    <glyph glyph-name="_647" unicode="&#x338b;" 
d="M455 351c0 143 -58 224 -165 224c-59 0 -102 -25 -127 -68v55h-107v-563h107v302c0 118 44 183 105 183c51 0 79 -43 79 -144v-341h108v352zM530 -1h111v342h260v100h-260v245h287v101h-398v-788z" />
    <glyph glyph-name="_648" unicode="&#x338c;" 
d="M240 -14c43 0 82 28 106 66v-52h106v562h-106v-307c0 -115 -46 -178 -105 -178c-46 0 -77 44 -77 133v352h-107v-806h107v264c17 -21 44 -34 76 -34zM530 0h111v341h260v100h-260v245h287v101h-398v-787z" />
    <glyph glyph-name="_649" unicode="&#x33d6;" 
d="M294 301c0 120 19 183 48 183c21 0 31 -40 31 -121v-364h95v360c0 144 -38 216 -113 216c-39 0 -67 -18 -86 -56c-19 38 -49 56 -87 56c-23 0 -49 -13 -65 -32v19h-89v-563h94v303c0 119 18 182 47 182c21 0 32 -40 32 -121v-364h93v302zM788 281c0 185 -34 294 -144 294
c-109 0 -143 -109 -143 -294c0 -187 34 -295 143 -295c110 0 144 108 144 295zM595 281c0 127 9 203 49 203s49 -76 49 -203c0 -129 -9 -205 -49 -205s-49 76 -49 205zM917 -1v788h-95v-788h95z" />
    <glyph glyph-name="_650" unicode="&#x33c5;" 
d="M50 281c0 -187 66 -295 204 -295c116 0 187 72 197 198h-107c-7 -67 -38 -107 -90 -107c-71 0 -97 75 -97 204c0 127 26 203 97 203c52 0 83 -40 90 -107h107c-10 126 -81 198 -197 198c-138 0 -204 -109 -204 -294zM790 523c-24 33 -62 52 -111 52
c-111 0 -180 -95 -180 -294c0 -200 69 -295 180 -295c49 0 87 19 111 52v-38h107v787h-107v-264zM790 281c0 -129 -24 -204 -92 -204c-69 0 -92 75 -92 204c0 127 23 203 92 203c68 0 92 -76 92 -203z" />
    <glyph glyph-name="_651" unicode="&#x33ad;" 
d="M484 0h97c-4 18 -7 48 -7 78v286c0 133 -49 211 -147 211c-93 0 -143 -70 -147 -179h98c3 56 19 89 49 89c34 0 50 -42 50 -120v-49c-18 17 -44 27 -74 27c-83 0 -135 -66 -135 -179c0 -112 53 -178 135 -178c32 0 60 14 78 34c0 -6 1 -14 3 -20zM477 164
c0 -60 -19 -93 -56 -93s-56 33 -56 93s19 94 56 94s56 -34 56 -94zM829 546c-18 19 -44 29 -74 29c-89 0 -143 -95 -143 -294c0 -200 54 -295 143 -295c30 0 57 14 74 37v-23h98v787h-98v-241zM829 281c0 -129 -15 -204 -60 -204c-44 0 -59 75 -59 204c0 127 15 203 59 203
c45 0 60 -76 60 -203zM227 482c14 0 31 -1 43 -3l1 89c-12 5 -28 7 -41 7c-47 0 -81 -25 -99 -63v50h-98v-562h98v287c0 130 36 195 96 195z" />
    <glyph glyph-name="_652" unicode="&#x33ae;" 
d="M766 269c-87 0 -138 -40 -138 -94c0 -52 36 -80 117 -93c12 -2 26 -3 40 -5c33 -4 49 -14 49 -27c0 -16 -25 -27 -62 -27c-36 0 -61 10 -61 27v17h-85v-17c0 -56 57 -96 146 -96c90 0 146 41 146 96c0 60 -33 80 -113 96c-13 2 -26 5 -41 7c-35 6 -51 11 -51 24
c0 12 19 23 53 23c36 0 54 -11 54 -24v-12h85v12c0 55 -51 93 -139 93zM489 394c-6 16 -10 34 -10 51v144c0 73 -40 117 -121 117c-76 0 -118 -38 -122 -104h85c2 23 14 35 37 35s36 -18 36 -48v-11c-15 8 -35 12 -55 12c-68 0 -112 -38 -112 -101c0 -64 44 -101 112 -101
c22 0 46 8 62 19c1 -4 2 -9 3 -13h85zM394 489c0 -22 -14 -35 -41 -35s-41 13 -41 35s14 35 41 35s41 -13 41 -35zM676 691c-15 10 -34 15 -55 15c-74 0 -118 -51 -118 -159s44 -159 118 -159c21 0 40 8 55 21v-15h86v418h-86v-121zM676 547c0 -57 -11 -90 -44 -90
s-44 33 -44 90c0 56 11 90 44 90s44 -34 44 -90zM193 636c12 0 25 -1 38 -2v67c-11 4 -24 5 -35 5c-33 0 -60 -11 -76 -29v22h-86v-305h86v156c0 57 28 86 73 86zM50 93l25 -59l847 347l-22 58z" />
    <glyph glyph-name="_653" unicode="&#x33af;" 
d="M955 294c0 31 -22 54 -59 54c-39 0 -61 -24 -61 -54v-12h50v12c0 10 4 16 11 16s10 -6 10 -16c0 -7 -6 -18 -19 -32l-49 -53v-28h119v38h-52l31 33c12 13 19 28 19 42zM39 105l25 -59l843 344l-23 58l-132 -54v418h-86v-121c-15 10 -34 15 -55 15
c-74 0 -118 -51 -118 -159s44 -159 118 -159c21 0 40 8 55 21v-15h85zM479 394c-6 16 -10 34 -10 51v144c0 73 -40 117 -121 117c-76 0 -118 -38 -122 -104h85c2 23 14 35 37 35s36 -18 36 -48v-11c-15 8 -35 12 -55 12c-68 0 -112 -38 -112 -101c0 -64 44 -101 112 -101
c22 0 46 8 62 19c1 -4 2 -9 3 -13h85zM384 489c0 -22 -14 -35 -41 -35s-41 13 -41 35s14 35 41 35s41 -13 41 -35zM666 547c0 -57 -11 -90 -44 -90s-44 33 -44 90c0 56 11 90 44 90s44 -34 44 -90zM183 636c12 0 25 -1 38 -2v67c-11 4 -24 5 -35 5c-33 0 -60 -11 -76 -29v22
h-86v-305h86v156c0 57 28 86 73 86zM696 266c-87 0 -138 -40 -138 -94c0 -52 36 -80 117 -93c12 -2 26 -3 40 -5c33 -4 49 -14 49 -27c0 -16 -25 -27 -62 -27c-36 0 -61 10 -61 27v17h-85v-17c0 -56 57 -96 146 -96c90 0 146 41 146 96c0 60 -33 80 -113 96
c-13 2 -26 5 -41 7c-35 6 -51 11 -51 24c0 12 19 23 53 23c36 0 54 -11 54 -24v-12h85v12c0 55 -51 93 -139 93z" />
    <glyph glyph-name="_654" unicode="&#x33db;" 
d="M290 575c-113 0 -178 -71 -178 -165c0 -92 48 -138 147 -161c17 -4 35 -9 54 -14c42 -11 66 -39 66 -82c0 -48 -32 -80 -81 -80c-46 0 -81 32 -81 81v18h-108v-17c0 -98 73 -169 189 -169s188 73 188 169c0 97 -42 146 -148 171l-51 12c-44 10 -67 34 -67 76
c0 41 24 74 70 74c47 0 71 -34 71 -76v-13h108v12c0 97 -66 164 -179 164zM815 482c19 0 36 -1 45 -2l1 90c-11 4 -27 5 -43 5c-80 0 -126 -35 -147 -102v89h-107v-562h107v287c0 130 55 195 144 195z" />
    <glyph glyph-name="_655" unicode="&#x33a9;" 
d="M297 293c129 0 202 91 202 247c0 155 -73 247 -202 247h-228v-788h107v294h121zM176 393v293h110c70 0 106 -53 106 -146s-36 -147 -106 -147h-110zM800 -1h104c-5 20 -9 50 -9 78v287c0 128 -61 211 -184 211c-115 0 -176 -71 -183 -179h105c4 55 30 89 78 89
c54 0 81 -45 81 -120v-62c-24 26 -63 40 -112 40c-103 0 -168 -66 -168 -179s65 -178 168 -178c52 0 91 16 113 43c2 -11 4 -21 7 -30zM704 71c-59 0 -89 33 -89 93s30 94 89 94c58 0 88 -34 88 -94s-31 -93 -88 -93z" />
    <glyph glyph-name="_656" unicode="&#x33aa;" 
d="M449 393v293h50c35 0 53 -53 53 -146s-18 -147 -53 -147h-50zM506 293c90 0 142 91 142 247c0 155 -52 247 -142 247h-153v-787h96v293h57zM827 0h94c-3 19 -6 49 -6 78v286c0 128 -43 211 -131 211c-82 0 -125 -71 -129 -179h94c3 55 15 89 35 89c25 0 38 -45 38 -120
v-37c-15 11 -34 15 -57 15c-74 0 -120 -66 -120 -179c0 -112 46 -178 120 -178c24 0 47 11 60 26c1 -4 1 -9 2 -12zM822 164c0 -60 -15 -93 -42 -93s-41 33 -41 93s14 94 41 94s42 -34 42 -94zM145 0v251l95 -251h100l-111 292l98 270h-99l-83 -236v461h-97v-787h97z" />
    <glyph glyph-name="_657" unicode="&#x33ab;" 
d="M555 293c86 0 132 91 132 247c0 155 -46 247 -132 247h-133v-788h91v294h42zM513 393v293h35c34 0 48 -53 48 -146s-14 -147 -48 -147h-35zM849 -1h87c-3 20 -6 50 -6 78v287c0 128 -38 211 -118 211c-74 0 -112 -71 -116 -179h89c3 55 12 89 27 89c20 0 30 -45 30 -120
v-38c-12 11 -27 16 -46 16c-67 0 -109 -66 -109 -179s42 -178 109 -178c20 0 40 11 52 27zM809 71c-21 0 -33 33 -33 93s12 94 33 94s33 -34 33 -94s-12 -93 -33 -93zM238 -1l52 319v-319h85v788h-79l-93 -544l-93 544h-80v-788h85v331l53 -331h70z" />
    <glyph glyph-name="_658" unicode="&#x33ac;" 
d="M30 393c0 -227 36 -407 164 -407c36 0 66 22 87 52c1 -13 1 -26 2 -38h78v408h-179v-96h88c-7 -138 -20 -225 -72 -225c-53 0 -75 83 -75 306c0 213 21 306 75 306c42 0 67 -67 70 -175h93c-5 165 -63 276 -163 276c-132 0 -168 -178 -168 -407zM837 164
c0 -60 -11 -93 -34 -93c-22 0 -34 33 -34 93s12 94 34 94c23 0 34 -34 34 -94zM498 393v293h37c35 0 49 -53 49 -146s-14 -147 -49 -147h-37zM542 293c88 0 135 91 135 247c0 155 -47 247 -135 247h-136v-787h92v293h44zM844 0h89c-3 19 -5 49 -5 78v286
c0 128 -38 211 -121 211c-77 0 -116 -71 -120 -179h91c3 55 12 89 29 89c20 0 30 -45 30 -120v-39c-12 12 -27 17 -48 17c-68 0 -111 -66 -111 -179c0 -112 44 -178 111 -178c22 0 43 12 55 29v-15z" />
    <glyph glyph-name="_659" unicode="&#x33dd;" 
d="M653 787h-100v-787h100v40c22 -33 58 -54 103 -54c105 0 168 95 168 295c0 199 -63 294 -168 294c-46 0 -82 -20 -103 -55v267zM653 281c0 127 22 203 86 203c63 0 86 -76 86 -203c0 -129 -23 -204 -86 -204c-64 0 -86 75 -86 204zM421 0l99 787h-97l-56 -496l-59 496
h-90l-60 -496l-55 496h-97l100 -787h100l58 450l57 -450h100z" />
    <glyph glyph-name="_660" unicode="&#x33d0;" 
d="M640 301c0 120 31 183 79 183c39 0 59 -40 59 -121v-364h106v360c0 139 -52 216 -145 216c-57 0 -98 -28 -123 -79c-23 54 -65 79 -121 79c-43 0 -80 -19 -102 -50v37h-103v-563h105v303c0 119 32 182 80 182c39 0 59 -40 59 -121v-364h106v302zM196 -1v788h-106v-788
h106z" />
    <glyph glyph-name="_661" unicode="&#x33d3;" 
d="M240 0v787h-111v-787h111zM841 0l-190 288l179 274h-121l-126 -201l-126 201h-120l179 -274l-190 -288h119l138 214l138 -214h120z" />
    <glyph glyph-name="_662" unicode="&#x33c3;" 
d="M176 454v232h98c60 0 90 -32 90 -116s-30 -116 -90 -116h-98zM302 0c124 0 186 75 186 221c0 96 -40 166 -109 187h1c56 23 92 83 92 170c0 136 -61 209 -182 209h-222v-787h234zM380 226c0 -88 -28 -127 -95 -127h-109v255h109c67 0 95 -39 95 -128zM799 -244h104v806
h-104v-32c-22 31 -55 46 -100 46c-107 0 -170 -95 -170 -295c0 -199 63 -294 170 -294c42 0 78 18 100 46v-277zM799 281c0 -128 -21 -204 -83 -204s-84 76 -84 204s22 204 84 204s83 -76 83 -204z" />
    <glyph glyph-name="_663" unicode="&#x33c9;" 
d="M47 393c0 -212 47 -407 222 -407c60 0 107 27 134 70l7 -56h86v408h-230v-96h124c0 -138 -35 -225 -116 -225c-83 0 -119 83 -119 306c0 213 33 306 119 306c71 0 110 -67 114 -175h108c-7 165 -86 276 -222 276c-180 0 -227 -193 -227 -407zM663 -91
c-13 -49 -27 -63 -45 -63h-38v-87c19 -3 34 -3 46 -3c68 0 107 26 134 126l179 680h-107l-95 -381l-96 381h-107l152 -564z" />
    <glyph glyph-name="_664" unicode="&#x33dc;" 
d="M485 217c0 121 -57 194 -159 225c-20 6 -52 15 -71 21c-52 16 -80 52 -80 119c0 70 32 118 91 118c58 0 89 -48 89 -118v-13h109v13c0 118 -70 218 -198 218c-131 0 -199 -98 -199 -219c0 -119 61 -191 154 -217c25 -7 48 -13 71 -20c56 -17 85 -64 85 -130
c0 -76 -38 -129 -101 -129s-101 53 -101 129v19h-108v-17c0 -133 77 -230 209 -230s209 96 209 231zM771 -1l149 563h-106l-100 -395l-100 395h-106l149 -563h114z" />
    <glyph glyph-name="_665" unicode="&#x33c6;" 
d="M517 0l1 119l74 -119h95l-103 158l91 147h-93l-64 -108l-1 216h-85v-413h85zM835 -3c0 -38 -12 -59 -35 -59c-19 0 -31 15 -35 42h-86c8 -68 51 -111 121 -111c84 0 121 57 121 132v304h-85v-12c-14 12 -32 19 -52 19c-72 0 -116 -51 -116 -160c0 -107 44 -159 116 -159
c20 0 39 7 51 20v-16zM835 152c0 -56 -10 -89 -41 -89c-30 0 -41 33 -41 89s11 90 41 90c31 0 41 -34 41 -90zM188 386c91 0 144 65 148 163h-84c-4 -55 -26 -85 -64 -85c-49 0 -66 42 -66 138c0 98 16 138 65 138c39 0 61 -31 65 -85h84c-4 98 -57 164 -148 164
c-123 0 -152 -108 -152 -217c0 -112 28 -216 152 -216zM83 -15l596 763l-58 44l-596 -761z" />
    <glyph glyph-name="_666" unicode="&#xc6;" horiz-adv-x="985" 
d="M942 0v100h-356v252h310v100h-310v234h350v101h-537l-411 -787h129l89 173h263v-173h473zM469 273h-212l212 410v-410z" />
    <glyph glyph-name="_667" unicode="&#xd0;" horiz-adv-x="712" 
d="M9 434v-82h70v-353h282c251 0 301 189 301 394c0 202 -49 394 -301 394h-282v-353h-70zM545 393c0 -208 -52 -293 -193 -293h-156v252h141v82h-141v252h156c142 0 193 -87 193 -293z" />
    <glyph glyph-name="_668" unicode="&#xaa;" horiz-adv-x="449" 
d="M300 418c0 -17 2 -33 7 -44h97c-4 13 -9 36 -9 57v221c0 85 -59 144 -168 144c-105 0 -161 -53 -166 -134h96c2 39 27 61 70 61c49 0 73 -25 73 -70v-83c-16 36 -58 55 -116 55c-84 0 -145 -45 -145 -131s61 -130 146 -130c57 0 99 19 115 54zM135 494c0 38 30 59 82 59
c53 0 83 -21 83 -59s-30 -59 -83 -59c-52 0 -82 21 -82 59zM32 228h386v75h-386v-75z" />
    <glyph glyph-name="_669" unicode="&#x126;" horiz-adv-x="707" 
d="M9 669v-82h71v-587h117v352h313v-352h117v587h71v82h-71v118h-117v-118h-313v118h-117v-118h-71zM197 453v134h313v-134h-313z" />
    <glyph glyph-name="_670" unicode="&#x132;" horiz-adv-x="856" 
d="M187 787h-117v-788h117v788zM540 -14c158 0 250 91 250 255v546h-117v-531c0 -120 -49 -170 -132 -170s-130 49 -132 162h-117v-7c0 -164 90 -255 248 -255z" />
    <glyph glyph-name="_671" unicode="&#x13f;" horiz-adv-x="558" 
d="M70 -1h473v100h-356v688h-117v-788zM437 482h-117v-119h117v119z" />
    <glyph glyph-name="_672" unicode="&#x141;" horiz-adv-x="568" 
d="M11 243l68 35v-278h473v100h-356v240l201 106v92l-201 -106v355h-117v-417l-68 -35v-92z" />
    <glyph glyph-name="_673" unicode="&#xd8;" horiz-adv-x="712" 
d="M158 -36l35 62c43 -25 96 -40 163 -40c243 0 306 190 306 407c0 116 -18 243 -84 315l65 115h-89l-35 -64c-43 27 -97 41 -163 41c-244 0 -306 -192 -306 -407c0 -123 20 -241 82 -315l-63 -114h89zM166 393c0 212 52 306 190 306c45 0 82 -11 110 -33l-270 -478
c-22 48 -30 114 -30 205zM546 393c0 -212 -52 -306 -190 -306c-45 0 -82 11 -110 31l270 479c21 -49 30 -115 30 -204z" />
    <glyph glyph-name="_674" unicode="&#x152;" horiz-adv-x="1023" 
d="M50 393c0 -204 49 -394 301 -394h629v101h-356v252h310v100h-310v234h350v101h-623c-252 0 -301 -193 -301 -394zM166 393c0 206 53 293 195 293h146v-586h-146c-143 0 -195 85 -195 293z" />
    <glyph glyph-name="_675" unicode="&#xba;" horiz-adv-x="450" 
d="M409 579c0 138 -61 217 -184 217c-125 0 -185 -79 -185 -217s60 -216 185 -216c123 0 184 78 184 216zM314 579c0 -101 -26 -142 -89 -142s-90 39 -90 142c0 102 27 142 90 142s89 -41 89 -142zM32 228h386v75h-386v-75z" />
    <glyph glyph-name="_676" unicode="&#xde;" horiz-adv-x="656" 
d="M187 787h-117v-787h117v146h189c159 0 250 91 250 247c0 155 -91 247 -250 247h-189v147zM187 246v294h174c98 0 148 -54 148 -147s-50 -147 -148 -147h-174z" />
    <glyph glyph-name="_677" unicode="&#x166;" horiz-adv-x="591" 
d="M119 360h118v-360h116v360h119v83h-119v243h222v101h-560v-101h222v-243h-118v-83z" />
    <glyph glyph-name="_678" unicode="&#x14a;" horiz-adv-x="699" 
d="M511 -68c0 -56 -25 -78 -74 -78h-32v-96c11 -1 34 -2 49 -2c118 0 174 58 174 169v862h-116v-585l-323 585h-119v-787h116v583l325 -586v-65z" />
    <glyph glyph-name="_679" unicode="&#x3260;" 
d="M24 393c0 -256 201 -453 456 -453c254 0 455 197 455 453c0 257 -201 454 -455 454c-255 0 -456 -197 -456 -454zM101 393c0 217 164 384 379 384s379 -167 379 -384s-164 -383 -379 -383s-379 166 -379 383zM243 584v-89h356v-292h104v381h-460z" />
    <glyph glyph-name="_680" unicode="&#x3261;" 
d="M24 393c0 -256 201 -453 456 -453c254 0 455 197 455 453c0 257 -201 454 -455 454c-255 0 -456 -197 -456 -454zM101 393c0 217 164 384 379 384s379 -167 379 -384s-164 -383 -379 -383s-379 166 -379 383zM715 203v90h-357v291h-103v-381h460z" />
    <glyph glyph-name="_681" unicode="&#x3262;" 
d="M24 393c0 -256 201 -453 456 -453c254 0 455 197 455 453c0 257 -201 454 -455 454c-255 0 -456 -197 -456 -454zM101 393c0 217 164 384 379 384s379 -167 379 -384s-164 -383 -379 -383s-379 166 -379 383zM356 293v202h349v89h-453v-381h460v90h-356z" />
    <glyph glyph-name="_682" unicode="&#x3263;" 
d="M24 393c0 -256 201 -453 456 -453c254 0 455 197 455 453c0 257 -201 454 -455 454c-255 0 -456 -197 -456 -454zM101 393c0 217 164 384 379 384s379 -167 379 -384s-164 -383 -379 -383s-379 166 -379 383zM359 284v66h342v241h-446v-89h342v-63h-342v-243h461v88h-357
z" />
    <glyph glyph-name="_683" unicode="&#x3264;" 
d="M24 393c0 -256 201 -453 456 -453c254 0 455 197 455 453c0 257 -201 454 -455 454c-255 0 -456 -197 -456 -454zM101 393c0 217 164 384 379 384s379 -167 379 -384s-164 -383 -379 -383s-379 166 -379 383zM252 584v-381h453v381h-453zM602 495v-202h-246v202h246z" />
    <glyph glyph-name="_684" unicode="&#x3265;" 
d="M24 393c0 -256 201 -453 456 -453c254 0 455 197 455 453c0 257 -201 454 -455 454c-255 0 -456 -197 -456 -454zM101 393c0 217 164 384 379 384s379 -167 379 -384s-164 -383 -379 -383s-379 166 -379 383zM356 467v117h-104v-381h453v381h-103v-117h-246zM602 378v-85
h-246v85h246z" />
    <glyph glyph-name="_685" unicode="&#x3266;" 
d="M24 393c0 -256 201 -453 456 -453c254 0 455 197 455 453c0 257 -201 454 -455 454c-255 0 -456 -197 -456 -454zM101 393c0 217 164 384 379 384s379 -167 379 -384s-164 -383 -379 -383s-379 166 -379 383zM736 210v91c-125 18 -202 92 -202 216v88h-104v-88
c0 -124 -78 -197 -201 -216v-90c117 13 206 65 253 130c47 -66 137 -116 254 -131z" />
    <glyph glyph-name="_686" unicode="&#x3267;" 
d="M24 393c0 -256 201 -453 456 -453c254 0 455 197 455 453c0 257 -201 454 -455 454c-255 0 -456 -197 -456 -454zM101 393c0 217 164 384 379 384s379 -167 379 -384s-164 -383 -379 -383s-379 166 -379 383zM339 394c0 32 12 59 34 79c24 21 61 33 106 33
s81 -12 105 -33c23 -20 35 -47 35 -79s-12 -59 -35 -79c-24 -21 -60 -33 -105 -33s-81 12 -106 33c-22 20 -34 47 -34 79zM235 394c0 -61 26 -112 69 -148c42 -33 104 -53 175 -53s132 20 174 53c43 36 70 87 70 148s-26 113 -70 148c-42 33 -103 53 -174 53
s-133 -20 -175 -53c-43 -35 -69 -87 -69 -148z" />
    <glyph glyph-name="_687" unicode="&#x3268;" 
d="M24 393c0 -256 201 -453 456 -453c254 0 455 197 455 453c0 257 -201 454 -455 454c-255 0 -456 -197 -456 -454zM101 393c0 217 164 384 379 384s379 -167 379 -384s-164 -383 -379 -383s-379 166 -379 383zM716 495v89h-474v-89h184v-2c0 -115 -77 -186 -192 -206v-90
c106 16 196 64 245 127c48 -62 136 -111 244 -127v90c-115 20 -192 91 -192 206v2h185z" />
    <glyph glyph-name="_688" unicode="&#x3269;" 
d="M24 393c0 -256 201 -453 456 -453c254 0 455 197 455 453c0 257 -201 454 -455 454c-255 0 -456 -197 -456 -454zM101 393c0 217 164 384 379 384s379 -167 379 -384s-164 -383 -379 -383s-379 166 -379 383zM716 541h-185v93h-105v-93h-184v-89h181
c-14 -92 -87 -147 -189 -163v-91c106 14 195 61 244 123c48 -62 137 -109 245 -122v90c-102 16 -175 71 -189 163h182v89z" />
    <glyph glyph-name="_689" unicode="&#x326a;" 
d="M24 393c0 -256 201 -453 456 -453c254 0 455 197 455 453c0 257 -201 454 -455 454c-255 0 -456 -197 -456 -454zM101 393c0 217 164 384 379 384s379 -167 379 -384s-164 -383 -379 -383s-379 166 -379 383zM252 584v-89h350v-75c-57 -7 -117 -10 -168 -10h-182v-88h182
c55 0 115 2 168 10v-129h103v381h-453z" />
    <glyph glyph-name="_690" unicode="&#x326b;" 
d="M24 393c0 -256 201 -453 456 -453c254 0 455 197 455 453c0 257 -201 454 -455 454c-255 0 -456 -197 -456 -454zM101 393c0 217 164 384 379 384s379 -167 379 -384s-164 -383 -379 -383s-379 166 -379 383zM359 284v66h335v89h-335v63h342v89h-446v-395h461v88h-357z
" />
    <glyph glyph-name="_691" unicode="&#x326c;" 
d="M24 393c0 -256 201 -453 456 -453c254 0 455 197 455 453c0 257 -201 454 -455 454c-255 0 -456 -197 -456 -454zM101 393c0 217 164 384 379 384s379 -167 379 -384s-164 -383 -379 -383s-379 166 -379 383zM542 413c0 -42 -3 -89 -12 -120h-112v202h124v-82zM646 495
h74v89h-482v-89h76v-202h-90v-90h511v90h-102c10 35 13 80 13 125v77z" />
    <glyph glyph-name="_692" unicode="&#x326d;" 
d="M24 393c0 -256 201 -453 456 -453c254 0 455 197 455 453c0 257 -201 454 -455 454c-255 0 -456 -197 -456 -454zM101 393c0 217 164 384 379 384s379 -167 379 -384s-164 -383 -379 -383s-379 166 -379 383zM224 558v-88h509v88h-202v80h-106v-80h-201zM356 304
c0 10 5 20 12 26c19 16 59 24 111 24s91 -8 110 -24c8 -6 13 -16 13 -26s-5 -19 -13 -26c-19 -16 -58 -24 -110 -24s-92 8 -111 24c-7 7 -12 16 -12 26zM252 304c0 -35 14 -64 39 -86c37 -34 102 -51 188 -51c85 0 151 17 188 51c25 22 38 51 38 86c0 36 -13 64 -38 87
c-37 33 -103 51 -188 51c-86 0 -151 -18 -188 -51c-25 -23 -39 -51 -39 -87z" />
    <glyph glyph-name="_693" unicode="&#x326e;" 
d="M24 393c0 -256 201 -453 456 -453c254 0 455 197 455 453c0 257 -201 454 -455 454c-255 0 -456 -197 -456 -454zM101 393c0 217 164 384 379 384s379 -167 379 -384s-164 -383 -379 -383s-379 166 -379 383zM438 543c0 -175 -66 -292 -214 -336v-86
c215 56 306 205 306 430v116h-302v-80h210v-44zM609 687v-596h92v281h90v80h-90v235h-92z" />
    <glyph glyph-name="_694" unicode="&#x326f;" 
d="M24 393c0 -256 201 -453 456 -453c254 0 455 197 455 453c0 257 -201 454 -455 454c-255 0 -456 -197 -456 -454zM101 393c0 217 164 384 379 384s379 -167 379 -384s-164 -383 -379 -383s-379 166 -379 383zM485 131c51 0 94 8 124 25v-65h92v281h90v80h-90v235h-92
v-447c-24 -20 -63 -30 -111 -30h-178v460h-92v-539h257z" />
    <glyph glyph-name="_695" unicode="&#x3270;" 
d="M24 393c0 -256 201 -453 456 -453c254 0 455 197 455 453c0 257 -201 454 -455 454c-255 0 -456 -197 -456 -454zM101 393c0 217 164 384 379 384s379 -167 379 -384s-164 -383 -379 -383s-379 166 -379 383zM489 131c49 0 91 8 120 24v-64h92v281h90v80h-90v235h-92
v-449c-23 -19 -60 -28 -108 -28h-181v377h208v80h-300v-536h261z" />
    <glyph glyph-name="_696" unicode="&#x3271;" 
d="M24 393c0 -256 201 -453 456 -453c254 0 455 197 455 453c0 257 -201 454 -455 454c-255 0 -456 -197 -456 -454zM101 393c0 217 164 384 379 384s379 -167 379 -384s-164 -383 -379 -383s-379 166 -379 383zM489 131c49 0 91 8 120 24v-64h92v281h90v80h-90v235h-92
v-449c-23 -19 -60 -28 -108 -28h-181v152h202v305h-294v-80h202v-145h-202v-311h261z" />
    <glyph glyph-name="_697" unicode="&#x3272;" 
d="M24 393c0 -256 201 -453 456 -453c254 0 455 197 455 453c0 257 -201 454 -455 454c-255 0 -456 -197 -456 -454zM101 393c0 217 164 384 379 384s379 -167 379 -384s-164 -383 -379 -383s-379 166 -379 383zM530 667h-302v-536h302v536zM320 210v377h118v-377h-118z
M609 687v-596h92v281h90v80h-90v235h-92z" />
    <glyph glyph-name="_698" unicode="&#x3273;" 
d="M24 393c0 -256 201 -453 456 -453c254 0 455 197 455 453c0 257 -201 454 -455 454c-255 0 -456 -197 -456 -454zM101 393c0 217 164 384 379 384s379 -167 379 -384s-164 -383 -379 -383s-379 166 -379 383zM438 667v-199h-118v199h-92v-536h302v536h-92zM438 210h-118
v178h118v-178zM791 452h-90v235h-92v-596h92v281h90v80z" />
    <glyph glyph-name="_699" unicode="&#x3274;" 
d="M24 393c0 -256 201 -453 456 -453c254 0 455 197 455 453c0 257 -201 454 -455 454c-255 0 -456 -197 -456 -454zM101 393c0 217 164 384 379 384s379 -167 379 -384s-164 -383 -379 -383c-111 0 -208 44 -276 116c76 25 143 72 177 130c34 -57 102 -104 177 -130
c0 1 1 1 1 1v83c-69 32 -132 89 -132 244v216h-93v-216c0 -155 -62 -213 -131 -244v-83c-64 68 -102 161 -102 266zM609 687v-596h92v281h90v80h-90v235h-92z" />
    <glyph glyph-name="_700" unicode="&#x3275;" 
d="M24 393c0 -256 201 -453 456 -453c254 0 455 197 455 453c0 257 -201 454 -455 454c-255 0 -456 -197 -456 -454zM101 393c0 217 164 384 379 384s379 -167 379 -384s-164 -383 -379 -383s-379 166 -379 383zM312 400c0 93 8 160 37 186c9 7 20 11 32 11s23 -4 31 -11
c29 -26 38 -93 38 -186c0 -94 -9 -160 -38 -186c-8 -8 -19 -12 -31 -12s-23 4 -32 12c-29 26 -37 92 -37 186zM791 452h-90v235h-92v-596h92v281h90v80zM542 400c0 129 -23 215 -79 254c-22 15 -49 23 -82 23s-61 -8 -83 -23c-56 -39 -78 -125 -78 -254
c0 -130 22 -216 78 -254c22 -16 50 -23 83 -23s60 7 82 23c56 38 79 124 79 254z" />
    <glyph glyph-name="_701" unicode="&#x3276;" 
d="M24 393c0 -256 201 -453 456 -453c254 0 455 197 455 453c0 257 -201 454 -455 454c-255 0 -456 -197 -456 -454zM101 393c0 217 164 384 379 384s379 -167 379 -384s-164 -383 -379 -383s-379 166 -379 383zM342 587v-135c0 -150 -62 -211 -128 -242v-84
c75 25 140 75 174 131c32 -56 96 -104 174 -131v84c-67 31 -128 92 -128 242v135h122v80h-336v-80h122zM791 452h-90v235h-92v-596h92v281h90v80z" />
    <glyph glyph-name="_702" unicode="&#x3277;" 
d="M24 393c0 -256 201 -453 456 -453c254 0 455 197 455 453c0 257 -201 454 -455 454c-255 0 -456 -197 -456 -454zM101 393c0 217 164 384 379 384s379 -167 379 -384s-164 -383 -379 -383s-379 166 -379 383zM220 525h122v-73c0 -150 -62 -211 -128 -242v-84
c75 25 140 75 174 131c32 -56 96 -104 174 -131v84c-67 31 -128 92 -128 242v73h122v79h-122v90h-92v-90h-122v-79zM609 687v-596h92v281h90v80h-90v235h-92z" />
    <glyph glyph-name="_703" unicode="&#x3278;" 
d="M24 393c0 -256 201 -453 456 -453c254 0 455 197 455 453c0 257 -201 454 -455 454c-255 0 -456 -197 -456 -454zM101 393c0 217 164 384 379 384s379 -167 379 -384s-164 -383 -379 -383s-379 166 -379 383zM438 543c0 -23 -1 -50 -3 -73c-25 -6 -65 -10 -110 -10h-101
v-80h98c36 0 69 3 94 8c-28 -90 -90 -150 -192 -180v-86c215 55 306 204 306 429v116h-302v-80h210v-44zM609 687v-596h92v281h90v80h-90v235h-92z" />
    <glyph glyph-name="_704" unicode="&#x3279;" 
d="M24 393c0 -256 201 -453 456 -453c254 0 455 197 455 453c0 257 -201 454 -455 454c-255 0 -456 -197 -456 -454zM101 393c0 217 164 384 379 384s379 -167 379 -384s-164 -383 -379 -383s-379 166 -379 383zM320 587h210v80h-302v-536h261c48 0 91 8 120 24v-64h92v281
h90v80h-90v235h-92v-449c-25 -21 -70 -28 -123 -28h-166v152h202v80h-202v145z" />
    <glyph glyph-name="_705" unicode="&#x327a;" 
d="M24 393c0 -256 201 -453 456 -453c254 0 455 197 455 453c0 257 -201 454 -455 454c-255 0 -456 -197 -456 -454zM101 393c0 217 164 384 379 384s379 -167 379 -384s-164 -383 -379 -383s-379 166 -379 383zM429 339c0 -46 -2 -93 -9 -130h-57v379h66v-249zM213 209v-78
h280c47 0 88 6 116 22v-62h92v281h90v80h-90v235h-92v-452c-20 -17 -59 -26 -100 -26c6 34 9 77 10 122v257h53v79h-352v-79h52v-379h-59z" />
    <glyph glyph-name="_706" unicode="&#x327b;" 
d="M24 393c0 -256 201 -453 456 -453c254 0 455 197 455 453c0 257 -201 454 -455 454c-255 0 -456 -197 -456 -454zM101 393c0 217 164 384 379 384s379 -167 379 -384s-164 -383 -379 -383s-379 166 -379 383zM426 694h-93v-80h-130v-80h353v80h-130v80zM791 452h-90v235
h-92v-596h92v281h90v80zM320 313c0 52 7 85 25 101c9 9 21 14 37 14s27 -5 37 -14c17 -16 25 -49 25 -101s-8 -84 -25 -101c-10 -9 -21 -13 -37 -13s-28 4 -37 13c-18 17 -25 49 -25 101zM536 313c0 79 -19 135 -59 166c-24 19 -56 29 -95 29s-71 -10 -96 -29
c-39 -31 -58 -87 -58 -166s19 -134 58 -165c25 -19 57 -29 96 -29s71 10 95 29c40 31 59 86 59 165z" />
    <glyph glyph-name="_707" unicode="&#x24d0;" 
d="M24 393c0 -256 201 -453 456 -453c254 0 455 197 455 453c0 257 -201 454 -455 454c-255 0 -456 -197 -456 -454zM101 393c0 217 164 384 379 384s379 -167 379 -384s-164 -383 -379 -383s-379 166 -379 383zM560 187h103c-7 19 -13 45 -13 64v200c0 94 -56 157 -173 157
c-108 0 -165 -57 -173 -143h102c5 37 28 59 71 59c49 0 73 -27 73 -73v-33c-23 18 -59 29 -101 29c-98 0 -159 -50 -159 -135c0 -86 62 -135 159 -135c46 0 81 12 104 32c1 -8 4 -15 7 -22zM471 257c-53 0 -79 20 -79 55s26 55 79 55c52 0 79 -20 79 -55s-27 -55 -79 -55z
" />
    <glyph glyph-name="_708" unicode="&#x24d1;" 
d="M24 393c0 -256 201 -453 456 -453c254 0 455 197 455 453c0 257 -201 454 -455 454c-255 0 -456 -197 -456 -454zM101 393c0 217 164 384 379 384s379 -167 379 -384s-164 -383 -379 -383s-379 166 -379 383zM425 698h-101v-569h101v30c23 -23 59 -39 102 -39
c104 0 168 69 168 215s-64 215 -168 215c-43 0 -79 -16 -102 -39v187zM425 335c0 82 22 131 85 131c61 0 84 -49 84 -131s-23 -131 -84 -131c-63 0 -85 49 -85 131z" />
    <glyph glyph-name="_709" unicode="&#x24d2;" 
d="M24 393c0 -256 201 -453 456 -453c254 0 455 197 455 453c0 257 -201 454 -455 454c-255 0 -456 -197 -456 -454zM101 393c0 217 164 384 379 384s379 -167 379 -384s-164 -383 -379 -383s-379 166 -379 383zM295 392c0 -136 61 -215 185 -215c105 0 170 58 180 159h-101
c-6 -47 -33 -75 -79 -75c-62 0 -84 49 -84 131s22 131 84 131c46 0 73 -28 79 -74h101c-10 100 -75 158 -180 158c-124 0 -185 -78 -185 -215z" />
    <glyph glyph-name="_710" unicode="&#x24d3;" 
d="M24 393c0 -256 201 -453 456 -453c254 0 455 197 455 453c0 257 -201 454 -455 454c-255 0 -456 -197 -456 -454zM101 393c0 217 164 384 379 384s379 -167 379 -384s-164 -383 -379 -383s-379 166 -379 383zM533 515c-23 23 -59 39 -101 39c-105 0 -169 -69 -169 -215
s64 -215 169 -215c42 0 78 16 101 39v-30h101v569h-101v-187zM533 339c0 -82 -22 -131 -84 -131c-63 0 -85 49 -85 131s22 131 85 131c62 0 84 -49 84 -131z" />
    <glyph glyph-name="_711" unicode="&#x24d4;" 
d="M24 393c0 -256 201 -453 456 -453c254 0 455 197 455 453c0 257 -201 454 -455 454c-255 0 -456 -197 -456 -454zM101 393c0 217 164 384 379 384s379 -167 379 -384s-164 -383 -379 -383s-379 166 -379 383zM555 326c-7 -40 -35 -65 -75 -65c-54 0 -81 36 -85 99h269v33
c0 137 -60 215 -185 215c-124 0 -185 -78 -185 -215s61 -215 186 -215c99 0 161 54 178 148h-103zM396 436c6 58 31 90 83 90c51 0 77 -34 83 -90h-166z" />
    <glyph glyph-name="_712" unicode="&#x24d5;" 
d="M24 393c0 -256 201 -453 456 -453c254 0 455 197 455 453c0 257 -201 454 -455 454c-255 0 -456 -197 -456 -454zM101 393c0 217 164 384 379 384s379 -167 379 -384s-164 -383 -379 -383s-379 166 -379 383zM602 593v78c-24 5 -43 6 -60 6c-100 0 -141 -34 -141 -127
v-35h-57v-84h57v-328h101v328h100v84h-100v31c0 34 12 47 50 47h50z" />
    <glyph glyph-name="_713" unicode="&#x24d6;" 
d="M24 393c0 -256 201 -453 456 -453c254 0 455 197 455 453c0 257 -201 454 -455 454c-255 0 -456 -197 -456 -454zM101 393c0 217 164 384 379 384s379 -167 379 -384s-164 -383 -379 -383s-379 166 -379 383zM555 251c0 -57 -26 -89 -76 -89c-40 0 -67 21 -72 60h-103
c11 -87 74 -140 174 -140c124 0 178 76 178 175v418h-101v-30c-23 23 -59 39 -101 39c-105 0 -169 -69 -169 -215s64 -216 169 -216c44 0 78 15 101 40v-42zM555 469c0 -83 -22 -132 -84 -132c-63 0 -85 49 -85 132c0 81 22 131 85 131c62 0 84 -50 84 -131z" />
    <glyph glyph-name="_714" unicode="&#x24d7;" 
d="M24 393c0 -256 201 -453 456 -453c254 0 455 197 455 453c0 257 -201 454 -455 454c-255 0 -456 -197 -456 -454zM101 393c0 217 164 384 379 384s379 -167 379 -384s-164 -383 -379 -383s-379 166 -379 383zM676 379c0 106 -52 165 -147 165c-48 0 -83 -15 -106 -43v191
h-101v-569h101v221c0 75 37 116 87 116c43 0 65 -26 65 -89v-248h101v256z" />
    <glyph glyph-name="_715" unicode="&#x24d8;" 
d="M24 393c0 -256 201 -453 456 -453c254 0 455 197 455 453c0 257 -201 454 -455 454c-255 0 -456 -197 -456 -454zM101 393c0 217 164 384 379 384s379 -167 379 -384s-164 -383 -379 -383s-379 166 -379 383zM530 113v412h-102v-412h102zM530 578v103h-102v-103h102z" />
    <glyph glyph-name="_716" unicode="&#x24d9;" 
d="M24 393c0 -256 201 -453 456 -453c254 0 455 197 455 453c0 257 -201 454 -455 454c-255 0 -456 -197 -456 -454zM101 393c0 217 164 384 379 384s379 -167 379 -384s-164 -383 -379 -383s-379 166 -379 383zM554 568h-102v-376c0 -33 -13 -47 -40 -47h-38v-81
c12 -2 34 -3 46 -3c87 0 134 43 134 128v379zM554 621v104h-102v-104h102z" />
    <glyph glyph-name="_717" unicode="&#x24da;" 
d="M24 393c0 -256 201 -453 456 -453c254 0 455 197 455 453c0 257 -201 454 -455 454c-255 0 -456 -197 -456 -454zM101 393c0 217 164 384 379 384s379 -167 379 -384s-164 -383 -379 -383s-379 166 -379 383zM440 129v174h20l123 -174h117l-155 215l136 197h-113
l-108 -157h-20v314h-101v-569h101z" />
    <glyph glyph-name="_718" unicode="&#x24db;" 
d="M24 393c0 -256 201 -453 456 -453c254 0 455 197 455 453c0 257 -201 454 -455 454c-255 0 -456 -197 -456 -454zM101 393c0 217 164 384 379 384s379 -167 379 -384s-164 -383 -379 -383s-379 166 -379 383zM534 108v568h-102v-568h102z" />
    <glyph glyph-name="_719" unicode="&#x24dc;" 
d="M24 393c0 -256 201 -453 456 -453c254 0 455 197 455 453c0 257 -201 454 -455 454c-255 0 -456 -197 -456 -454zM101 393c0 217 164 384 379 384s379 -167 379 -384s-164 -383 -379 -383s-379 166 -379 383zM535 406c0 76 32 117 78 117c38 0 57 -24 57 -74v-263h101
v261c0 103 -49 160 -139 160c-53 0 -94 -24 -120 -64c-22 42 -63 64 -116 64c-43 0 -76 -15 -98 -42v33h-101v-412h101v220c0 77 32 117 78 117c39 0 58 -24 58 -74v-263h101v220z" />
    <glyph glyph-name="_720" unicode="&#x24dd;" 
d="M24 393c0 -256 201 -453 456 -453c254 0 455 197 455 453c0 257 -201 454 -455 454c-255 0 -456 -197 -456 -454zM101 393c0 217 164 384 379 384s379 -167 379 -384s-164 -383 -379 -383s-379 166 -379 383zM660 442c0 106 -52 165 -146 165c-48 0 -83 -15 -107 -43v34
h-101v-412h101v221c0 75 37 116 87 116c43 0 66 -26 66 -89v-248h100v256z" />
    <glyph glyph-name="_721" unicode="&#x24de;" 
d="M24 393c0 -256 201 -453 456 -453c254 0 455 197 455 453c0 257 -201 454 -455 454c-255 0 -456 -197 -456 -454zM101 393c0 217 164 384 379 384s379 -167 379 -384s-164 -383 -379 -383s-379 166 -379 383zM665 394c0 136 -60 215 -185 215c-124 0 -185 -79 -185 -215
c0 -137 61 -216 185 -216c125 0 185 79 185 216zM396 394c0 81 22 131 84 131c63 0 84 -50 84 -131c0 -83 -21 -132 -84 -132c-62 0 -84 49 -84 132z" />
    <glyph glyph-name="_722" unicode="&#x24df;" 
d="M24 393c0 -256 201 -453 456 -453c254 0 455 197 455 453c0 257 -201 454 -455 454c-255 0 -456 -197 -456 -454zM101 393c0 217 164 384 379 384s379 -167 379 -384s-164 -383 -379 -383s-379 166 -379 383zM423 281c23 -25 57 -40 101 -40c105 0 169 70 169 216
s-64 215 -169 215c-42 0 -78 -16 -101 -39v30h-101v-582h101v200zM423 457c0 81 22 131 84 131s85 -50 85 -131c0 -83 -23 -132 -85 -132s-84 49 -84 132z" />
    <glyph glyph-name="_723" unicode="&#x24e0;" 
d="M24 393c0 -256 201 -453 456 -453c254 0 455 197 455 453c0 257 -201 454 -455 454c-255 0 -456 -197 -456 -454zM101 393c0 217 164 384 379 384s379 -167 379 -384s-164 -383 -379 -383s-379 166 -379 383zM534 81h101v582h-101v-30c-23 23 -59 39 -101 39
c-105 0 -169 -69 -169 -215s64 -216 169 -216c44 0 78 15 101 40v-200zM534 457c0 -83 -22 -132 -84 -132c-63 0 -85 49 -85 132c0 81 22 131 85 131c62 0 84 -50 84 -131z" />
    <glyph glyph-name="_724" unicode="&#x24e1;" 
d="M24 393c0 -256 201 -453 456 -453c254 0 455 197 455 453c0 257 -201 454 -455 454c-255 0 -456 -197 -456 -454zM101 393c0 217 164 384 379 384s379 -167 379 -384s-164 -383 -379 -383s-379 166 -379 383zM571 513c12 0 25 0 43 -3l1 82c-15 5 -29 6 -42 6
c-45 0 -76 -15 -97 -41v32h-101v-412h101v211c0 83 36 125 95 125z" />
    <glyph glyph-name="_725" unicode="&#x24e2;" 
d="M24 393c0 -256 201 -453 456 -453c254 0 455 197 455 453c0 257 -201 454 -455 454c-255 0 -456 -197 -456 -454zM101 393c0 217 164 384 379 384s379 -167 379 -384s-164 -383 -379 -383s-379 166 -379 383zM478 608c-100 0 -158 -53 -158 -125c0 -86 54 -107 178 -132
c35 -7 53 -21 53 -46s-31 -46 -66 -46c-38 0 -66 18 -66 47v21h-101v-21c0 -74 64 -128 167 -128c102 0 167 55 167 128c0 86 -50 119 -175 137c-39 9 -56 20 -56 43c0 22 21 41 57 41c37 0 58 -22 58 -42v-19h101v18c0 73 -59 124 -159 124z" />
    <glyph glyph-name="_726" unicode="&#x24e3;" 
d="M24 393c0 -256 201 -453 456 -453c254 0 455 197 455 453c0 257 -201 454 -455 454c-255 0 -456 -197 -456 -454zM101 393c0 217 164 384 379 384s379 -167 379 -384s-164 -383 -379 -383s-379 166 -379 383zM497 473h108v84h-108v110h-101v-110h-57v-84h57v-211
c0 -93 43 -123 144 -123c17 0 44 0 65 3v81h-51c-41 0 -57 9 -57 51v199z" />
    <glyph glyph-name="_727" unicode="&#x24e4;" 
d="M24 393c0 -256 201 -453 456 -453c254 0 455 197 455 453c0 257 -201 454 -455 454c-255 0 -456 -197 -456 -454zM101 393c0 217 164 384 379 384s379 -167 379 -384s-164 -383 -379 -383s-379 166 -379 383zM293 336c0 -106 51 -166 146 -166c47 0 83 16 107 44v-35h101
v412h-101v-221c0 -74 -37 -116 -87 -116c-43 0 -66 26 -66 90v247h-100v-255z" />
    <glyph glyph-name="_728" unicode="&#x24e5;" 
d="M24 393c0 -256 201 -453 456 -453c254 0 455 197 455 453c0 257 -201 454 -455 454c-255 0 -456 -197 -456 -454zM101 393c0 217 164 384 379 384s379 -167 379 -384s-164 -383 -379 -383s-379 166 -379 383zM526 166l152 412h-105l-99 -284l-99 284h-105l151 -412h105z
" />
    <glyph glyph-name="_729" unicode="&#x24e6;" 
d="M24 393c0 -256 201 -453 456 -453c254 0 455 197 455 453c0 257 -201 454 -455 454c-255 0 -456 -197 -456 -454zM101 393c0 217 164 384 379 384s379 -167 379 -384s-164 -383 -379 -383s-379 166 -379 383zM431 586l-84 -272l-82 272h-104l135 -412h99l83 270l84 -270
h99l134 412h-103l-82 -271l-85 271h-94z" />
    <glyph glyph-name="_730" unicode="&#x24e7;" 
d="M24 393c0 -256 201 -453 456 -453c254 0 455 197 455 453c0 257 -201 454 -455 454c-255 0 -456 -197 -456 -454zM101 393c0 217 164 384 379 384s379 -167 379 -384s-164 -383 -379 -383s-379 166 -379 383zM680 182l-139 210l132 202h-112l-80 -128l-81 128h-111
l131 -201l-139 -211h110l90 138l88 -138h111z" />
    <glyph glyph-name="_731" unicode="&#x24e8;" 
d="M24 393c0 -256 201 -453 456 -453c254 0 455 197 455 453c0 257 -201 454 -455 454c-255 0 -456 -197 -456 -454zM101 393c0 217 164 384 379 384s379 -167 379 -384s-164 -383 -379 -383s-379 166 -379 383zM415 179c-11 -30 -26 -37 -46 -37h-37v-81c18 -3 33 -3 45 -3
c63 0 103 21 131 95l183 487h-106l-98 -278l-100 278h-105l154 -402z" />
    <glyph glyph-name="_732" unicode="&#x24e9;" 
d="M24 393c0 -256 201 -453 456 -453c254 0 455 197 455 453c0 257 -201 454 -455 454c-255 0 -456 -197 -456 -454zM101 393c0 217 164 384 379 384s379 -167 379 -384s-164 -383 -379 -383s-379 166 -379 383zM633 599h-310v-84h181l-187 -259v-69h322v83h-193l187 259v70
z" />
    <glyph glyph-name="_733" unicode="&#x2460;" 
d="M24 393c0 -256 201 -453 456 -453c254 0 455 197 455 453c0 257 -201 454 -455 454c-255 0 -456 -197 -456 -454zM101 393c0 217 164 384 379 384s379 -167 379 -384s-164 -383 -379 -383s-379 166 -379 383zM553 114v566h-80l-150 -67v-96l130 57v-460h100z" />
    <glyph glyph-name="_734" unicode="&#x2461;" 
d="M24 393c0 -256 201 -453 456 -453c254 0 455 197 455 453c0 257 -201 454 -455 454c-255 0 -456 -197 -456 -454zM101 393c0 217 164 384 379 384s379 -167 379 -384s-164 -383 -379 -383s-379 166 -379 383zM661 525c0 96 -64 173 -180 173c-115 0 -179 -77 -179 -173
v-26h101v26c0 53 29 88 78 88s79 -35 79 -88c0 -30 -10 -55 -36 -84l-214 -244v-74h358v85h-222l159 181c40 46 56 83 56 136z" />
    <glyph glyph-name="_735" unicode="&#x2462;" 
d="M24 393c0 -256 201 -453 456 -453c254 0 455 197 455 453c0 257 -201 454 -455 454c-255 0 -456 -197 -456 -454zM101 393c0 217 164 384 379 384s379 -167 379 -384s-164 -383 -379 -383s-379 166 -379 383zM571 285c0 -57 -36 -90 -86 -90c-49 0 -88 33 -88 92v15h-100
v-19c0 -107 77 -174 188 -174c110 0 187 67 187 172c0 67 -34 115 -83 139c42 24 66 67 66 121c0 87 -62 153 -170 153c-109 0 -172 -66 -172 -153v-22h100v16c0 45 28 74 72 74c41 0 71 -29 71 -74c0 -44 -26 -74 -71 -74h-66v-85h65c53 0 87 -34 87 -91z" />
    <glyph glyph-name="_736" unicode="&#x2463;" 
d="M24 393c0 -256 201 -453 456 -453c254 0 455 197 455 453c0 257 -201 454 -455 454c-255 0 -456 -197 -456 -454zM101 393c0 217 164 384 379 384s379 -167 379 -384s-164 -383 -379 -383s-379 166 -379 383zM378 321l116 200v-200h-116zM664 321h-69v364h-104l-223 -371
v-79h226v-116h101v116h69v86z" />
    <glyph glyph-name="_737" unicode="&#x2464;" 
d="M24 393c0 -256 201 -453 456 -453c254 0 455 197 455 453c0 257 -201 454 -455 454c-255 0 -456 -197 -456 -454zM101 393c0 217 164 384 379 384s379 -167 379 -384s-164 -383 -379 -383s-379 166 -379 383zM483 400c53 0 83 -38 83 -106c0 -70 -31 -107 -83 -107
c-45 0 -76 31 -82 91h-101c8 -110 76 -176 183 -176c113 0 183 70 183 191c0 128 -68 192 -166 192c-33 0 -59 -8 -78 -24l7 131h208v86h-303l-14 -324h96c14 29 38 46 67 46z" />
    <glyph glyph-name="_738" unicode="&#x2465;" 
d="M24 393c0 -256 201 -453 456 -453c254 0 455 197 455 453c0 257 -201 454 -455 454c-255 0 -456 -197 -456 -454zM101 393c0 217 164 384 379 384s379 -167 379 -384s-164 -383 -379 -383s-379 166 -379 383zM481 605c40 0 64 -25 71 -71h102c-12 103 -77 156 -172 156
c-135 0 -189 -86 -189 -323c0 -164 55 -262 187 -262c108 0 185 73 185 192s-71 191 -174 191c-40 0 -73 -13 -95 -33c5 104 29 150 85 150zM394 297c0 67 33 106 85 106c53 0 86 -39 86 -106s-33 -107 -86 -107c-52 0 -85 40 -85 107z" />
    <glyph glyph-name="_739" unicode="&#x2466;" 
d="M24 393c0 -256 201 -453 456 -453c254 0 455 197 455 453c0 257 -201 454 -455 454c-255 0 -456 -197 -456 -454zM101 393c0 217 164 384 379 384s379 -167 379 -384s-164 -383 -379 -383s-379 166 -379 383zM303 572h252l-186 -481h104l187 497v69h-357v-85z" />
    <glyph glyph-name="_740" unicode="&#x2467;" 
d="M24 393c0 -256 201 -453 456 -453c254 0 455 197 455 453c0 257 -201 454 -455 454c-255 0 -456 -197 -456 -454zM101 393c0 217 164 384 379 384s379 -167 379 -384s-164 -383 -379 -383s-379 166 -379 383zM481 104c116 0 196 66 196 171c0 67 -33 114 -87 139
c43 24 70 70 70 122c0 88 -66 153 -179 153c-112 0 -179 -65 -179 -153c0 -53 26 -99 70 -122c-55 -25 -86 -71 -86 -139c0 -105 80 -171 195 -171zM481 604c48 0 79 -30 79 -75s-31 -74 -79 -74c-47 0 -79 29 -79 74s32 75 79 75zM481 371c56 0 95 -34 95 -91
c0 -56 -39 -90 -95 -90s-95 34 -95 90c0 57 39 91 95 91z" />
    <glyph glyph-name="_741" unicode="&#x2468;" 
d="M24 393c0 -256 201 -453 456 -453c254 0 455 197 455 453c0 257 -201 454 -455 454c-255 0 -456 -197 -456 -454zM101 393c0 217 164 384 379 384s379 -167 379 -384s-164 -383 -379 -383s-379 166 -379 383zM476 183c-40 0 -65 25 -71 71h-104c14 -103 79 -156 174 -156
c132 0 189 85 189 322c0 158 -52 263 -187 263c-108 0 -186 -73 -186 -193c0 -118 72 -190 174 -190c40 0 74 12 96 32c-6 -104 -30 -149 -85 -149zM562 490c0 -66 -33 -106 -85 -106s-85 40 -85 106c0 68 33 107 85 107s85 -39 85 -107z" />
    <glyph glyph-name="_742" unicode="&#x2469;" 
d="M24 393c0 -256 201 -453 456 -453c254 0 455 197 455 453c0 257 -201 454 -455 454c-255 0 -456 -197 -456 -454zM101 393c0 217 164 384 379 384s379 -167 379 -384s-164 -383 -379 -383s-379 166 -379 383zM380 127v534h-76l-125 -65v-96l105 54v-427h96zM537 395
c0 98 7 157 34 180c9 8 20 12 34 12s25 -4 34 -12c26 -23 34 -82 34 -180s-8 -157 -34 -180c-9 -8 -20 -11 -34 -11s-25 3 -34 11c-27 23 -34 82 -34 180zM441 395c0 -130 22 -212 76 -250c23 -16 52 -25 88 -25c35 0 64 9 88 25c53 38 75 120 75 250c0 131 -22 213 -75 250
c-24 17 -53 25 -88 25c-36 0 -65 -8 -88 -25c-54 -37 -76 -119 -76 -250z" />
    <glyph glyph-name="_743" unicode="&#x246a;" 
d="M24 393c0 -256 201 -453 456 -453c254 0 455 197 455 453c0 257 -201 454 -455 454c-255 0 -456 -197 -456 -454zM101 393c0 217 164 384 379 384s379 -167 379 -384s-164 -383 -379 -383s-379 166 -379 383zM407 127v534h-76l-125 -65v-96l105 54v-427h96zM695 127v534
h-76l-125 -65v-96l105 54v-427h96z" />
    <glyph glyph-name="_744" unicode="&#x246b;" 
d="M24 393c0 -256 201 -453 456 -453c254 0 455 197 455 453c0 257 -201 454 -455 454c-255 0 -456 -197 -456 -454zM101 393c0 217 164 384 379 384s379 -167 379 -384s-164 -383 -379 -383s-379 166 -379 383zM380 127v534h-76l-125 -65v-96l105 54v-427h96zM751 509
c0 90 -54 164 -153 164c-97 0 -152 -74 -152 -164v-26h96v26c0 48 21 80 56 80c36 0 57 -32 57 -80c0 -29 -8 -51 -28 -78l-174 -230v-70h304v84h-179l127 166c35 45 46 78 46 128z" />
    <glyph glyph-name="_745" unicode="&#x246c;" 
d="M24 393c0 -256 201 -453 456 -453c254 0 455 197 455 453c0 257 -201 454 -455 454c-255 0 -456 -197 -456 -454zM101 393c0 217 164 384 379 384s379 -167 379 -384s-164 -383 -379 -383s-379 166 -379 383zM380 127v534h-76l-125 -65v-96l105 54v-427h96zM660 284
c0 -52 -27 -82 -63 -82c-37 0 -64 30 -64 84v15h-96v-18c0 -102 66 -165 160 -165c93 0 158 63 158 163c0 63 -26 108 -69 130c35 22 56 64 56 113c0 82 -53 145 -145 145c-93 0 -146 -63 -146 -145v-23h94v17c0 40 21 67 52 67c30 0 50 -27 50 -67s-19 -67 -50 -67h-60v-83
h59c39 0 64 -31 64 -84z" />
    <glyph glyph-name="_746" unicode="&#x246d;" 
d="M24 393c0 -256 201 -453 456 -453c254 0 455 197 455 453c0 257 -201 454 -455 454c-255 0 -456 -197 -456 -454zM101 393c0 217 164 384 379 384s379 -167 379 -384s-164 -383 -379 -383s-379 166 -379 383zM380 127v534h-76l-125 -65v-96l105 54v-427h96zM530 317
l82 161v-161h-82zM758 317h-51v341h-96l-183 -351v-74h184v-109h95v109h51v84z" />
    <glyph glyph-name="_747" unicode="&#x246e;" 
d="M24 393c0 -256 201 -453 456 -453c254 0 455 197 455 453c0 257 -201 454 -455 454c-255 0 -456 -197 -456 -454zM101 393c0 217 164 384 379 384s379 -167 379 -384s-164 -383 -379 -383s-379 166 -379 383zM380 127v534h-76l-125 -65v-96l105 54v-427h96zM594 395
c39 0 60 -34 60 -97c0 -65 -22 -98 -60 -98c-33 0 -55 28 -60 84h-96c8 -104 64 -168 156 -168c96 0 156 67 156 180c0 121 -59 182 -142 182c-22 0 -41 -6 -57 -15l6 112h169v83h-260l-11 -306h90c11 27 29 43 49 43z" />
    <glyph glyph-name="_748" unicode="&#xbd;" 
d="M247 265v522h-82l-125 -58v-85l110 51v-430h97zM578 787l-385 -787h95l384 787h-94zM811 370c0 -31 -11 -52 -31 -75l-198 -225v-70h324v82h-196l138 155c41 46 59 81 59 134c0 98 -68 159 -168 159c-103 0 -168 -62 -168 -159v-19h97v18c0 42 24 74 71 74s72 -32 72 -74
z" />
    <glyph glyph-name="_749" unicode="&#x2153;" 
d="M247 265v522h-82l-125 -58v-85l110 51v-430h97zM672 787h-94l-385 -788h95zM741 450c42 0 68 -27 68 -69c0 -43 -27 -68 -72 -68h-43v-80h43c52 0 83 -27 83 -81c0 -48 -30 -82 -79 -82s-79 34 -79 83v17h-96v-19c0 -90 60 -161 175 -161c113 0 175 70 175 159
c0 68 -33 110 -92 127c55 18 79 61 79 113c0 85 -65 141 -162 141c-98 0 -162 -57 -162 -139v-17h94v8c0 41 25 68 68 68z" />
    <glyph glyph-name="_750" unicode="&#x2154;" 
d="M266 635c0 -31 -10 -51 -30 -74l-198 -226v-70h324v83h-197l139 155c40 45 58 80 58 133c0 99 -68 160 -167 160c-104 0 -168 -63 -168 -160v-19h96v18c0 43 24 74 72 74c47 0 71 -31 71 -74zM623 787l-385 -787h95l384 787h-94zM826 381c0 -43 -26 -68 -71 -68h-43v-80
h43c51 0 82 -27 82 -81c0 -48 -30 -81 -79 -81s-79 33 -79 82v17h-96v-19c0 -89 61 -160 175 -160s176 69 176 158c0 68 -34 110 -93 127c55 18 79 61 79 113c0 85 -64 141 -162 141s-162 -57 -162 -139v-17h94v8c0 41 26 68 68 68c43 0 68 -27 68 -69z" />
    <glyph glyph-name="_751" unicode="&#xbc;" 
d="M247 265v522h-82l-125 -58v-85l110 51v-430h97zM682 787h-94l-385 -788h95zM642 181l127 206v-206h-127zM918 181h-54v340h-107l-213 -347v-74h225v-101h95v101h54v81z" />
    <glyph glyph-name="_752" unicode="&#xbe;" 
d="M642 181l127 206v-206h-127zM918 181h-54v340h-107l-213 -347v-74h225v-101h95v101h54v81zM196 715c43 0 68 -26 68 -69s-27 -67 -71 -67h-43v-80h43c51 0 82 -27 82 -82c0 -48 -30 -81 -79 -81s-79 33 -79 83v16h-96v-19c0 -89 60 -160 175 -160c113 0 175 70 175 159
c0 68 -34 110 -92 127c55 18 78 60 78 112c0 85 -64 142 -161 142c-98 0 -162 -58 -162 -140v-16h94v8c0 41 25 67 68 67zM729 787h-94l-385 -788h95z" />
    <glyph glyph-name="_753" unicode="&#x215b;" 
d="M739 -11c113 0 181 67 181 159c0 64 -34 112 -93 131c50 16 79 62 79 112c0 82 -64 138 -167 138c-102 0 -166 -56 -166 -138c0 -50 29 -96 79 -112c-59 -19 -92 -67 -92 -131c0 -92 67 -159 179 -159zM739 317c-45 0 -72 26 -72 65s27 66 72 66c46 0 73 -27 73 -66
s-27 -65 -73 -65zM823 152c0 -52 -34 -83 -84 -83c-49 0 -83 31 -83 83c0 54 34 85 83 85c50 0 84 -31 84 -85zM247 265v522h-82l-125 -58v-85l110 51v-430h97zM672 787h-94l-385 -788h95z" />
    <glyph glyph-name="_754" unicode="&#x215c;" 
d="M754 -11c113 0 181 67 181 159c0 64 -34 112 -93 131c50 16 79 62 79 112c0 82 -64 138 -167 138c-102 0 -166 -56 -166 -138c0 -50 29 -96 79 -112c-59 -19 -92 -67 -92 -131c0 -92 67 -159 179 -159zM754 317c-45 0 -72 26 -72 65s27 66 72 66c46 0 73 -27 73 -66
s-27 -65 -73 -65zM838 152c0 -52 -34 -83 -84 -83c-49 0 -83 31 -83 83c0 54 34 85 83 85c50 0 84 -31 84 -85zM196 715c43 0 68 -26 68 -69s-27 -67 -71 -67h-43v-80h43c51 0 82 -27 82 -82c0 -48 -30 -81 -79 -81s-79 33 -79 83v16h-96v-19c0 -89 60 -160 175 -160
c113 0 175 70 175 159c0 68 -34 110 -92 127c55 18 78 60 78 112c0 85 -64 142 -161 142c-98 0 -162 -58 -162 -140v-16h94v8c0 41 25 67 68 67zM711 787h-94l-385 -788h95z" />
    <glyph glyph-name="_755" unicode="&#x215d;" 
d="M754 -11c113 0 181 67 181 159c0 64 -34 112 -93 131c50 16 79 62 79 112c0 82 -64 138 -167 138c-102 0 -166 -56 -166 -138c0 -50 29 -96 79 -112c-59 -19 -92 -67 -92 -131c0 -92 67 -159 179 -159zM754 317c-45 0 -72 26 -72 65s27 66 72 66c46 0 73 -27 73 -66
s-27 -65 -73 -65zM838 152c0 -52 -34 -83 -84 -83c-49 0 -83 31 -83 83c0 54 34 85 83 85c50 0 84 -31 84 -85zM711 787h-94l-385 -788h95zM24 414c7 -96 67 -157 172 -157c109 0 170 68 170 177c0 108 -53 178 -146 178c-38 0 -69 -15 -86 -39l7 132h199v82h-286l-14 -297
h88c11 26 38 43 69 43c48 0 75 -36 75 -98s-28 -97 -76 -97c-44 0 -72 28 -76 76h-96z" />
    <glyph glyph-name="_756" unicode="&#x215e;" 
d="M754 -11c113 0 181 67 181 159c0 64 -34 112 -93 131c50 16 79 62 79 112c0 82 -64 138 -167 138c-102 0 -166 -56 -166 -138c0 -50 29 -96 79 -112c-59 -19 -92 -67 -92 -131c0 -92 67 -159 179 -159zM754 317c-45 0 -72 26 -72 65s27 66 72 66c46 0 73 -27 73 -66
s-27 -65 -73 -65zM838 152c0 -52 -34 -83 -84 -83c-49 0 -83 31 -83 83c0 54 34 85 83 85c50 0 84 -31 84 -85zM691 787h-94l-385 -788h95zM31 704h236l-169 -439h100l171 453v69h-338v-83z" />
    <glyph glyph-name="_757" unicode="&#xe6;" horiz-adv-x="978" 
d="M486 80c36 -63 102 -94 188 -94c133 0 217 67 236 182h-113c-10 -59 -54 -93 -123 -93c-93 0 -135 62 -139 173h386c1 10 1 22 1 33c0 185 -81 294 -248 294c-82 0 -148 -32 -184 -98c-33 65 -101 98 -188 98c-143 0 -220 -72 -229 -180h112c7 55 45 90 118 90
c81 0 121 -45 121 -121v-94c-21 47 -83 73 -163 73c-128 0 -209 -66 -209 -179c0 -112 79 -178 227 -178c98 0 174 33 207 94zM536 328c6 99 48 158 137 158s131 -59 136 -158h-273zM293 71c-86 0 -130 33 -130 93s44 94 130 94c87 0 131 -34 131 -94s-44 -93 -131 -93z" />
    <glyph glyph-name="_758" unicode="&#x111;" horiz-adv-x="609" 
d="M429 474c-22 61 -80 101 -163 101c-140 0 -224 -95 -224 -294c0 -200 84 -295 224 -295c83 0 141 40 163 101v-87h111v641h62v74h-62v72h-111v-72h-154v-74h154v-167zM429 281c0 -129 -36 -204 -138 -204c-103 0 -139 75 -139 204c0 127 36 203 139 203
c102 0 138 -76 138 -203z" />
    <glyph glyph-name="_759" unicode="&#xf0;" horiz-adv-x="582" 
d="M304 662c46 -37 79 -87 94 -141c-26 35 -75 54 -132 54c-137 0 -224 -93 -224 -294c0 -184 78 -295 249 -295c172 0 249 112 249 295c0 198 -45 339 -149 434l74 45l-32 49l-91 -56c-34 23 -73 43 -118 61l-62 -73c34 -13 63 -27 90 -43l-75 -45l31 -49zM152 281
c0 127 36 203 139 203c102 0 138 -76 138 -203c0 -129 -36 -204 -138 -204c-103 0 -139 75 -139 204z" />
    <glyph glyph-name="_760" unicode="&#x127;" horiz-adv-x="603" 
d="M544 351c0 143 -68 224 -194 224c-88 0 -146 -45 -170 -111v177h153v74h-153v72h-111v-72h-62v-74h62v-641h111v301c0 118 60 183 142 183c72 0 111 -43 111 -144v-340h111v351z" />
    <glyph glyph-name="_761" unicode="&#x131;" horiz-adv-x="242" 
d="M176 0v562h-111v-562h111z" />
    <glyph glyph-name="_762" unicode="&#x133;" horiz-adv-x="503" 
d="M176 0v562h-111v-562h111zM176 668v119h-111v-119h111zM437 562h-111v-634c0 -58 -25 -82 -75 -82h-38v-88c12 -1 35 -2 50 -2c117 0 174 56 174 168v638zM437 668v119h-111v-119h111z" />
    <glyph glyph-name="_763" unicode="&#x138;" horiz-adv-x="535" 
d="M171 0v249h56l178 -249h125l-211 292l186 270h-122l-155 -226h-57v226h-111v-562h111z" />
    <glyph glyph-name="_764" unicode="&#x140;" horiz-adv-x="371" 
d="M176 -1v788h-111v-788h111zM361 482h-117v-119h117v119z" />
    <glyph glyph-name="_765" unicode="&#x142;" horiz-adv-x="322" 
d="M17 277l88 45v-322h111v380l89 46v83l-89 -47v325h-111v-382l-88 -45v-83z" />
    <glyph glyph-name="_766" unicode="&#xf8;" horiz-adv-x="582" 
d="M291 575c-168 0 -249 -109 -249 -294c0 -106 25 -187 79 -237l-49 -88h80l28 50c31 -13 68 -20 111 -20c168 0 249 108 249 295c0 104 -27 185 -79 235l48 89h-80l-28 -51c-31 14 -68 21 -110 21zM153 281c0 127 35 203 138 203c25 0 46 -4 65 -13l-180 -326
c-16 34 -23 79 -23 136zM291 76c-26 0 -47 5 -65 13l179 326c17 -33 24 -79 24 -134c0 -129 -35 -205 -138 -205z" />
    <glyph glyph-name="_767" unicode="&#x153;" horiz-adv-x="992" 
d="M302 484c102 0 138 -76 138 -203c0 -129 -36 -205 -138 -205c-103 0 -139 76 -139 205c0 127 36 203 139 203zM689 486c89 0 131 -59 136 -158h-273c6 99 47 158 137 158zM693 -14c130 0 214 67 233 182h-112c-12 -59 -55 -93 -123 -93c-95 0 -137 63 -140 173h386
c1 7 1 25 1 33c0 185 -82 294 -246 294c-93 0 -163 -40 -197 -110c-34 70 -104 110 -197 110c-163 0 -245 -109 -245 -294c0 -187 82 -295 245 -295c92 0 163 40 197 108c35 -68 103 -108 198 -108z" />
    <glyph glyph-name="_768" unicode="&#xdf;" horiz-adv-x="643" 
d="M610 196c0 123 -83 186 -176 200c84 20 137 89 137 175c0 121 -85 229 -255 229c-171 0 -256 -105 -256 -240v-561h116v560c0 88 52 140 140 140c86 0 138 -55 138 -131c0 -70 -38 -123 -134 -123h-29v-98h21c110 0 182 -53 182 -145c0 -73 -50 -116 -137 -116
c-30 0 -65 4 -90 11v-100c28 -7 67 -11 100 -11c150 0 243 76 243 210z" />
    <glyph glyph-name="_769" unicode="&#xfe;" horiz-adv-x="601" 
d="M171 281c0 127 35 203 138 203s138 -76 138 -203c0 -129 -35 -205 -138 -205s-138 76 -138 205zM171 86c22 -60 80 -100 163 -100c140 0 224 94 224 295c0 199 -84 294 -224 294c-83 0 -141 -40 -163 -101v313h-111v-1032h111v331z" />
    <glyph glyph-name="_770" unicode="&#x167;" horiz-adv-x="406" 
d="M342 262v75h-125v134h155v91h-155v159h-111v-159h-82v-91h82v-134h-67v-75h67v-110c0 -121 56 -160 189 -160c24 0 57 0 77 2v88h-56c-72 0 -99 16 -99 89v91h125z" />
    <glyph glyph-name="_771" unicode="&#x14b;" horiz-adv-x="594" 
d="M424 -75c0 -56 -25 -80 -75 -80h-37v-87c11 -2 35 -3 49 -3c118 0 174 57 174 169v427c0 143 -68 224 -194 224c-88 0 -146 -45 -170 -111v98h-111v-563h111v302c0 118 60 183 142 183c73 0 111 -43 111 -144v-415z" />
    <glyph glyph-name="_772" unicode="&#x149;" horiz-adv-x="637" 
d="M578 351c0 143 -68 224 -194 224c-89 0 -146 -45 -170 -111v98h-111v-562h111v301c0 123 66 180 148 180s105 -53 105 -177v-304h111v351zM15 661h54c0 -49 -20 -71 -60 -77v-51c78 9 119 51 119 124v130h-113v-126z" />
    <glyph glyph-name="_773" unicode="&#x3200;" 
d="M37 394c0 -154 52 -299 141 -423h73c-83 126 -132 279 -132 423c0 143 49 296 132 423h-73c-89 -124 -141 -270 -141 -423zM922 394c0 153 -51 299 -140 423h-73c82 -127 131 -280 131 -423c0 -144 -49 -297 -131 -423h73c89 124 140 269 140 423zM243 584v-89h356v-292
h104v381h-460z" />
    <glyph glyph-name="_774" unicode="&#x3201;" 
d="M715 203v90h-357v291h-103v-381h460zM37 394c0 -154 52 -299 141 -423h73c-83 126 -132 279 -132 423c0 143 49 296 132 423h-73c-89 -124 -141 -270 -141 -423zM922 394c0 153 -51 299 -140 423h-73c82 -127 131 -280 131 -423c0 -144 -49 -297 -131 -423h73
c89 124 140 269 140 423z" />
    <glyph glyph-name="_775" unicode="&#x3202;" 
d="M356 293v202h349v89h-453v-381h460v90h-356zM37 394c0 -154 52 -299 141 -423h73c-83 126 -132 279 -132 423c0 143 49 296 132 423h-73c-89 -124 -141 -270 -141 -423zM922 394c0 153 -51 299 -140 423h-73c82 -127 131 -280 131 -423c0 -144 -49 -297 -131 -423h73
c89 124 140 269 140 423z" />
    <glyph glyph-name="_776" unicode="&#x3203;" 
d="M359 284v66h342v241h-446v-89h342v-63h-342v-243h461v88h-357zM37 394c0 -154 52 -299 141 -423h73c-83 126 -132 279 -132 423c0 143 49 296 132 423h-73c-89 -124 -141 -270 -141 -423zM922 394c0 153 -51 299 -140 423h-73c82 -127 131 -280 131 -423
c0 -144 -49 -297 -131 -423h73c89 124 140 269 140 423z" />
    <glyph glyph-name="_777" unicode="&#x3204;" 
d="M252 584v-381h453v381h-453zM602 495v-202h-246v202h246zM37 394c0 -154 52 -299 141 -423h73c-83 126 -132 279 -132 423c0 143 49 296 132 423h-73c-89 -124 -141 -270 -141 -423zM922 394c0 153 -51 299 -140 423h-73c82 -127 131 -280 131 -423
c0 -144 -49 -297 -131 -423h73c89 124 140 269 140 423z" />
    <glyph glyph-name="_778" unicode="&#x3205;" 
d="M356 467v117h-104v-381h453v381h-103v-117h-246zM602 378v-85h-246v85h246zM37 394c0 -154 52 -299 141 -423h73c-83 126 -132 279 -132 423c0 143 49 296 132 423h-73c-89 -124 -141 -270 -141 -423zM922 394c0 153 -51 299 -140 423h-73c82 -127 131 -280 131 -423
c0 -144 -49 -297 -131 -423h73c89 124 140 269 140 423z" />
    <glyph glyph-name="_779" unicode="&#x3206;" 
d="M736 210v91c-125 18 -202 92 -202 216v88h-104v-88c0 -124 -78 -197 -201 -216v-90c117 13 206 65 253 130c47 -66 137 -116 254 -131zM37 394c0 -154 52 -299 141 -423h73c-83 126 -132 279 -132 423c0 143 49 296 132 423h-73c-89 -124 -141 -270 -141 -423zM922 394
c0 153 -51 299 -140 423h-73c82 -127 131 -280 131 -423c0 -144 -49 -297 -131 -423h73c89 124 140 269 140 423z" />
    <glyph glyph-name="_780" unicode="&#x3207;" 
d="M339 394c0 32 12 59 34 79c24 21 61 33 106 33s81 -12 105 -33c23 -20 35 -47 35 -79s-12 -59 -35 -79c-24 -21 -60 -33 -105 -33s-81 12 -106 33c-22 20 -34 47 -34 79zM235 394c0 -61 26 -112 69 -148c42 -33 104 -53 175 -53s132 20 174 53c43 36 70 87 70 148
s-26 113 -70 148c-42 33 -103 53 -174 53s-133 -20 -175 -53c-43 -35 -69 -87 -69 -148zM37 394c0 -154 52 -299 141 -423h73c-83 126 -132 279 -132 423c0 143 49 296 132 423h-73c-89 -124 -141 -270 -141 -423zM922 394c0 153 -51 299 -140 423h-73
c82 -127 131 -280 131 -423c0 -144 -49 -297 -131 -423h73c89 124 140 269 140 423z" />
    <glyph glyph-name="_781" unicode="&#x3208;" 
d="M716 584h-474v-89h184v-2c0 -115 -77 -186 -192 -206v-90c106 16 196 64 245 127c48 -62 136 -111 244 -127v90c-115 20 -192 91 -192 206v2h185v89zM37 394c0 -154 52 -299 141 -423h73c-83 126 -132 279 -132 423c0 143 49 296 132 423h-73
c-89 -124 -141 -270 -141 -423zM922 394c0 153 -51 299 -140 423h-73c82 -127 131 -280 131 -423c0 -144 -49 -297 -131 -423h73c89 124 140 269 140 423z" />
    <glyph glyph-name="_782" unicode="&#x3209;" 
d="M716 541h-185v93h-105v-93h-184v-89h181c-14 -92 -87 -147 -189 -163v-91c106 14 195 61 244 123c48 -62 137 -109 245 -122v90c-102 16 -175 71 -189 163h182v89zM37 394c0 -154 52 -299 141 -423h73c-83 126 -132 279 -132 423c0 143 49 296 132 423h-73
c-89 -124 -141 -270 -141 -423zM922 394c0 153 -51 299 -140 423h-73c82 -127 131 -280 131 -423c0 -144 -49 -297 -131 -423h73c89 124 140 269 140 423z" />
    <glyph glyph-name="_783" unicode="&#x320a;" 
d="M252 584v-89h350v-75c-57 -7 -117 -10 -168 -10h-182v-88h182c55 0 115 2 168 10v-129h103v381h-453zM37 394c0 -154 52 -299 141 -423h73c-83 126 -132 279 -132 423c0 143 49 296 132 423h-73c-89 -124 -141 -270 -141 -423zM922 394c0 153 -51 299 -140 423h-73
c82 -127 131 -280 131 -423c0 -144 -49 -297 -131 -423h73c89 124 140 269 140 423z" />
    <glyph glyph-name="_784" unicode="&#x320b;" 
d="M359 284v66h335v89h-335v63h342v89h-446v-395h461v88h-357zM37 394c0 -154 52 -299 141 -423h73c-83 126 -132 279 -132 423c0 143 49 296 132 423h-73c-89 -124 -141 -270 -141 -423zM922 394c0 153 -51 299 -140 423h-73c82 -127 131 -280 131 -423
c0 -144 -49 -297 -131 -423h73c89 124 140 269 140 423z" />
    <glyph glyph-name="_785" unicode="&#x320c;" 
d="M542 413c0 -42 -3 -89 -12 -120h-112v202h124v-82zM646 495h74v89h-482v-89h76v-202h-90v-90h511v90h-102c10 35 13 80 13 125v77zM37 394c0 -154 52 -299 141 -423h73c-83 126 -132 279 -132 423c0 143 49 296 132 423h-73c-89 -124 -141 -270 -141 -423zM922 394
c0 153 -51 299 -140 423h-73c82 -127 131 -280 131 -423c0 -144 -49 -297 -131 -423h73c89 124 140 269 140 423z" />
    <glyph glyph-name="_786" unicode="&#x320d;" 
d="M224 558v-88h509v88h-202v80h-106v-80h-201zM356 304c0 10 5 20 12 26c19 16 59 24 111 24s91 -8 110 -24c8 -6 13 -16 13 -26s-5 -19 -13 -26c-19 -16 -58 -24 -110 -24s-92 8 -111 24c-7 7 -12 16 -12 26zM252 304c0 -35 14 -64 39 -86c37 -34 102 -51 188 -51
c85 0 151 17 188 51c25 22 38 51 38 86c0 36 -13 64 -38 87c-37 33 -103 51 -188 51c-86 0 -151 -18 -188 -51c-25 -23 -39 -51 -39 -87zM37 394c0 -154 52 -299 141 -423h73c-83 126 -132 279 -132 423c0 143 49 296 132 423h-73c-89 -124 -141 -270 -141 -423zM922 394
c0 153 -51 299 -140 423h-73c82 -127 131 -280 131 -423c0 -144 -49 -297 -131 -423h73c89 124 140 269 140 423z" />
    </font>
</defs>
</svg>
